#TITLE:IT'S ON;
#SUBTITLE:;
#ARTIST:JUMP IN;
#TITLETRANSLIT:;
#SUBTITLETRANSLIT:;
#ARTISTTRANSLIT:;
#CREDIT:;
#BANNER:IT'S ON.png;
#BACKGROUND:IT'S ON-bg.png;
#LYRICSPATH:;
#CDTITLE:./CDTITLES/Dance Dance Revolution Disney Channel Edition.png;
#MUSIC:IT'S ON.mp3;
#OFFSET:-0.037;
#SAMPLESTART:27.155;
#SAMPLELENGTH:15.000;
#SELECTABLE:YES;
#BPMS:0.000=105.000;
#STOPS:;
#BGCHANGES:;

//---------------dance-single - ----------------
#NOTES:
     dance-single:
     :
     Beginner:
     1:
     0.109,0.148,0.009,0.000,0.000:
0000
0000
0000
0000
,
0000
0000
0000
0000
,
0000
0000
0000
0000
,
0000
0000
0000
0000
,
1000
0000
0010
0000
,
1000
0000
0010
0000
,
0100
0000
0001
0000
,
0100
0000
0001
0000
,
1000
0000
0000
0000
,
0010
0000
0000
0000
,
0100
0000
0000
0000
,
0001
0000
0100
0000
,
0010
0010
0010
0000
,
0100
0100
0100
0000
,
0001
0000
1000
0000
,
0001
0000
1000
0000
,
0100
0100
0100
0000
,
0010
0010
0010
0000
,
0001
0000
1000
0000
,
0001
0000
1000
0000
,
0100
0000
0000
0000
,
0010
0000
0000
0000
,
0001
0000
0000
0000
,
1000
0000
0000
0000
,
0010
0000
0100
0000
,
0010
0000
0100
0000
,
0001
0000
1000
0000
,
0001
0000
1000
0000
,
0100
0100
0100
0000
,
0010
0010
0010
0000
,
0001
0000
0100
0000
,
1000
0000
0100
0000
,
0001
0001
0001
0000
,
1000
1000
1000
0000
,
0010
0000
0100
0000
,
0001
0000
1000
0000
,
0100
0000
0001
0000
,
0100
0000
1000
0000
,
0010
0000
0001
0000
,
0010
0000
1000
0000
,
0100
0000
0010
0000
,
0001
0000
1000
0000
,
0100
0000
0001
0000
,
0100
0000
1000
0000
,
1001
0000
0000
0000
,
0100
0000
0000
0000
,
0100
0000
0000
0000
,
0100
0000
0000
0000
,
0100
0000
0000
0000
;

//---------------dance-single - ----------------
#NOTES:
     dance-single:
     :
     Easy:
     3:
     0.187,0.192,0.009,0.150,0.000:
0000
0000
0000
0000
,
0000
0000
0000
0000
,
0000
0000
0000
0000
,
0000
0000
0000
0000
,
1000
0001
1000
0100
,
0010
0001
1000
0000
,
0001
1000
0001
0100
,
0010
1000
0001
0000
,
0010
0000
1000
0000
,
0010
0000
0100
0100
,
0010
0000
0001
0000
,
0100
0000
1000
0001
,
0010
0010
0100
0100
,
0010
0100
0010
0100
,
2000
3000
0002
0003
,
1000
0001
1000
0000
,
0010
0010
0100
0100
,
0010
0100
0010
0100
,
0002
0003
2000
3000
,
0001
1000
0001
0000
,
0001
0100
1000
0000
,
1000
0100
0001
0000
,
0001
0010
1000
0000
,
1000
0010
0001
0100
,
0010
0000
1000
0001
,
1000
0000
0100
0010
,
0100
0000
0001
0000
,
1000
0000
0010
0000
,
0001
1000
0001
1000
,
0010
0100
0010
0100
,
0002
0003
2000
3000
,
0100
1000
0010
0100
,
0001
1000
0001
1000
,
0100
0010
0100
0010
,
0002
0003
2000
3000
,
0001
0010
1000
0000
,
0010
1000
0100
1000
,
0010
1000
0100
1000
,
0002
0003
0200
0300
,
1000
0100
0001
0000
,
0010
0001
0100
0001
,
0010
0001
0100
0001
,
2000
3000
0200
0300
,
0001
0100
1000
0000
,
2001
0000
3000
0000
,
0200
0000
0300
0000
,
0020
0000
0030
0000
,
0002
0000
0003
0000
,
0200
0000
0300
0000
;

//---------------dance-single - ----------------
#NOTES:
     dance-single:
     :
     Medium:
     5:
     0.257,0.254,0.079,0.158,0.000:
0000
0000
0000
0000
,
0000
0000
0000
0000
,
0000
0000
0000
0000
,
0000
0000
0000
0000
,
1000
0000
0100
0000
1000
0000
0100
0010
,
0001
0000
0010
0000
0001
0000
0010
0100
,
1000
0000
0010
0000
1000
0000
0010
0100
,
0001
0000
0100
0000
0001
0000
0100
0010
,
1000
1001
0000
0001
,
0010
1001
0000
0100
,
1000
1001
0000
0100
,
0001
0000
1001
0000
0000
0000
0010
0100
,
2000
0010
0100
0010
,
3002
0100
0010
0103
,
0010
0001
0100
1000
,
0010
0000
1000
0000
0100
0000
0001
0010
,
0200
1000
0001
1300
,
0020
0001
1000
0031
,
1000
0100
0001
0010
,
0100
1000
0001
0000
,
0110
0100
0020
0000
0030
0000
1000
0000
,
0100
0100
0020
0000
0030
0000
0001
0000
,
0100
0100
1000
0000
0100
0100
0001
0000
,
0010
0000
0100
0000
1000
0000
0001
1000
,
0001
0000
0100
0000
0010
0000
0010
1000
,
0001
0010
0100
0100
,
1000
1100
0001
0101
,
0010
0000
1000
0000
0001
0000
0100
0010
,
2000
0100
0010
0100
,
3002
0010
0100
0013
,
0100
0001
0010
1000
,
0100
0000
1000
0000
0010
0000
0001
0100
,
0020
1000
0001
1030
,
0200
0001
1000
0301
,
1000
0010
0001
0100
,
0010
0000
1000
0000
0001
0000
0100
0010
,
0002
0100
0010
0100
,
2003
0010
0100
3010
,
0100
1000
0010
0001
,
0100
0000
0001
0000
0010
0000
1000
0100
,
0020
0001
1000
0031
,
0200
1000
0001
1300
,
0001
0010
1000
0100
,
0010
0000
0001
0000
1000
0000
1001
0100
,
0020
0000
0000
0000
0030
0000
0000
0001
,
0002
0000
0003
0000
,
2000
0000
0000
0000
3000
0000
0000
0100
,
0200
0000
0300
0000
,
1001
0000
0000
0000
;

//---------------dance-single - ----------------
#NOTES:
     dance-single:
     :
     Hard:
     7:
     0.405,0.401,0.123,0.220,0.057: // measure 1
0000
0000
0000
0000
,  // measure 2
0000
0000
0000
0000
,  // measure 3
0000
0000
0000
0000
,  // measure 4
0000
0000
0000
0000
,  // measure 5
0001
0000
0001
0000
0010
0000
0010
0000
0001
0000
0001
0000
0010
0002
0000
0000
,  // measure 6
1003
0000
1000
0000
0100
0000
0100
0000
1000
0000
1000
0000
0100
2000
0000
0000
,  // measure 7
3010
0000
0010
0000
1000
0000
1000
0000
0010
0000
0010
0000
1000
0020
0000
0000
,  // measure 8
0130
0000
0100
0000
0001
0000
0001
0000
0100
0000
0100
0000
0001
1000
0000
1000
,  // measure 9
0001
0001
0012
0000
0100
0000
0013
0000
,  // measure 10
1000
1000
2010
0000
0100
0000
3010
0100
,  // measure 11
0001
0001
0102
0000
0010
0000
0103
0000
,  // measure 12
1000
1000
2100
0000
0010
0000
3100
0010
,  // measure 13
0001
0010
1000
0010
0001
0010
1000
0100
,  // measure 14
0001
0100
1000
0100
0001
0100
1000
0010
,  // measure 15
0020
0000
0130
0200
0000
1300
0100
0001
,  // measure 16
0000
0000
0010
0000
0100
0000
0110
0000
0000
0000
1000
0001
1000
0000
0001
0000
,  // measure 17
0010
0001
0100
0001
0010
0001
0100
1000
,  // measure 18
0010
1000
0100
1000
0010
1000
0100
0001
,  // measure 19
0002
0000
1003
2000
0000
3010
1000
0100
,  // measure 20
0000
0010
0001
0100
0000
1001
0110
0000
,  // measure 21
0001
0000
0001
0000
0000
0000
1000
0000
1000
0000
0000
0000
0010
0100
0000
0000
,  // measure 22
0001
0000
0001
0000
0000
0000
1000
0000
1000
0000
0000
0000
0000
0000
0100
0010
,  // measure 23
0001
0000
0001
0000
0000
0000
1000
0000
1000
0000
0000
0000
0001
0100
0000
0000
,  // measure 24
0010
0000
0010
0000
0000
0000
0100
0000
0100
0010
0000
0010
0100
0000
0010
0000
,  // measure 25
1000
0001
1000
0010
1000
0100
0020
0000
,  // measure 26
0031
1000
0001
0100
0001
0010
0200
0000
,  // measure 27
1300
1000
0101
0000
0001
0001
1100
0000
,  // measure 28
0010
1000
0001
0000
0100
0001
0010
0100
,  // measure 29
1000
0100
0001
0100
1000
0100
0001
0010
,  // measure 30
1000
0010
0001
0010
1000
0010
0001
1000
,  // measure 31
2001
0000
3010
0200
0000
0301
0010
0100
,  // measure 32
0000
0000
0001
0000
0100
0000
1000
0000
0000
0000
0010
0100
0010
0000
1000
0000
,  // measure 33
0100
0001
0010
0001
0100
1000
0010
1000
,  // measure 34
0100
0001
0010
0001
0100
1000
0010
1000
,  // measure 35
0200
0000
0301
0200
0000
1300
0010
0100
,  // measure 36
0000
1000
0100
0001
0000
0100
0010
0000
,  // measure 37
0001
0010
1000
0010
0001
0010
1000
0100
,  // measure 38
0001
0100
1000
0100
0001
0100
1000
0001
,  // measure 39
1002
0000
0103
0020
0000
1030
0100
0010
,  // measure 40
0000
0000
1000
0000
0010
0000
0001
0000
0000
0000
0100
0010
0100
0000
0001
0000
,  // measure 41
0010
1000
0100
1000
0010
0001
0100
0001
,  // measure 42
0010
1000
0100
1000
0010
0001
0100
0001
,  // measure 43
0020
0000
1030
0020
0000
0031
0100
0010
,  // measure 44
0000
0001
0010
1000
0000
0110
1001
0000
,  // measure 45
0200
0000
0000
0000
0300
0000
0000
0001
,  // measure 46
0020
0000
0030
0000
,  // measure 47
0200
0000
0000
0000
0300
0000
0000
1000
,  // measure 48
0020
0000
0030
0000
,  // measure 49
1001
0000
0000
0000
;

//---------------dance-double - ----------------
#NOTES:
     dance-double:
     :
     Easy:
     3:
     0.187,0.192,0.009,0.150,0.000:
00000000
00000000
00000000
00000000
,
00000000
00000000
00000000
00000000
,
00000000
00000000
00000000
00000000
,
00000000
00000000
00000000
00000000
,
10000000
00100000
01000000
00100000
,
00010000
00001000
00000100
00000000
,
00000001
00000100
00000010
00000100
,
00001000
00010000
00100000
00000000
,
10000000
00000000
00010000
00000000
,
10000000
00000000
01000000
01000000
,
00010000
00000000
00001000
00000000
,
00000100
00000000
00000001
00001000
,
00000100
00000100
00000010
00000010
,
00001000
00001000
00010000
00010000
,
00002000
00003000
00200000
00300000
,
00010000
10000000
00010000
00000000
,
01000000
01000000
00100000
00100000
,
00010000
00010000
00001000
00001000
,
00020000
00030000
00000200
00000300
,
00001000
00000001
00001000
00000000
,
00000010
00001000
00000100
00000000
,
00010000
00001000
00010000
00000000
,
01000000
00010000
00100000
00000000
,
10000000
01000000
00100000
00010000
,
01000000
00000000
00001000
00010000
,
00001000
00000000
00000100
00000010
,
00000100
00000000
00000001
00000000
,
00001000
00000000
00000100
00000000
,
00000010
00000100
00000010
00000100
,
00010000
00001000
00010000
00001000
,
00020000
00030000
00002000
00003000
,
00100000
00010000
10000000
00010000
,
01000000
00100000
01000000
00100000
,
00010000
00001000
00010000
00001000
,
00020000
00030000
00002000
00003000
,
00000100
00000001
00001000
00000000
,
00000100
00010000
00000100
00010000
,
00001000
00100000
00001000
00100000
,
00020000
00030000
02000000
03000000
,
00100000
00010000
00001000
00000000
,
00000010
00010000
00000010
00010000
,
00001000
01000000
00001000
01000000
,
00020000
00030000
00200000
00300000
,
01000000
10000000
00010000
00000000
,
20010000
00000000
30000000
00000000
,
02000000
00000000
03000000
00000000
,
00020000
00000000
00030000
00000000
,
00002000
00000000
00003000
00000000
,
00000200
00000000
00000300
00000000
;

//---------------dance-double - ----------------
#NOTES:
     dance-double:
     :
     Medium:
     5:
     0.257,0.254,0.079,0.158,0.000:
00000000
00000000
00000000
00000000
,
00000000
00000000
00000000
00000000
,
00000000
00000000
00000000
00000000
,
00000000
00000000
00000000
00000000
,
00100000
00000000
10000000
00000000
00100000
00000000
10000000
00100000
,
00010000
00000000
00001000
00000000
00010000
00000000
00001000
00000100
,
00000001
00000000
00000100
00000000
00000001
00000000
00000100
00001000
,
00010000
00000000
00001000
00000000
00010000
00000000
00001000
00010000
,
01000000
01010000
00000000
10000000
,
01000000
10100000
00000000
01000000
,
00001000
00011000
00000000
00000100
,
00000010
00000000
00000101
00000000
00000000
00000000
00001000
00000010
,
00002000
00000100
00000010
00003100
,
00020000
01000000
00100000
01030000
,
00100000
10000000
01000000
00010000
,
00001000
00000000
00000100
00000000
00000001
00000000
00000100
00000010
,
00000200
00001000
00000001
00001300
,
02000000
10000000
00010000
13000000
,
00100000
01000000
00010000
00100000
,
00001000
00010000
00000100
00000000
,
00001001
00000001
00000200
00000000
00000300
00000000
00001000
00000000
,
00010000
00010000
02000000
00000000
03000000
00000000
10000000
00000000
,
00100000
00100000
01000000
00000000
10000000
10000000
00010000
00000000
,
01000000
00000000
00010000
00000000
00100000
00000000
00001000
00010000
,
00001000
00000000
00000100
00000000
00000010
00000000
00000100
00001000
,
00010000
01000000
00100000
01000000
,
10000000
10100000
00010000
00110000
,
00001000
00000000
00010000
00000000
00000100
00000000
00000010
00000100
,
00002000
00000100
00000010
00003100
,
00020000
01000000
00100000
01030000
,
00100000
10000000
01000000
00010000
,
00001000
00000000
00000100
00000000
00000001
00000000
00000100
00000010
,
00000200
00001000
00000001
00001300
,
02000000
10000000
00010000
13000000
,
00100000
01000000
00010000
00100000
,
00001000
00000000
00010000
00000000
00000010
00000000
00000100
00000010
,
00002000
00000010
00000100
00003010
,
00020000
00100000
01000000
00130000
,
01000000
10000000
00100000
00010000
,
00001000
00000000
00000010
00000000
00000001
00000000
00000010
00000100
,
00000020
00001000
00000001
00001030
,
00200000
10000000
00010000
10300000
,
01000000
00100000
00010000
01000000
,
00001000
00000000
00010000
00000000
00000010
00000000
00000110
00001000
,
00000002
00000000
00000000
00000000
00000003
00000000
00000000
00000100
,
00000200
00000000
00000300
00000000
,
00002000
00000000
00000000
00000000
00003000
00000000
00000000
00010000
,
00020000
00000000
00030000
00000000
,
00011000
00000000
00000000
00000000
;

//---------------dance-double - ----------------
#NOTES:
     dance-double:
     :
     Hard:
     7:
     0.402,0.401,0.220,0.106,0.044:
00000000
00000000
00000000
00000000
,
00000000
00000000
00000000
00000000
,
00000000
00000000
00000000
00000000
,
00000000
00000000
00000000
00000000
,
10000000
00000000
01000000
00000000
00010000
00000000
01000000
00000000
10000000
00000000
01000000
00000000
00010000
00002000
00000000
00000000
,
00003100
00000000
00000001
00000000
00000100
00000000
00001000
00000000
00000100
00000000
00000001
00000000
00000100
00002000
00000000
00000000
,
00103000
00000000
00001000
00000000
00010000
00000000
00001000
00000000
00100000
00000000
00001000
00000000
00010000
00002000
00000000
00000000
,
00013000
00000000
00000010
00000000
00001000
00000000
00000010
00000000
00010000
00000000
00000010
00000000
00001000
00000100
00000000
00000100
,
00001000
00000010
00001001
00000000
00000100
00000001
00000101
00000000
,
00001000
00010000
00011000
00000000
01000000
00010000
00100000
01000000
,
10000000
00100000
10010000
00000000
01000000
10000000
11000000
00000000
,
00010000
00001000
00011000
00000000
00110000
00000000
00001100
00010000
,
00001000
00000100
00000010
00010000
00001000
00000100
00000010
00010000
,
00001000
00000010
00000100
00010000
00001000
00000010
00000100
00001000
,
00001000
00000000
00000001
00000001
00000000
00000100
00001000
00010000
,
00000000
00100000
00010000
00001000
00000000
01000000
00010000
00100000
,
00001000
00010000
00100000
01000000
00001000
00010000
00100000
01000000
,
00001000
00010000
01000000
00100000
00001000
00010000
01000000
00100000
,
00100000
00000000
01000000
01000000
00000000
10000000
01000000
00010000
,
00000000
00001000
00000100
00000001
00000000
00000011
00001100
00000000
,
00000001
00000000
00001000
00000000
00000000
00000000
00001000
00000000
00000001
00000000
00000000
00000000
00000100
00001000
00000000
00000000
,
00010000
00000000
00001000
00000000
00000000
00000000
00001000
00000000
00010000
00000000
00000000
00000000
00000000
00000000
01000000
00100000
,
10000000
00000000
00010000
00000000
00000000
00000000
00010000
00000000
10000000
00000000
00000000
00000000
01000000
00010000
00000000
00000000
,
00001000
00000000
00010000
00000000
00000000
00000000
00010000
00000000
00001000
00000100
00000000
00000100
00000001
00000000
00000010
00000000
,
00000010
00000001
00000100
00000010
00000001
00000010
00002000
00000100
,
00003100
00010000
00001000
00000100
00001000
00010000
00200000
10000000
,
10300000
01000000
11000000
00000000
00010000
01000000
01010000
00000000
,
00100000
00001000
00010000
00000000
00000010
00010000
00000100
00010000
,
00001000
00000100
00010000
00000100
00001000
00010000
00000100
00010000
,
00001000
00000100
00010000
00000100
00001000
00010000
00000100
00010000
,
00012000
00000000
01003000
00000000
00010000
10000000
01010000
00000000
,
00100000
00000000
00101000
00000000
00010000
00001000
00000100
00001000
,
00010000
00100000
00001000
00100000
00010000
00001000
00100000
00001000
,
00010000
00100000
00001000
00100000
00010000
00001000
00100000
00001000
,
00010000
00000000
00010010
00000000
00001000
00000001
00000110
00000000
,
00000001
00000000
00001100
00000000
00000001
00000100
00001000
00010000
,
01000000
10000000
00100000
00010000
00001000
00010000
01000000
10000000
,
00100000
00010000
00001000
00010000
01000000
10000000
00100000
00010000
,
00012000
00000000
00003100
00000000
00000001
00000100
00001100
00000000
,
00001000
00010000
00100000
00000000
10000000
01000000
00010000
00001000
,
00000010
00000001
00000100
00001000
00010000
00001000
00000010
00000001
,
00000100
00001000
00010000
00001000
00000010
00000001
00000100
00001000
,
00021000
00000000
00130000
00000000
10000000
00010000
01100000
00000000
,
00010000
00000000
00011000
00000000
00000100
00000010
00001001
00000000
,
00000200
00000000
00000000
00000000
00000300
00000000
00000000
00001000
,
00020000
00000000
00030000
00000000
,
02000000
00000000
00000000
00000000
03000000
00000000
00000000
10000000
,
00200000
00000000
00300000
00000000
,
00011000
00000000
00000000
00000000
;
