#TITLE:Rebel Love Song;
#SUBTITLE:;
#ARTIST:Black Veil Brides;
#TITLETRANSLIT:;
#SUBTITLETRANSLIT:;
#ARTISTTRANSLIT:;
#CREDIT:;
#BANNER:Rebel Love Song-bn.png;
#BACKGROUND:Rebel Love Song-bg.png;
#LYRICSPATH:;
#CDTITLE:;
#MUSIC:Rebel Love Song.mp3;
#OFFSET:-0.180;
#SAMPLESTART:54.300;
#SAMPLELENGTH:14.360;
#SELECTABLE:YES;
#BPMS:0.000=195.000;
#STOPS:;
#BGCHANGES:-0.300=Rebel Love Song.avi=1.000=1=0=0,
99999=-nosongbg-=1.000=0=0=0 // don't automatically add -songbackground-
;

//---------------dance-single - ----------------
#NOTES:
     dance-single:
     :
     Beginner:
     3:
     0.147,0.219,0.035,0.000,0.000:
0000
0000
0000
0000
,
0000
0000
0000
0000
,
0001
0000
0000
0000
,
0001
0000
0000
0000
,
1000
0000
0000
0000
,
1000
0000
0000
0000
,
0100
0000
0000
0000
,
0100
0000
0000
0000
,
0010
0000
0000
0000
,
0010
0000
0000
0000
,
0001
0000
0000
0000
,
1000
0000
0000
0000
,
0010
0000
0000
0000
,
1000
0000
0000
0000
,
0100
0000
0100
0000
,
0100
0000
0100
0000
,
0100
0000
0000
0000
,
1000
0000
0000
0000
,
0010
0000
0000
0000
,
0000
0000
0000
0000
,
1000
0000
1000
0000
,
1000
0000
0000
0000
,
0010
0000
0010
0000
,
0010
0000
0000
0000
,
0100
0000
0100
0000
,
0100
0000
0000
0000
,
1000
0000
0000
0000
,
0001
0000
0000
0000
,
0010
0000
0010
0000
,
0010
0000
0000
0000
,
0001
0000
0001
0000
,
0001
0000
0000
0000
,
1000
0000
1000
0000
,
1000
0000
0000
0000
,
0100
0000
0000
0000
,
1000
0000
0000
0000
,
0010
0000
0010
0000
,
0010
0000
0000
0000
,
1000
0000
1000
0000
,
1000
0000
0000
0000
,
0001
0000
0001
0000
,
0001
0000
0000
0000
,
0100
0000
0100
0000
,
0100
0000
0000
0000
,
0010
0000
0010
0000
,
0010
0000
0010
0000
,
0100
0000
0100
0000
,
0100
0000
0100
0000
,
0001
0000
0000
0000
,
1000
0000
0000
0000
,
0100
0000
0100
0000
,
0100
0000
0000
0000
,
1000
0000
1000
0000
,
1000
0000
1000
0000
,
0001
0000
0001
0000
,
0001
0000
0001
0000
,
0010
0000
0000
0000
,
0001
0000
0001
0000
,
0001
0000
0000
0000
,
1000
0000
0000
0000
,
0100
0000
0100
0000
,
0100
0000
0100
0000
,
1000
0000
1000
0000
,
1000
0000
1000
0000
,
0010
0000
0000
0000
,
1000
0000
1000
0000
,
1000
0000
0000
0000
,
0001
0000
0000
0000
,
0010
0000
0010
0000
,
0010
0000
0010
0000
,
0001
0000
0001
0000
,
0001
0000
0001
0000
,
0100
0000
0000
0000
,
0001
0000
0001
0000
,
0001
0000
0000
0000
,
1000
0000
0000
0000
,
0100
0000
0000
0000
,
1000
0000
0000
0000
,
0010
0000
0000
0000
,
1000
0000
0000
0000
,
0001
0000
0000
0000
,
1000
0000
0000
0000
,
0110
0000
0000
0000
,
1001
0000
0000
0000
,
0110
0000
0110
0000
;

//---------------dance-single - ----------------
#NOTES:
     dance-single:
     :
     Medium:
     10:
     0.552,0.675,0.406,0.510,0.000:
0000
0000
0000
0000
,
0000
0000
0000
0000
,
0010
0010
1000
0001
,
0100
0100
0001
1000
,
0001
0001
0010
0100
,
1000
1000
0010
1000
,
0010
0010
0100
0001
,
1000
1000
0100
1000
,
0001
0001
0010
0100
,
1000
1000
0010
0000
,
2001
0001
0001
0001
,
0001
0001
3001
0000
,
0210
0010
0010
0010
,
0010
0010
0310
0000
,
2000
3002
0000
0203
,
0000
0000
0000
0000
,
0302
2003
3010
0200
,
0000
0302
0000
0000
,
1003
0000
0100
0000
0010
0000
0001
1000
,
0000
0000
0000
0000
,
0010
1000
1002
1003
,
0210
0310
1002
1003
,
0010
0100
1020
1030
,
0012
0013
2100
3100
,
0001
1000
0120
0130
,
1002
0000
1000
0003
0120
0000
0130
0000
,
0001
0100
1000
0100
,
0010
0100
0010
0000
1000
0100
1000
0000
,
0001
1000
1200
1300
,
0120
0130
0012
0013
,
0100
0010
0102
0103
,
1020
1030
0012
0013
,
0100
1000
1020
1030
,
0012
0013
2001
3001
,
0010
0001
0100
0010
,
1000
0100
1000
0000
0010
0100
0010
0000
,
1001
0000
0000
0000
1000
0100
0001
0100
,
1000
1001
1001
0000
,
0000
0000
0000
0000
0001
0100
1000
0100
,
0001
1001
1001
0000
,
0000
0000
0000
0000
1000
0010
0001
0010
,
1000
1001
1001
0000
,
0010
1000
0001
0100
,
0010
0100
0010
0000
1000
0100
1000
0000
,
0001
0002
0100
0203
,
0010
0320
1000
2030
,
0100
3200
0010
0320
,
0001
0032
1000
1003
,
0010
0000
0100
0000
0001
0100
0001
0000
,
0010
0000
0100
0000
1000
0100
1000
0000
,
0010
0000
1000
0000
0001
0100
0001
0000
,
1000
0100
1000
0000
0010
0100
0010
0000
,
1000
2000
0001
3002
,
1000
2003
0010
3020
,
0100
0230
0010
0320
,
1000
2030
0100
3100
,
1000
0000
0001
0000
0100
0010
0100
0000
,
0001
0000
1000
0000
0010
1000
0010
0000
,
0100
0000
0001
0000
1000
0100
1000
0000
,
0010
0100
0010
0000
1000
0100
1000
0000
,
0102
0103
2010
3010
,
2001
3001
0120
0130
,
2100
3100
1002
1003
,
0210
0310
1020
1030
,
0001
0100
1000
0010
,
0100
0000
0001
0000
1000
0100
1000
0000
,
0001
0100
0001
0000
1000
0010
1000
0000
,
0001
0010
0001
0000
0100
0010
0100
0000
,
2010
3010
2001
3001
,
0120
0130
1002
1003
,
0210
0310
0102
0103
,
2001
3001
0120
0130
,
1000
0010
0001
0100
,
0010
0000
1000
0000
0001
0010
0001
0000
,
1000
0010
1000
0000
0001
0100
0001
0000
,
1000
0100
1000
0000
0001
0010
0001
0000
,
0100
0000
0000
0100
0000
0000
0100
0000
,
0000
0100
0000
0000
0010
0000
1010
0000
,
0101
0000
0000
0001
0000
0000
0001
0000
,
0000
0001
0000
0000
0010
0000
0110
0000
,
1001
0000
0000
1000
0000
0000
1000
0000
,
0000
1000
0000
0000
0010
0000
1000
0000
,
0100
1000
0100
0000
1000
0001
1000
0000
,
0010
0000
0100
0000
0001
0100
1000
0100
,
0001
0100
0010
2000
0002
0000
0000
0000
,
0000
0000
0000
0000
,
0000
0000
0000
3003
;

//---------------dance-single - ----------------
#NOTES:
     dance-single:
     :
     Hard:
     13:
     0.688,0.673,0.510,0.398,0.004:
0000
0000
0000
0000
,
0000
0000
0000
0000
,
1000
0000
0010
0000
1000
0100
0001
0000
,
1000
0000
0001
0000
0100
0010
1000
0010
,
1000
0000
0001
0000
1000
0100
0001
0000
,
1000
0000
0001
0000
0010
0001
0010
0001
,
0100
0000
0010
0000
1000
0100
0001
0000
,
1000
0000
0001
0000
0100
0010
0100
0010
,
1000
0000
0001
0000
1000
0001
0100
0000
,
0010
0000
1000
0000
0001
0100
0001
0100
,
0020
1000
1000
1000
,
0230
0001
0001
0001
,
0302
1000
1000
1000
,
0023
0100
0100
0100
,
0032
2003
3010
0210
,
0301
2000
3020
0130
,
0002
0203
2300
3200
,
0310
0002
0100
0103
,
0010
1000
0010
0100
0001
1000
0100
2200
,
0000
3300
0000
0000
,
0101
0000
1000
0000
0010
0100
0001
0000
,
1000
0100
0010
0000
0001
1000
0010
0000
,
0100
0000
0001
0000
0010
0100
1000
0000
,
0010
1000
0001
0000
1000
0100
0001
0000
,
0110
0000
1000
0000
0001
0100
0010
0000
,
1000
0100
0010
0000
0001
1000
0010
0000
,
1100
0101
0011
1010
,
0001
1000
0100
1000
0010
0100
0001
0000
,
1100
0000
0010
0000
0100
0001
0010
0000
,
0100
0000
0010
0000
0001
1000
0010
0000
,
0100
0000
0001
0000
1000
0100
0001
0000
,
0100
0000
1000
0000
0001
0010
1000
0000
,
0011
0000
0001
0000
1000
0010
0100
0000
,
0001
0000
1000
0000
0001
1000
0100
0000
,
1100
0011
1010
0101
,
0010
1000
0100
1000
0001
0100
0010
0000
,
2100
0000
3001
0000
1000
0100
0001
0100
,
1000
1010
0101
0000
,
0012
0000
1003
0000
0001
0010
1000
0010
,
0001
0101
0110
0000
,
2010
0000
3100
0000
1000
0010
0001
0100
,
2000
3002
0103
0010
,
1000
0100
0001
0100
1000
0010
0100
0010
,
1000
0100
1000
0001
0020
0000
0031
0000
,
0210
0310
1002
1003
,
0201
0301
2100
3100
,
1020
1030
0201
0301
,
0012
0013
2100
3100
,
1002
0000
1003
0000
1000
0010
0100
0000
,
0001
0010
0011
0000
1100
0000
0101
0000
,
1010
0000
0001
0100
0001
0100
0001
0000
,
1000
0100
1000
0010
0100
0001
0010
0000
,
2100
3010
0102
1003
,
0120
1030
0201
0301
,
2100
3001
0210
0301
,
2100
3010
1002
0103
,
0120
0000
1030
0001
0100
0000
0010
1000
,
0010
1000
0100
0000
1000
0001
0100
0000
,
0001
0010
1000
0010
0001
1000
0000
0010
,
0100
0010
1000
0100
1000
0001
0100
0010
,
1000
0100
1000
0100
0010
0001
0010
0001
,
0100
0010
0100
0010
1000
0001
1000
0001
,
0010
0001
0010
0001
1000
0100
1000
0100
,
0001
0100
0001
0100
1000
0001
1000
0001
,
0100
0000
0110
0000
0001
1000
0100
0000
,
1000
1100
0110
0011
,
2001
3010
0101
1200
,
0301
0000
0110
0000
0001
1000
0010
0100
,
0001
1000
0001
1000
0010
0100
0010
0100
,
0001
0010
0001
0010
0100
1000
0100
1000
,
0001
0100
0001
0100
1000
0100
1000
0100
,
0010
0100
0010
0100
0001
1000
0001
1000
,
0100
0000
1000
0010
0100
0000
0001
1000
,
0100
1100
0011
1100
,
2001
3010
0110
0102
,
1003
0000
1100
0000
0010
0000
1000
0001
,
1000
0100
0000
0010
0001
0000
0100
0010
,
0000
1000
0001
0100
0010
0100
1000
0000
,
0001
0100
0000
1000
0100
0000
0001
0010
,
0000
1000
0010
0000
0001
0010
0100
0000
,
1000
0001
0000
0100
0010
0000
1000
0100
,
0000
0010
0001
1000
0100
0010
1000
0000
,
0001
1000
0100
0010
0001
0100
0010
0100
,
0001
0010
1000
0010
0001
1000
0010
0100
,
0001
0000
1000
0010
1000
0000
0001
0000
0202
0000
0000
0000
0000
0000
0000
0000
,
0000
0000
0000
0000
,
0000
0000
0303
0000
;

//---------------dance-single - ----------------
#NOTES:
     dance-single:
     :
     Easy:
     7:
     0.438,0.673,0.303,0.691,0.000:
0000
0000
0000
0000
,
0000
0000
0000
0000
,
0001
0000
0100
0000
,
0010
1000
0100
0000
,
1000
0000
0001
0000
,
1000
0100
0010
0000
,
0001
1000
0001
0000
,
1000
0001
1000
0000
,
0010
0100
0010
0000
,
0100
0010
0100
0000
,
0002
0000
0100
0000
,
0100
0000
0103
0000
,
2000
0000
0010
0000
,
0010
0000
3010
0000
,
0001
1000
0100
1000
,
0000
0010
0100
0000
,
0010
1000
0001
0100
,
0000
0001
1000
0000
,
1001
0000
0000
0000
0000
0000
0000
0110
,
0000
0000
0000
0000
,
1000
0100
1000
0010
,
0100
0010
1000
0000
,
0001
1000
0100
0010
,
0001
1000
0001
0000
,
0010
0001
0100
0010
,
1000
0001
0100
0000
,
0010
0010
0010
0100
,
0001
0001
0001
0000
,
0010
0100
1000
0001
,
0100
0010
1000
0000
,
0010
1000
0100
0010
,
0001
0100
0010
0000
,
0100
0001
1000
0100
,
0010
0100
1000
0000
,
0010
0010
0010
1000
,
0001
0001
0001
0000
,
1000
0000
0000
0000
0010
0100
0010
0000
,
0100
0010
0100
0000
,
0000
0000
0000
0000
0001
1000
0001
0000
,
1000
0001
1000
0000
,
0000
0000
0000
0000
0100
1000
0100
0000
,
1000
0100
1000
0000
,
0010
1000
0001
0100
,
0010
1000
0001
0000
,
0220
0330
0202
0303
,
2200
3300
2020
3030
,
2002
3003
0022
0033
,
2020
3030
2002
3003
,
0010
1000
0100
1000
,
0010
0100
0001
0010
,
0200
0000
0310
0002
,
0000
2000
3003
0000
,
0202
0303
2200
3300
,
2020
3030
2002
3003
,
0220
0330
0202
0303
,
2200
3300
2002
3003
,
0010
1000
0001
0100
,
0010
1000
0001
0100
,
0002
0000
1003
0200
,
0000
0020
0330
0000
,
0022
0033
2200
3300
,
2002
3003
2020
3030
,
0202
0303
2020
3030
,
2002
3003
0220
0330
,
0010
1000
0001
0100
,
0010
1000
0100
0010
,
0002
0000
1003
0200
,
0000
0020
0330
0000
,
0022
0033
2200
3300
,
2020
3030
0202
0303
,
2002
3003
0220
0330
,
0202
0303
2200
3300
,
0010
1000
0001
0100
,
0010
1000
0001
0010
,
0200
0000
1300
0020
,
0000
0200
0000
0330
,
0001
1000
0001
1000
,
0010
0100
0010
0100
,
0001
0100
0001
0100
,
0010
1000
0010
0000
,
1000
0100
1000
0100
,
0010
0001
0010
0001
,
0100
0010
0100
0010
,
1000
0001
1000
0010
,
0100
0001
2002
0000
,
0000
0000
0000
0000
,
0000
0000
3003
0000
;

//---------------dance-single - ----------------
#NOTES:
     dance-single:
     :
     Challenge:
     15:
     0.815,0.785,0.527,0.475,0.065:
0000
0000
0000
0000
,
0000
0000
0000
0000
,
0010
1000
0100
0000
1000
0001
0100
0000
,
0010
1000
0001
0000
0100
0010
0100
0010
,
1000
0100
0001
0000
1000
0001
0100
0000
,
0010
1000
0001
0000
0010
0001
0010
0001
,
0100
0010
1000
0000
0001
1000
0100
0000
,
0010
0001
1000
0000
0100
1000
0100
1000
,
0010
0100
0001
0000
0010
0100
1000
0000
,
0001
1000
0010
0000
0100
0001
0100
0001
,
2000
0100
0010
0001
,
3020
0100
1000
0100
,
2030
0001
0010
0100
,
3002
0010
0100
1003
,
0020
2030
3100
1002
,
0103
0010
2000
0100
,
3020
0031
0200
0320
,
1000
0230
0001
0301
,
1000
0100
1100
0000
0101
0100
0010
1001
,
0000
0000
0100
0010
0100
0000
0001
0000
1000
0000
0001
0000
0100
0000
0010
0000
,
0110
0000
0001
0010
0100
0010
0001
1000
,
0000
1000
0100
0010
1000
0010
0001
1000
,
0100
1000
0001
0010
0100
1000
0001
0010
,
0000
0010
0001
0100
0010
1000
0001
0100
,
0010
0100
0001
1000
0100
0010
0001
1000
,
0000
1000
0010
0100
0001
0010
0100
0010
,
0001
1000
0010
0100
0001
1000
0100
1000
,
0001
0000
0100
0010
0100
0000
0001
1000
0001
0000
2000
0000
0000
0000
3000
0000
,
0010
1000
0100
1000
0001
0010
0100
1000
,
0000
1000
0001
0010
0100
0010
0001
0100
,
1000
0100
0001
0010
1000
0010
0001
1000
,
0000
1000
0010
0100
0001
0010
0100
1000
,
0010
1000
0001
0010
0100
1000
0001
0010
,
0000
0010
0001
0100
0010
1000
0001
0100
,
0010
1000
0100
0010
0001
0100
0010
1000
,
0010
0000
0100
0001
0100
0000
0010
0100
0010
0000
2000
0000
0000
0000
3000
0000
,
0101
0100
0010
1000
0000
1100
1000
0001
,
0100
0010
0110
0000
1002
0000
0103
0000
,
1010
1000
0010
0100
0000
0101
0001
0010
,
0100
1000
1100
0000
0102
0000
0013
0000
,
1001
1000
0001
0010
0000
1100
0100
0010
,
0012
0000
2003
0000
3010
0100
0001
0000
,
1000
0010
0100
0001
0010
1000
0010
0001
,
1000
0000
0010
0000
0100
0000
0001
0000
1000
0000
0001
0100
0001
0100
0001
0000
,
0100
0010
0210
0000
1300
0010
1020
0000
,
0130
0001
0102
0000
0013
0100
0210
0000
,
1300
0001
1002
0000
0103
0001
0201
0000
,
0310
0100
0120
0000
1030
0100
2100
0000
,
3010
0001
0100
0010
1000
0100
0001
0100
,
1000
0010
0100
0001
0010
0100
1000
0010
,
0100
0001
0011
0000
0110
0000
0001
1000
,
0010
0000
0100
0000
0101
0000
0000
0000
0010
0000
1000
0100
1000
0100
1000
0000
,
0001
1000
1002
0000
0103
0001
0201
0000
,
0310
1000
1020
0000
1030
0100
2100
0000
,
3010
0001
0012
0000
0103
0010
0210
0000
,
0301
0010
0012
0000
1003
0100
2100
0000
,
3010
1000
0001
0010
1000
0010
0001
1000
,
0010
0100
0001
1000
0100
1000
0010
0000
,
0100
0001
0100
0010
1010
0000
0000
0100
,
0010
0000
0100
0000
0101
0000
0000
0000
1010
0000
0100
0010
0100
0010
0100
0000
,
0001
0010
2100
0000
3010
1000
0201
0000
,
0310
0100
1002
0000
1003
0010
2100
0000
,
3001
1000
0210
0000
0310
1000
0102
0000
,
1003
0001
2100
0000
3010
1000
0120
0000
,
1030
0100
0001
0100
1000
0010
0100
0001
,
0010
0100
1000
0010
1000
0001
0010
1000
,
0010
0001
1001
0000
0101
0000
0010
1000
,
0100
0000
1000
0000
0010
0000
0100
0000
0001
1000
0001
1000
0001
1000
0001
0000
,
1000
0100
0012
0000
0103
0001
1020
0000
,
0130
0010
2001
0000
3001
0100
0012
0000
,
1003
0001
0120
0000
0130
0001
2010
0000
,
3001
1000
0012
0000
0103
0001
0210
0000
,
0301
0010
1000
0010
0001
0100
0010
1000
,
0100
0010
0001
0100
0001
1000
0100
0001
,
0101
0000
1100
0000
1001
0000
0010
1000
,
0001
0100
0010
0100
0001
1000
0100
0000
,
0001
0100
1000
0001
0010
1000
0002
0000
,
0000
0100
0010
0103
,
1000
0010
0001
1000
0100
0001
2000
0000
,
0000
0100
0001
3010
,
1000
0100
0001
0100
0010
0100
0002
0000
,
0000
1000
1000
1003
,
0110
0100
1000
0010
0100
0001
1000
0010
,
0100
0001
1000
0001
0010
1000
0010
0001
,
1000
0000
0100
0010
0001
0000
0100
0000
2002
0000
0000
0000
0000
0000
0000
0000
,
0000
0000
0000
0000
,
0000
0000
3003
0000
;

//---------------dance-couple - ----------------
#NOTES:
     dance-couple:
     :
     Hard:
     15:
     0.000,0.000,0.000,0.000,0.000: // measure 1
00000000
00000000
00000000
00000000
;
