#VERSION:0.82;
#TITLE:Locked Away;
#SUBTITLE:;
#ARTIST:R.City feat. Adam Levine;
#TITLETRANSLIT:;
#SUBTITLETRANSLIT:;
#ARTISTTRANSLIT:;
#GENRE:Depends On The Crime..;
#ORIGIN:;
#CREDIT:;
#BANNER:Locked Away.png;
#BACKGROUND:Locked Away-bg.png;
#PREVIEWVID:;
#JACKET:jacket.png;
#CDIMAGE:;
#DISCIMAGE:;
#LYRICSPATH:;
#CDTITLE:;
#MUSIC:Locked Away.ogg;
#OFFSET:0.010000;
#SAMPLESTART:107.903870;
#SAMPLELENGTH:17.133999;
#SELECTABLE:YES;
#DISPLAYBPM:94.000000;
#BPMS:0.000=94.000,
165.000=94.080,
181.000=94.000;
#STOPS:132.000=1.915;
#DELAYS:;
#WARPS:;
#TIMESIGNATURES:0.000=4=4;
#TICKCOUNTS:0.000=4;
#COMBOS:0.000=1;
#SPEEDS:0.000=1.000=0.000=0;
#SCROLLS:0.000=1.000;
#FAKES:;
#LABELS:0.000=Song Start;
#BGCHANGES:4.000=Locked Away.avi=1.000=0=0=1=====,
99999=-nosongbg-=1.000=0=0=0 // don't automatically add -songbackground-
;
#KEYSOUNDS:;
#ATTACKS:
;

//---------------dance-single - ----------------
#NOTEDATA:;
#CHARTNAME:;
#STEPSTYPE:dance-single;
#DESCRIPTION:;
#CHARTSTYLE:;
#DIFFICULTY:Hard;
#METER:7;
#RADARVALUES:0.379729,0.380236,0.071072,0.035536,0.191895,359.000000,10.000000,5.000000,0.000000,0.000000,0.000000,0.000000,0.000000,0.379729,0.380236,0.071072,0.035536,0.191895,359.000000,10.000000,5.000000,0.000000,0.000000,0.000000,0.000000,0.000000;
#CREDIT:Ben Speirs;
#DISPLAYBPM:94.000000;
#NOTES:
0000
0000
0000
0000
,
0000
0000
0000
0000
,
0000
0000
0000
0000
,
0000
0000
0000
0000
,
2000
0000
3010
1000
0010
0010
1000
0001
,
0002
0000
0103
0001
0100
0100
0001
1000
,
0200
0000
0310
0100
1000
0001
1000
0000
,
0001
0000
0000
0001
0000
0000
0001
0000
0010
0000
0000
0010
0000
0000
0010
0000
,
0200
0000
0000
0300
,
1000
0000
0000
0100
0000
0000
0100
0000
0010
0000
0000
0001
0000
0000
0001
0000
,
1000
0000
0000
0010
0000
0000
0100
0000
0001
0000
0000
1000
0000
0000
1000
0000
,
0001
0000
0000
0010
0000
0000
0100
0000
1000
0000
0000
0010
0000
0000
0010
0000
,
0100
0001
1000
0100
0010
0001
1000
0000
,
0001
0000
0000
0010
0000
0000
0010
0000
0100
0000
0000
1000
0000
0000
1000
0000
,
0001
0000
0000
0100
0000
0000
0010
0000
1000
0000
0000
0001
0000
0000
0001
0000
,
1000
0000
0000
0100
0000
0000
0010
0000
0001
0000
0000
0100
0000
0000
0100
0000
,
0010
1000
0001
0010
0100
1000
0001
0000
,
0101
0000
0000
0000
0100
0000
0001
0000
1000
0100
1000
0000
0010
0000
0100
0000
,
0001
0000
0000
0000
0100
0000
0001
0000
0010
0100
0010
0000
0001
0000
1000
0000
,
1100
0000
0000
0000
0100
0000
1000
0000
0010
1000
0010
0000
0100
0000
0010
0000
,
1000
0000
0000
0000
0001
0000
1000
0010
1000
0000
0001
0010
0001
0000
1000
0000
,
1010
0000
0000
0000
0010
0000
1000
0000
0001
0010
0001
0000
0100
0000
0010
0000
,
1000
0000
0000
0000
0010
0000
1000
0000
0100
0010
0100
0000
1000
0000
0001
0000
,
0011
0000
0000
0000
0010
0000
0001
0000
0100
0001
0100
0000
0010
0000
0100
0000
,
0001
0000
0000
0000
1000
0000
0001
0100
0001
0000
1000
0100
1000
0000
0001
0000
,
1001
0000
0000
1000
0100
0000
1000
0000
0001
0000
0100
0000
0010
0000
1000
0000
,
0001
0000
0000
0010
0001
0000
0100
0000
0010
0000
0100
0000
0001
0000
1000
0000
,
0100
0000
0000
1000
0100
0000
0010
0000
0001
0000
1000
0000
0010
0000
0000
0000
,
0100
0000
0000
0100
0001
0000
0010
0000
0100
0000
0000
0100
1000
0000
0001
0000
,
1001
0000
0000
1000
0100
0000
1000
0000
0001
0000
0100
0000
0010
0000
1000
0000
,
0001
0000
0000
0010
0001
0000
0100
0000
0010
0000
0100
0000
0001
0000
1000
0000
,
0100
0000
0000
1000
0100
0000
0010
0000
0001
0000
1000
0000
0010
0000
0000
0000
,
1000
0000
0000
1000
0000
0000
1000
0000
0001
0000
0000
0001
0000
0000
0001
0000
,
0100
0000
0101
0001
1000
0100
0010
0001
,
1000
0000
0000
0000
0010
0000
0000
0010
0000
0000
0010
0000
0100
0000
0001
0000
,
1000
0000
0000
0000
0100
0000
0000
0100
0000
0000
0100
0000
0010
0000
0001
0000
,
1000
0000
0001
0100
0010
1000
0100
0010
,
0001
0000
0000
0000
1000
0000
0100
0000
1000
0000
0010
0000
1000
0001
1000
0000
,
0100
0000
0010
0000
0001
0000
0100
0000
0001
0000
0010
0000
0001
1000
0001
0000
,
0010
0000
0100
0000
1000
0000
0001
0000
0100
0000
0010
0000
1000
0100
1000
0000
,
0010
0000
0100
0000
0001
0000
1000
0000
0100
0000
0010
0000
0001
0100
0001
0000
,
0010
0000
0100
0000
1100
0000
0000
1000
0100
0000
0010
0000
0001
0000
1000
0000
,
0010
0000
0100
0000
0001
0000
0000
0010
0100
0000
0010
0000
0001
0000
0100
0000
,
0010
0000
1000
0000
0001
0000
0000
1000
0100
0000
0010
0000
0001
0000
1000
0000
,
0010
0000
0000
0000
0100
0000
0000
0100
0001
0000
0010
0000
0100
0000
0000
0100
,
1000
0000
0001
0000
0011
0000
0000
0001
0010
0000
0100
0000
1000
0000
0001
0000
,
0100
0000
0010
0000
1000
0000
0000
0100
0010
0000
0100
0000
1000
0000
0010
0000
,
0100
0000
0001
0000
1000
0000
0000
0001
0010
0000
0100
0000
1000
0000
0001
0000
,
0100
0000
0000
0000
0010
0000
0000
0010
1000
0000
0100
0000
0010
0000
0000
0010
,
0001
0100
0110
0000
0010
1000
0100
0010
,
0001
1000
0001
0000
0100
0000
0000
0000
0001
0000
0010
0000
0100
0000
1000
0000
,
0010
1000
0010
0000
0100
0000
0000
0000
0010
0000
1000
0000
0100
0000
0010
0000
,
0001
0000
0000
0000
1000
0000
0000
1000
0100
0000
1000
0000
0001
0000
0000
0001
,
0100
0001
0020
0000
0030
0000
0000
0000
;

//---------------dance-single - ----------------
#NOTEDATA:;
#CHARTNAME:;
#STEPSTYPE:dance-single;
#DESCRIPTION:;
#CHARTSTYLE:;
#DIFFICULTY:Challenge;
#METER:9;
#RADARVALUES:0.560455,0.570354,0.113716,0.021322,0.653864,533.000000,16.000000,3.000000,0.000000,0.000000,0.000000,0.000000,0.000000,0.560455,0.570354,0.113716,0.021322,0.653864,533.000000,16.000000,3.000000,0.000000,0.000000,0.000000,0.000000,0.000000;
#CREDIT:Ben Speirs;
#DISPLAYBPM:94.000000;
#NOTES:
// measure 0
0000
0000
0000
0000
,  // measure 1
0000
0000
0000
0000
,  // measure 2
0000
0000
0000
0000
,  // measure 3
0000
0000
0000
0000
,  // measure 4
1100
0000
0001
1000
0010
0010
1000
0001
,  // measure 5
0110
0000
0010
0001
1000
1000
0010
1000
,  // measure 6
0101
0000
0100
0001
1000
1000
1000
0000
,  // measure 7
0001
0000
0000
0001
0000
0000
0001
0000
1000
0000
0000
1000
0000
0000
1000
0000
,  // measure 8
2002
0000
0000
3003
,  // measure 9
0010
0000
0100
0001
0100
0000
0010
1000
0000
0100
0000
0010
0001
0000
1000
0000
,  // measure 10
0010
0000
0000
1000
0000
0000
0001
0000
0100
0000
0000
0001
1000
0001
1000
0001
,  // measure 11
0100
0000
0000
0010
0000
0000
1000
0000
0001
0000
0000
1000
0000
0000
0100
0010
,  // measure 12
0001
0000
1000
0010
0000
0100
0001
0000
1000
0000
0100
0010
0100
0010
0001
0000
,  // measure 13
0100
0000
0010
1000
0010
0000
0100
0001
0000
0010
0000
0100
1000
0000
0001
0000
,  // measure 14
0100
0000
0000
0001
0000
0000
1000
0000
0010
0000
0000
1000
0001
1000
0001
1000
,  // measure 15
0010
0000
0000
0100
0000
0000
0001
0000
1000
0000
0000
0001
0000
0000
0010
0100
,  // measure 16
1000
0000
0001
0100
0000
0010
1000
0000
0001
0000
0010
0000
0100
1000
0001
0000
,  // measure 17
0101
0000
0100
0000
0010
0000
1000
0100
1000
0100
0010
0100
0010
0000
0001
0000
,  // measure 18
1000
0000
0010
0000
0100
0000
0001
1000
0001
1000
0010
1000
0010
0000
0100
0000
,  // measure 19
0001
0000
0010
0000
0100
0000
1000
0100
1000
0100
0010
0100
0010
0000
0001
0000
,  // measure 20
1000
0000
0010
0000
0100
0001
0100
0010
1000
0100
0001
0100
1000
0000
0010
0000
,  // measure 21
1010
0000
0010
0000
0100
0000
0001
0010
0001
0010
0100
0010
0100
0000
1000
0000
,  // measure 22
0001
0000
0100
0000
0010
0000
1000
0001
1000
0001
0100
0001
0100
0000
0010
0000
,  // measure 23
1000
0000
0100
0000
0010
0000
0001
0010
0001
0010
0100
0010
0100
0000
1000
0000
,  // measure 24
0001
0000
0100
0000
0010
1000
0010
0100
0001
0010
1000
0010
0001
0000
1000
0000
,  // measure 25
1100
0000
0000
0000
0100
0000
0000
0000
1000
0010
0000
0000
0010
0100
0000
0000
0100
0001
0000
0000
0001
0010
0000
0000
0010
0100
0000
0000
0100
1000
0000
0000
,  // measure 26
0001
0000
0000
0000
0100
0000
0010
0000
1000
0000
0000
0000
0001
0000
0000
0000
1000
0100
0000
0000
0100
0010
0000
0000
0010
0001
0000
0000
0001
1000
0000
0000
,  // measure 27
0010
0000
0000
0000
0010
0000
0000
0000
0100
0001
0000
0000
0001
1000
0000
0000
1000
0100
0000
0000
0100
1000
0000
0000
0001
0000
0000
0000
0000
0000
0000
0000
,  // measure 28
0101
0000
0001
0100
0010
1000
0100
0000
1100
0000
0100
1000
0010
0100
0001
0000
,  // measure 29
0011
0000
0000
0000
0010
0000
0000
0000
0001
0100
0000
0000
0100
0010
0000
0000
0010
1000
0000
0000
1000
0100
0000
0000
0100
0010
0000
0000
0010
0001
0000
0000
,  // measure 30
1000
0000
0000
0000
0010
0000
0100
0000
0001
0000
0000
0000
1000
0000
0000
0000
0001
0010
0000
0000
0010
0100
0000
0000
0100
1000
0000
0000
1000
0001
0000
0000
,  // measure 31
0100
0000
0000
0000
0100
0000
0000
0000
0010
1000
0000
0000
1000
0001
0000
0000
0001
0010
0000
0000
0010
0001
0000
0000
1000
0000
0000
0000
0000
0000
0000
0000
,  // measure 32
1010
0000
1000
0010
0100
0001
0010
0000
0011
0000
0010
0001
0100
0010
1000
0000
,  // measure 33
0101
0000
0000
0000
1000
0000
0010
1000
0100
0000
1000
0000
0001
0000
0010
0001
,  // measure 34
0100
0000
0001
0000
1000
0100
0010
0001
1000
0010
0100
0000
0001
0000
1000
0000
,  // measure 35
0010
0100
0010
0100
0001
1000
0100
0010
0001
1000
0010
0000
0100
0000
0001
0000
,  // measure 36
1000
0000
0100
0010
0001
0000
0001
1000
0000
1000
0010
0000
0100
0000
0001
0000
,  // measure 37
1000
0100
0010
0000
1001
0000
1000
0000
0001
0100
0010
1000
0100
0010
0001
1000
,  // measure 38
0010
0000
1000
1000
0001
0000
1000
0000
0010
0000
0100
0001
0100
0010
1000
0100
,  // measure 39
0010
0000
0001
0001
1000
0000
0010
0000
0100
0000
0001
0100
0010
1000
0010
0100
,  // measure 40
0001
0000
1000
1000
0100
0000
0010
0000
0001
0010
0100
1000
0010
0000
0010
0100
,  // measure 41
0001
0000
0001
0000
1100
0000
0100
0000
1000
0001
1000
0010
1000
0100
1000
0010
,  // measure 42
1000
0001
1000
0000
0010
0000
1000
0000
0001
0100
0001
1000
0001
0010
0001
1000
,  // measure 43
0001
0000
0100
0000
0001
0000
0000
0000
1000
0000
0000
0000
0001
0000
0000
0000
0010
0000
0100
0000
0010
0000
0000
0000
0001
0010
0000
0000
0010
0100
0000
0000
,  // measure 44
1000
0000
0000
0000
1000
0100
0010
0001
0010
0100
1000
0000
0001
0100
0010
1000
,  // measure 45
0010
0000
0100
0000
0001
0000
0000
0000
1001
0000
0000
0000
1000
0000
0000
0000
0010
0100
0000
0000
0100
0001
0000
0000
0001
0010
0000
0000
0010
0100
0000
0000
,  // measure 46
0100
1000
0000
0000
1000
0010
0000
0000
0100
0000
0000
0000
0001
0000
0000
0000
1000
0100
0000
0000
0100
0010
0000
0000
0010
0001
0000
0000
0001
1000
0000
0000
,  // measure 47
1000
0010
0000
0000
0010
0100
0000
0000
0001
0000
0000
0000
1000
0000
0000
0000
0100
0010
0000
0000
0010
0001
0000
0000
0001
1000
0000
0000
1000
0010
0000
0000
,  // measure 48
0010
0100
0000
0000
0001
0000
0000
0000
1000
0000
0100
0000
0001
0000
0100
0000
1000
0000
0001
0000
1000
0000
0001
0000
1000
0000
0010
0000
0001
0000
0010
0000
,  // measure 49
1000
0001
1000
0001
0100
0000
0000
0010
1000
0000
0010
0000
0100
0000
0000
0001
,  // measure 50
0010
0000
0100
0000
1000
0000
0000
0010
1000
0000
0001
0000
0100
0000
0000
0001
,  // measure 51
0010
0100
1000
0000
0010
0000
0000
1000
0100
0000
0010
0000
0001
0000
0000
1000
,  // measure 52
0010
0000
0100
0000
0001
0100
1000
0100
0001
1000
0001
1000
0001
0010
1000
0010
,  // measure 53
0001
1000
0001
1000
0200
0000
0000
0000
0300
0000
0000
0000
0000
0000
0000
0000
;

//---------------dance-single - ----------------
#NOTEDATA:;
#CHARTNAME:;
#STEPSTYPE:dance-single;
#DESCRIPTION:;
#CHARTSTYLE:;
#DIFFICULTY:Medium;
#METER:4;
#RADARVALUES:0.241645,0.340614,0.127930,0.156359,0.000000,198.000000,18.000000,22.000000,0.000000,0.000000,0.000000,0.000000,0.000000,0.241645,0.340614,0.127930,0.156359,0.000000,198.000000,18.000000,22.000000,0.000000,0.000000,0.000000,0.000000,0.000000;
#CREDIT:Ben Speirs;
#DISPLAYBPM:94.000000;
#NOTES:
0000
0000
0000
0000
,
0000
0000
0000
0000
,
0000
0000
0000
0000
,
0000
0000
0000
0000
,
1000
0010
0010
0000
,
0100
0001
0001
0000
,
1000
0100
0100
0000
,
2000
3000
0002
0003
,
2002
0000
0000
3003
,
0001
1000
0010
0010
,
0100
0100
0100
0000
0100
0000
0000
0000
,
0001
0001
0001
0000
0001
0000
0000
0000
,
1000
0100
0010
0001
,
1000
0001
0100
0100
,
0010
0010
0010
0000
0010
0000
0000
0000
,
1000
1000
1000
0000
1000
0000
0000
0000
,
0100
0100
1000
0001
,
0100
0000
0000
0000
0001
0100
0001
0000
,
1000
0000
0000
0000
0100
1000
0100
0000
,
0010
0000
0000
0000
0100
0010
0100
0000
,
0010
0001
1000
0010
,
0100
0000
0000
0000
0001
1000
0001
0000
,
1000
0000
0000
0000
0001
1000
0001
0000
,
1000
0000
0000
0000
0010
0100
0010
0000
,
0100
0010
1000
1000
,
1001
1000
0100
0100
,
0110
0010
0001
0001
,
0101
0100
0010
0010
,
1000
0010
1000
0010
0100
0001
0100
0001
,
1000
0100
1000
0001
,
1001
1000
0001
0100
,
0101
0000
0100
0000
0010
0010
0010
0000
,
1000
0010
1000
0010
0100
0001
0100
0001
,
1000
0100
0000
0010
,
0000
0000
0001
0010
0100
0000
1000
0000
,
0000
0000
0100
1000
0010
0000
0100
0000
,
0000
0010
1000
0001
,
0000
0000
2002
0000
3003
0000
1000
0100
,
1000
0000
2002
0000
3003
0000
0001
0100
,
0001
0000
2002
0000
3003
0000
1000
0010
,
1000
0001
0010
0100
,
1000
0000
0101
0000
1000
0100
1000
0000
,
0010
0100
0001
0010
,
0010
0000
0110
0000
0001
0000
1000
1000
,
1000
0200
0300
0020
,
0030
0000
1001
0000
1000
0000
0010
0010
,
0010
0000
0100
0000
0001
0000
1000
1000
,
1000
0000
0001
0000
1000
0100
0010
0001
,
1000
2002
3003
0202
,
0303
2020
3030
0010
,
1000
0022
0033
0001
,
0010
0000
2200
0000
3300
0000
0100
1000
,
0001
0000
0100
0100
0100
0000
0010
0010
,
0010
1001
0000
0000
;

//---------------dance-single - ----------------
#NOTEDATA:;
#CHARTNAME:;
#STEPSTYPE:dance-single;
#DESCRIPTION:;
#CHARTSTYLE:;
#DIFFICULTY:Easy;
#METER:2;
#RADARVALUES:0.131991,0.189230,0.042643,0.049751,0.000000,117.000000,6.000000,7.000000,0.000000,0.000000,0.000000,0.000000,0.000000,0.131991,0.189230,0.042643,0.049751,0.000000,117.000000,6.000000,7.000000,0.000000,0.000000,0.000000,0.000000,0.000000;
#CREDIT:Ben Speirs;
#DISPLAYBPM:94.000000;
#NOTES:
0000
0000
0000
0000
,
0000
0000
0000
0000
,
0000
0000
0000
0000
,
0000
0000
0000
0000
,
2000
0000
0000
3000
,
0002
0000
0000
0003
,
0020
0000
0000
0030
,
0200
0300
2000
3000
,
2002
0000
0000
3003
,
0001
0000
1000
0000
,
0010
0010
0100
0000
,
0001
0001
0010
0000
,
0100
0000
1000
0000
,
1001
0000
0001
0000
,
0100
0100
0010
0000
,
1000
1000
0100
0000
,
1000
0000
0001
0000
,
0100
0000
0010
0010
,
1000
0000
1000
1000
,
0100
0000
0100
0100
,
0010
0000
0001
0000
,
1000
0000
0010
0010
,
0100
0000
0100
0100
,
0001
0000
0001
0001
,
0010
0000
0100
0000
,
1001
0000
1000
0000
,
0010
0000
0010
0000
,
0100
0000
0100
0000
,
0001
0001
1000
1000
,
0100
0000
0010
0000
,
0001
0000
0100
0000
,
0010
0000
0010
0000
,
1000
1000
0001
0001
,
0100
0000
0000
0010
,
0000
1000
1000
0100
,
0000
0010
0010
0001
,
0000
0100
0100
0100
,
0000
1001
0000
1000
,
1000
0000
0000
0010
,
0010
0000
0000
0100
,
0100
0000
0000
0001
,
0000
1001
0000
1000
,
0000
0010
0000
0010
,
0000
0100
0000
0100
,
0000
0001
0001
1000
,
1000
0100
0000
0100
,
0000
1000
0000
1000
,
0000
0001
0000
0001
,
0000
0100
0100
0010
,
0010
1000
0000
0100
,
0100
0000
0000
1000
,
1000
0000
0000
0001
,
0001
0001
0000
1000
,
0000
0110
0000
0000
;

//---------------dance-single - ----------------
#NOTEDATA:;
#CHARTNAME:;
#STEPSTYPE:dance-single;
#DESCRIPTION:;
#CHARTSTYLE:;
#DIFFICULTY:Beginner;
#METER:1;
#RADARVALUES:0.112700,0.132461,0.042643,0.000000,0.000000,105.000000,6.000000,0.000000,0.000000,0.000000,0.000000,0.000000,0.000000,0.112700,0.132461,0.042643,0.000000,0.000000,105.000000,6.000000,0.000000,0.000000,0.000000,0.000000,0.000000,0.000000;
#CREDIT:Ben Speirs;
#DISPLAYBPM:94.000000;
#NOTES:
0000
0000
0000
0000
,
0000
0000
0000
0000
,
0000
0000
0000
0000
,
0000
0000
0000
0000
,
0001
0000
0000
0000
,
1000
0000
0000
0000
,
0100
0000
0000
0000
,
0010
0000
0001
0000
,
1001
0000
0000
0000
,
1000
0000
0001
0000
,
0100
0000
0010
0000
,
1000
0000
0100
0000
,
0010
0000
0001
0000
,
1001
0000
1000
0000
,
0010
0000
0100
0000
,
0001
0000
0010
0000
,
0001
0000
1000
0000
,
0010
0000
0100
0000
,
0001
0000
0001
0000
,
0010
0000
0010
0000
,
0100
0000
1000
0000
,
0001
0000
0100
0000
,
0010
0000
0010
0000
,
1000
0000
1000
0000
,
0100
0000
0010
0000
,
1001
0000
0001
0000
,
0100
0000
0100
0000
,
0010
0000
0010
0000
,
1000
1000
0001
0001
,
0010
0000
0100
0000
,
1000
0000
0010
0000
,
0100
0000
0100
0000
,
0001
0001
1000
1000
,
0010
0000
0000
0100
,
0000
0001
0000
0010
,
0000
0100
0000
1000
,
0000
0010
0010
0010
,
0000
1001
0000
0001
,
0001
0000
0000
0100
,
0100
0000
0000
0010
,
0010
0000
0000
1000
,
0000
1001
0000
0001
,
0000
0100
0000
0100
,
0000
0010
0000
0010
,
0000
1000
1000
0001
,
0001
0010
0000
0010
,
0000
0001
0000
0001
,
0000
1000
0000
1000
,
0000
0010
0010
0100
,
0100
0001
0000
0010
,
0010
0000
0000
0001
,
0001
0000
0000
1000
,
1000
1000
0000
0001
,
0000
1001
0000
0000
;

//---------------dance-double - ----------------
#NOTEDATA:;
#CHARTNAME:;
#STEPSTYPE:dance-double;
#DESCRIPTION:;
#CHARTSTYLE:;
#DIFFICULTY:Challenge;
#METER:9;
#RADARVALUES:0.478214,0.510920,0.213217,0.071072,0.433540,431.000000,30.000000,10.000000,0.000000,0.000000,0.000000,0.000000,0.000000,0.478214,0.510920,0.213217,0.071072,0.433540,431.000000,30.000000,10.000000,0.000000,0.000000,0.000000,0.000000,0.000000;
#CREDIT:Ben Speirs;
#DISPLAYBPM:94.000000;
#NOTES:
00000000
00000000
00000000
00000000
,
00000000
00000000
00000000
00000000
,
00000000
00000000
00000000
00000000
,
00001000
00000000
00000000
00000001
00000000
00000000
00000100
00000000
00000100
00000000
00000000
00000010
00000000
00000000
00001000
00000000
,
00000100
00000000
00010000
00000100
00010000
00000100
00010000
00000000
,
00011000
00000000
00001000
00100000
00001000
00100000
00001000
00000000
,
00110000
00000000
10000000
00000000
00010000
10000000
00100000
00000000
,
10000000
00000000
00000000
01000000
00000000
00000000
00100000
00000000
00100000
00000000
00000000
00010000
00000000
00000000
01000000
00000000
,
02000000
00000000
00000000
03000000
,
00010000
00000000
00000000
01000000
00000000
00000000
01010000
00000000
00010000
00000000
00000000
10000000
00000000
00000000
11000000
00000000
,
10000000
00000000
00000000
00010000
00000000
00000000
00110000
00000000
00100000
00000000
00000000
00010000
00000000
00000000
10000000
00000000
,
10100000
00000000
00000000
00100000
00000000
00000000
01000000
00000000
01100000
00000000
00000000
01000000
00000000
00000000
00010000
00000000
,
01010000
00000000
00010000
00000000
01000000
00000000
00001000
00000000
00100000
00000000
00001000
00000000
00010000
00000100
00010000
00000000
,
00000100
00000000
00001000
00000100
00000000
00000000
00001100
00000000
00000001
00000000
00000100
00000001
00000000
00000000
00000101
00000000
,
00001000
00000000
00000010
00001000
00000000
00000000
00001010
00000000
00000001
00000000
00000010
00000001
00000000
00000000
00000011
00000000
,
00000001
00000000
00001000
00000100
00001000
00000000
00000001
00000000
00001000
00000000
00000001
00000100
00000001
00000000
00001000
00000000
,
00000010
00000000
00001000
00000100
00001000
00000000
00000100
00000000
00010000
00000000
00001000
00000000
00100000
00000000
00010000
00000000
,
02000000
00000000
00000000
00100000
00000000
00000000
03100000
00000000
01000000
00010000
01000000
00000000
00100000
00000000
10000000
00000000
,
00020000
00000000
00000000
00100000
00000000
00000000
00130000
00000000
00010000
00100000
00010000
00000000
10000000
00000000
00010000
00000000
,
02000000
00000000
00000000
00100000
00000000
00000000
03100000
00000000
01000000
00100000
01000000
00000000
00100000
00000000
10000000
00000000
,
02000000
00000000
13000000
01000000
00010000
00001000
00000100
00000001
,
00002000
00000000
00000000
00000100
00000000
00000000
00003010
00000000
00001000
00000100
00001000
00000000
00000010
00000000
00001000
00000000
,
00000002
00000000
00000000
00000100
00000000
00000000
00000013
00000000
00000001
00000010
00000001
00000000
00001000
00000000
00000001
00000000
,
00000100
00000000
00000010
00000000
00001000
00000000
00001000
00000000
00000001
00000010
00000001
00000000
00001000
00000000
00000010
00000000
,
00010000
00000000
00000100
00000000
00010000
00000000
00001000
00000000
00100000
00000000
00010000
00000000
10000000
00010000
10000000
00000000
,
10100000
00000000
00000000
00010000
01000000
00000000
00100000
00000000
10000000
00000000
10000000
00000000
01000000
00100000
00010000
00000000
,
11000000
00000000
00000000
00010000
10000000
00000000
00100000
00000000
01000000
00000000
01000000
00000000
00010000
00100000
00001000
00000000
,
00101000
00000000
00000000
00100000
00001000
00000000
00010000
00000000
00000100
00010000
00000100
00010000
00000100
00000000
00000000
00000000
,
00001000
00000001
00001000
00000001
00001000
00000100
00000010
00000000
00000001
00001000
00000001
00001000
00000001
00000100
00000010
00000000
,
00001010
00000000
00000000
00001000
00000100
00000000
00000010
00000000
00000001
00001000
00000001
00000000
00000100
00000000
00000010
00000000
,
00001010
00000000
00000000
00001000
00000100
00000000
00010000
00000000
00001000
00010000
00001000
00000000
00100000
00000000
00010000
00000000
,
00110000
00000000
00000000
00100000
00010000
00000000
10000000
00000000
00100000
10000000
00100000
10000000
00010000
00000000
00000000
00000000
,
01000000
00010000
01000000
00010000
01000000
00100000
10000000
00000000
01000000
10000000
01000000
10000000
01000000
00100000
00010000
00000000
,
10000000
00000000
00000000
00000000
00010000
00000000
00000000
01000000
00000000
00000000
00001000
00000000
00010000
00000000
00000000
00000100
,
00000000
00000000
00001000
00000000
00000010
00000000
00000000
00000100
00000000
00000000
00000001
00000000
00000010
00000000
00000000
00000100
,
00001000
00000100
00001000
00000100
00010000
00000000
00000000
00001000
00000000
00000000
00100000
00000000
00010000
00000000
00000000
01000000
,
00000000
00000000
00100000
10000000
00100000
00000000
01000000
00010000
00000000
10000000
01000000
00000000
00100000
00000000
00010000
00000000
,
10000000
00010000
10000000
00000000
11000000
00000000
00000000
00000000
00000000
00010000
00100000
00010000
00100000
00010000
00100000
00010000
,
00100000
00000000
00010000
00000000
10000000
00000000
00000000
00010000
00000000
00000000
01000000
00100000
01000000
00100000
01000000
00100000
,
01000000
00100000
01000000
00000000
00010000
00000000
00000000
01000000
00000000
00000000
00001000
00010000
00001000
00010000
00001000
00010000
,
00001000
00010000
00001000
00000000
00010000
00000000
00000100
00000000
00001000
00000000
00000010
00000100
00000010
00000000
00000100
00000001
,
00000100
00000000
00000010
00000000
00001010
00000000
00000000
00000000
00000001
00000100
00000001
00000100
00000010
00001000
00000010
00001000
,
00000100
00000010
00000001
00000000
00001100
00000000
00000000
00000000
00000001
00000010
00000001
00000010
00000100
00001000
00000100
00001000
,
00000010
00000100
00000001
00000000
00001000
00000000
00000100
00000000
00010000
00000000
00001000
00000000
00100000
00000000
00100000
00000000
,
00100000
00000000
00000000
00000000
00010000
00100000
00010000
00100000
01000000
10000000
00100000
00000000
10000000
00010000
10000000
00010000
,
01000000
00100000
10000000
00000000
01020000
00000000
00000000
00000000
10030000
00000000
01000000
00000000
10000000
00000000
10000000
00000000
,
00010000
00100000
01000000
10000000
00020000
00000000
00000000
00000000
10030000
00000000
00100000
00000000
01000000
00000000
01000000
00000000
,
00010000
01000000
00010000
01000000
00002000
00000000
00000000
00000000
00013000
00000000
00001000
00000000
00010000
00000000
00000100
00000000
,
00000100
00000000
00000000
00000000
00001000
00000100
00001000
00000100
00000010
00000001
00001000
00001000
00000010
00000100
00000010
00000100
,
00000001
00001000
00000100
00000100
00000010
00000000
00000000
00000001
00000000
00000000
00001100
00000000
00000001
00000000
00000000
00000100
,
00000100
00000010
00001000
00000000
00000001
00000000
00000000
00000101
00000000
00000000
00001000
00000000
00000010
00000000
00000000
00010000
,
00010000
00001000
00010000
00000000
00000100
00000000
00001000
00000000
00000100
00010000
00001000
00000000
00100000
00000000
00100000
00010000
,
00000000
00000000
01000000
00000000
01010000
00000000
00000000
01100000
00000000
00000000
10100000
00000000
11000000
00000000
00000000
01100000
,
00000000
00110000
10000000
00000000
00000000
00000000
00000000
00000000
;
