#TITLE:WHO SAID;
#ARTIST:HANNAH MONTANA;
#FILE:WHO SAID.mp3;
#BPM:133.000;
#GAP:107;
#SAMPLESTART:48.785;
#SAMPLELENGTH:15.000;
#CDTITLE:./CDTITLES/Dance Dance Revolution Disney Channel Edition.png;
#SINGLE:BEGINNER:1:
00000000
00000000
00000000
00000000
20000000
60000000
80000000
40004000
20000000
40000000
60000000
80004000
80000000
20000000
60000000
40000000
80000000
20000000
80000000
60000000
40000000
80000000
20000000
60000000
80000000
20000000
40004000
A0000000
40000000
60000000
20000000
A0000000
60000000
40000000
20000000
80008000
20000000
40004000
60000000
B0000000
60000000
40000000
20000000
B0000000
B0000000
A0000000
A0000000
40002000
80006000
60006000
80008000
20004000
60004000
40002000
80006000
60004000
;
#SINGLE:BASIC:3:
00000000
00000000
00000000
00000000
80002000
40002000
40008000
20006000
40008000
60004000
60004000
20006000
B0008000
20004000
B0008000
20006000
40008000
20600000
80002000
4000A000
6000B000
20008000
60408000
A0004000
B0002000
80004000
60002000
B0008000
20004000
B0002000
60008000
B0008000
20004000
A0004000
80006000
A0006000
80004000
80002000
80006000
20008000
60004000
20006000
80004000
20008000
60004000
20008000
60004000
60002000
80004000
A0004000
A0006060
40008000
20006000
80002000
40006000
20004000
;
#SINGLE:ANOTHER:4:
00000000
00000000
00000000
00008020
80006000
40802000
40006000
20806000
40002000
80604000
80002000
60204000
20006000
80204000
80002000
60804000
40008000
60204000
40008000
20006000
80002000
40802000
60802000
40006000
20804000
20806040
80002000
60604000
40408000
20206000
80802000
40804000
60206000
20804000
20806000
40604000
60406060
80002000
80406020
60604000
40402000
80806000
20208000
40802060
80204020
60204080
60804020
80806040
20204080
20006000
40008020
60008000
20004080
20006000
80408000
60208040
;
#SINGLE:MANIAC:7:
00000000
00000000
00000000
00000868
60408020
40608680
20408020
60804240
80206460
80204640
80206860
42408460
20408020
60802420
40604040
80206860
80204040
60408080
28204640
68608020
48402080
62604080
28204020
68602040
26802040
84806260
802040B0
B0902040
7020A020
90106070
30208040
A0B020A0
B0206080
B0A040B0
A0408020
60802020
40800101
80206860
24208484
B0108060
3080A080
10904030
70802060
A0B080A0
B0804020
B0A060B0
A0602088
40802620
48406284
20804620
84826080
60802480
48268020
40804840
62608240
80A06824
;
#DOUBLE:BASIC:3:
00000000
00000000
00000000
00000000
80006000
00000000
00000000
00006000
00008000
60004000
20008000
60000000
60000000
00000000
00000000
60008000
40002000
60000000
00000000
00000000
00006000
80002000
60408000
A0006000
60000000
00000000
00000000
60000000
60002000
B0002000
80000000
00000000
00000000
60002000
80004000
A0006000
00000000
00000000
00000000
60008000
20004000
20006000
00000000
00000000
00000000
80002000
40002000
60000000
00000000
00000000
00000060
00006000
20008000
B0002000
40008000
60000000
:
00000000
00000000
00000000
00000000
00000000
40008000
60008000
20000000
40000000
00000000
00000000
00004000
40002000
80006000
A0004000
00000000
00000000
00004000
80002000
6000B000
20004000
00000000
00000000
00000000
40002000
80006000
20008000
40002000
40000000
00000000
00004000
A0006000
20004000
40000000
00000000
00000000
40002000
60002000
80004000
00000000
00000000
00000000
40002000
80006000
80004000
00000000
00000000
00004000
80002000
A0006000
B0002000
40004000
00000000
00000000
00000000
00004000
;
#DOUBLE:ANOTHER:5:
00000000
00000000
00000000
00004020
80006000
00000000
00000000
00000000
60002000
80404000
80002000
00608000
60000000
00000000
00000000
00006000
20008000
40208000
00006000
00000000
00000000
00000000
60802000
40006000
80006000
00600000
00000000
00000000
00600000
80806000
20204000
20602000
00600000
00000000
00000000
00600000
60208040
80002000
60000000
00000000
00000000
00006000
20208000
40802060
80006000
00000000
60008060
40802060
20006000
00000000
60000080
00002000
60004020
60000000
00000000
00000000
:
00000000
00000000
00000000
00000000
00000000
40808000
80006000
20404000
00000000
00000000
00000000
40000000
00004000
20804000
60002000
80200000
00000000
00000000
40000000
20008000
60002000
80204000
00000000
00000000
00400000
80004000
20406000
80204000
20004000
00000000
00000000
00000000
40004000
80604000
20804000
20004000
00000000
00000000
00402040
80206000
80804000
40400000
00000000
00000000
00400020
40206020
00400000
00000000
00400080
20602000
00004000
40000000
00000000
00004000
20200000
80602040
;
#DOUBLE:MANIAC:7:
00000000
00000000
00000000
00000808
00600000
00000000
00602080
40802620
80200600
00000000
00000000
00600260
40608020
40802060
00600000
00000000
00600020
60408280
20600000
00000000
60600080
24208000
60600000
00000000
00000060
08606240
80200060
60000000
00606020
10308090
60000000
00006060
90204020
30606060
00000000
60002080
60400806
00000000
00006086
B0108000
60600000
00000060
30804080
30108090
60000000
00000060
90204028
40208680
06000000
00606240
84800060
00000000
00000000
60804840
62006080
00600000
:
00000000
00000000
00000000
00000040
40008020
40802620
40000000
00000000
00004040
80204640
80206260
42004000
00000000
00000400
20004020
60204240
80004000
00000000
04002460
84804020
04004000
00000040
04002040
82802060
82408000
40000000
00004000
40108060
A0204000
00000000
40208060
B0A00040
00000000
00400080
10806020
00400000
00000000
40208680
24200400
00000040
40001080
30904040
00000000
00000000
40208060
B0A04000
00000000
00000000
40408262
40400000
00004000
40802680
24208010
00000000
00400400
20408264
;
