#TITLE:Ducks In The 'Hood;
#SUBTITLE:;
#ARTIST:Disney Grooves;
#TITLETRANSLIT:;
#SUBTITLETRANSLIT:;
#ARTISTTRANSLIT:;
#CREDIT:;
#BANNER:;
#BACKGROUND:;
#LYRICSPATH:;
#CDTITLE:./CDTITLES/DanceDanceRevolution Disney Grooves.png;
#MUSIC:Ducks In The 'Hood.mp3;
#OFFSET:-0.039;
#SAMPLESTART:9.200;
#SAMPLELENGTH:15.000;
#SELECTABLE:YES;
#BPMS:0.000=118.000;
#STOPS:;
#BGCHANGES:;

//---------------dance-single - ----------------
#NOTES:
     dance-single:
     :
     Beginner:
     2:
     0.095,0.117,0.019,0.000,0.000:
0000
0000
0000
0000
,
0000
0000
0000
0000
,
0000
0000
0000
0000
,
0000
0000
0000
0000
,
0000
0000
1000
1000
,
0000
0000
0100
0000
,
0000
0000
0001
0001
,
0000
0000
0010
0000
,
0000
0000
1000
0000
,
0000
0000
0001
0000
,
0000
0000
0100
0100
,
0000
0000
0100
0000
,
0100
0000
1000
0000
,
0000
0000
0001
0000
,
0000
0000
0010
0010
,
0000
0000
0010
0000
,
0100
0000
1000
1000
,
0000
0000
0100
0000
,
0000
0000
0001
0001
,
0000
0000
0010
0000
,
0000
0000
0001
0001
,
0000
0000
0010
0000
,
0000
0000
1000
1000
,
0000
0000
0100
0000
,
0000
0000
0001
0000
,
0000
0000
1000
0000
,
0000
0000
0100
0100
,
0000
0000
0100
0000
,
0100
0000
0001
0000
,
0000
0000
1000
0000
,
0000
0000
0010
0010
,
0000
0000
0010
0000
,
0100
0000
0001
0001
,
0000
0000
0100
0000
,
0000
0000
1000
1000
,
0000
0000
0010
0000
,
0000
0000
1000
1000
,
0000
0000
0010
0000
,
0000
0000
0001
0001
,
0000
0000
0100
0000
,
0000
0000
0000
0000
,
0100
0100
0000
0000
,
0001
0001
0000
0000
,
0010
0010
0000
0000
,
1000
1000
0000
0000
,
0000
0010
0000
0000
,
0000
1001
0000
0000
,
0000
0010
0000
0000
,
0000
1001
0000
0000
;

//---------------dance-single - ----------------
#NOTES:
     dance-single:
     :
     Easy:
     3:
     0.150,0.164,0.019,0.000,0.000:
0000
0000
0000
0000
,
0000
0000
0000
0000
,
0000
0000
0000
0000
,
0000
0000
0000
0000
,
0000
0000
1000
1000
,
0000
0100
0100
0000
,
0001
0000
1000
1000
,
0000
0010
0010
0000
,
0100
0000
0001
0000
,
0001
0000
1000
0000
,
1000
0000
0010
0001
,
0100
0000
0100
0000
,
0001
0000
1000
0000
,
1000
0000
0001
0000
,
0001
0000
0010
1000
,
0100
0000
0100
0000
,
0100
0000
1000
1000
,
0000
0100
0100
0000
,
0001
0000
1000
1000
,
0000
0010
0010
0000
,
0100
0000
0001
0001
,
0000
0100
0100
0000
,
1000
0000
0001
0001
,
0000
0010
0010
0000
,
0100
0000
1000
0000
,
1000
0000
0001
0000
,
0001
0000
0100
1000
,
0010
0000
0010
0000
,
1000
0000
0001
0000
,
0001
0000
1000
0000
,
1000
0000
0100
0001
,
0010
0000
0010
0000
,
0010
0000
0001
0001
,
0000
0010
0010
0000
,
1000
0000
0001
0001
,
0000
0100
0100
0000
,
0010
0000
1000
1000
,
0000
0010
0010
0000
,
0001
0000
1000
1000
,
0000
0100
0100
0000
,
0010
0000
0001
0000
,
1000
1000
1000
0000
,
0001
0001
0001
0000
,
1000
1000
1000
0000
,
0001
0001
0000
1000
,
0000
0010
0000
0100
,
0000
1001
0000
0001
,
0000
0010
0000
0100
,
0000
1001
0000
0000
;

//---------------dance-single - ----------------
#NOTES:
     dance-single:
     :
     Medium:
     5:
     0.196,0.188,0.117,0.039,0.000:
0000
0000
0000
0000
,
0000
0000
0000
0000
,
0000
0000
0000
0000
,
0000
0000
0000
0000
,
0000
0000
1000
1001
,
0000
0100
0100
0000
,
0001
0001
1000
1001
,
0000
0100
0100
0000
,
0100
0000
0000
0001
,
1000
0000
1000
0100
,
1000
0000
0010
0001
,
0010
0001
1000
0000
,
0001
0001
0000
1000
,
0001
0000
0001
0100
,
0001
0000
0100
1000
,
0100
1000
0001
0000
,
1000
1000
0001
1001
,
0000
0100
0100
0000
,
1000
1000
0001
1001
,
0000
0100
0100
0000
,
0100
0000
1000
1001
,
0000
0010
0010
0000
,
0001
0001
1000
1001
,
0000
0010
0010
0000
,
0010
0000
0000
1000
,
0001
0000
0001
0100
,
0001
0000
0001
1000
,
0001
1000
0001
0000
,
1000
1000
0000
0001
,
1000
0000
1000
0100
,
1000
0000
1000
0001
,
1000
0001
1000
0000
,
0001
0001
1000
1001
,
0000
0010
0010
0000
,
0001
0001
1000
1001
,
0000
0010
0010
0000
,
0010
0000
0001
1001
,
0000
0100
0100
0000
,
1000
1000
0001
1001
,
0000
0100
0100
0000
,
0100
0000
2000
0000
,
0001
3001
0002
0000
,
1000
1003
2000
0000
,
0010
3010
0002
0000
,
0100
0103
1000
0001
,
0000
0010
0000
0100
,
0000
1001
0001
1000
,
0000
0010
0000
0100
,
0000
1001
0000
0000
;

//---------------dance-single - ----------------
#NOTES:
     dance-single:
     :
     Hard:
     7:
     0.260,0.258,0.136,0.039,0.000:
0000
0000
0000
0000
,
0000
0000
0000
0000
,
0000
0000
0000
0000
,
0000
0000
0000
0000
,
0000
0000
1000
1100
,
0100
1000
0100
0010
,
0001
0100
0001
0101
,
0100
0001
1000
0100
,
0100
0000
1000
0100
,
0010
0100
0001
0100
,
0001
0010
0100
1000
,
0100
1000
0001
0000
,
0001
1000
0001
0000
0001
0000
0100
0000
,
0010
0100
1000
0100
,
1000
0010
0100
0001
,
0100
0001
1000
0000
,
1000
0001
1000
0000
1000
0000
1100
0000
,
0100
0000
1000
0000
0100
0000
0010
1000
,
0000
0100
0001
0101
,
0100
0001
1000
0100
,
0100
0000
0001
0101
,
0100
0000
0001
0000
0100
0000
0010
0001
,
0000
0100
1000
1100
,
0100
1000
0001
0100
,
0100
0000
1000
0100
,
0010
0100
0001
0100
,
0001
0010
0100
1000
,
0100
0001
0001
0000
,
0001
1000
0001
0000
0001
0000
0100
0000
,
0010
0100
1000
0100
,
1000
0010
0100
0001
,
0100
1000
1000
0000
,
1000
0001
1000
0000
0001
0000
0101
0000
,
0100
0000
0001
0000
0100
0000
0010
1000
,
0000
0010
1000
1100
,
0100
1000
0001
0100
,
0100
0000
1000
1100
,
0100
0000
1000
0000
0100
0000
0010
0001
,
0000
0010
0001
0101
,
0100
0001
1000
0100
,
0100
0000
2000
0000
,
3100
0110
0020
0000
,
0031
0011
0020
0000
,
0130
1100
2000
0000
,
3100
0110
1000
0100
,
0000
0100
0010
0000
1000
0000
0100
0000
,
0010
0100
0010
0000
0001
0000
0100
0000
,
0000
0100
0010
0000
0001
0000
0100
0000
,
0010
0100
0010
0000
0000
0000
0000
0000
;
