#TITLE:Thomas O'Malley Cat;
#SUBTITLE:;
#ARTIST:Disney Grooves;
#TITLETRANSLIT:;
#SUBTITLETRANSLIT:;
#ARTISTTRANSLIT:;
#CREDIT:;
#BANNER:Thomas O'Malley Cat.png;
#BACKGROUND:Thomas O'Malley Cat-bg.png;
#LYRICSPATH:;
#CDTITLE:./CDTITLES/DanceDanceRevolution Disney Grooves.png;
#MUSIC:Thomas O'Malley Cat.mp3;
#OFFSET:-0.530;
#SAMPLESTART:0.020;
#SAMPLELENGTH:15.000;
#SELECTABLE:YES;
#BPMS:0.000=72.000;
#STOPS:;
#BGCHANGES:;

//---------------dance-single - ----------------
#NOTES:
     dance-single:
     :
     Beginner:
     1:
     0.068,0.067,0.000,0.000,0.000:
0000
0000
1000
0000
,
0100
0000
0001
0000
,
0100
0000
0100
0000
,
0010
0000
0000
0000
,
1000
0000
0001
0000
,
1000
0000
0100
0000
,
0001
0000
1000
0000
,
0001
0000
0010
0000
,
0001
0000
0100
0000
,
0010
0000
1000
0000
,
0001
0000
0001
0000
,
1000
0000
0000
0000
,
0001
0000
0001
0000
,
0100
0000
0100
0000
,
1000
0000
1000
0000
,
0100
0000
0100
0000
,
0001
0000
0000
0000
,
0010
0000
0000
0000
,
1000
0000
0000
0000
,
0100
0000
0010
0000
,
0100
0000
0000
0000
,
0001
0000
1000
0000
,
0001
0000
0010
0000
,
0001
0000
0100
0000
,
0010
0000
1000
0000
,
0001
0000
0001
0000
,
0010
0000
0000
0000
;

//---------------dance-single - ----------------
#NOTES:
     dance-single:
     :
     Easy:
     2:
     0.102,0.094,0.000,0.000,0.000: // measure 1
0000
0000
1000
1000
,  // measure 2
1000
0000
0001
0001
,  // measure 3
0001
0000
0010
0010
,  // measure 4
0010
0000
0000
0000
,  // measure 5
1000
0001
1000
0000
,  // measure 6
1000
0010
0100
0000
,  // measure 7
0001
1000
0001
0000
,  // measure 8
0001
0100
0010
0000
,  // measure 9
1000
0100
1000
0000
,  // measure 10
0001
0100
0001
0000
,  // measure 11
0010
0000
0010
0000
,  // measure 12
0100
0000
0000
0000
,  // measure 13
0100
0000
0010
0010
,  // measure 14
0100
0000
1000
1000
,  // measure 15
0010
0000
0100
0100
,  // measure 16
0010
0000
0001
0001
,  // measure 17
1000
0000
0100
0000
,  // measure 18
0001
0000
0100
0000
,  // measure 19
1000
0000
0100
0000
,  // measure 20
0001
0001
1000
1000
,  // measure 21
0100
0000
0100
0000
,  // measure 22
0001
1000
0001
0000
,  // measure 23
0001
0100
0010
0000
,  // measure 24
1000
0100
1000
0000
,  // measure 25
0001
0100
0001
0000
,  // measure 26
0100
0000
0100
0000
,  // measure 27
0010
0000
0000
0000
;

//---------------dance-single - ----------------
#NOTES:
     dance-single:
     :
     Medium:
     4:
     0.150,0.148,0.021,0.062,0.000:
0000
0000
0000
0000
0100
0000
1000
1000
,
1000
0000
0000
0000
0100
0000
0001
0001
,
0001
0000
1000
0010
,
0001
0000
0100
0000
0000
0000
0100
0100
,
0100
0001
0100
0010
,
0001
0010
0100
0100
,
1000
0010
0100
1000
,
0100
0010
0010
0001
,
1000
0001
1000
0001
,
0100
0010
0100
0100
,
0001
0000
1001
0000
,
0100
0000
0000
0000
,
0001
0010
0001
0001
,
0100
0010
1000
0010
,
1000
0100
1000
1000
,
0010
0100
0001
0100
,
0020
0130
0200
0300
,
0002
1003
2000
3000
,
0200
0310
0020
0030
,
0001
1000
0001
1000
,
0100
0000
0100
0000
0100
0000
1000
1000
,
1000
0010
0100
1000
,
0100
0010
0010
0001
,
1000
0001
1000
0001
,
0100
0010
0100
0100
,
0001
0000
1001
0000
,
0100
0000
0000
0000
;

//---------------dance-single - ----------------
#NOTES:
     dance-single:
     :
     Hard:
     7:
     0.209,0.201,0.062,0.062,0.000:
0000
0000
0000
0000
1000
0100
0010
0100
,
0100
0000
0000
0000
0001
0010
0100
0010
,
0100
0000
0000
0000
0010
0100
1000
0001
,
0100
0000
0001
0000
1000
0000
0010
0010
,
0010
0000
1000
0100
0010
0000
1000
0100
,
0001
0000
0100
0000
1000
0010
1000
0100
,
1000
0000
0001
0100
0010
0000
0001
0100
,
1000
0000
0100
0000
0001
0010
0001
0100
,
0001
0000
0010
0100
1000
0000
0010
0100
,
0001
0100
0011
0100
,
1000
0000
1001
0000
,
0100
0000
0000
0000
,
1000
0100
0010
0001
0000
0001
0000
0010
,
0100
1000
0000
0100
0000
0110
0000
1000
,
0001
0100
0010
1000
0000
1000
0000
0010
,
0100
0000
1000
0010
0100
0000
1000
0001
,
2000
0000
0100
0000
3200
0000
0001
0301
,
2000
0000
0010
0000
3020
0000
0001
0031
,
0200
0000
0010
0000
0320
0000
1000
1030
,
1000
0000
0100
0000
1010
0000
0100
0001
,
0100
0000
0100
1000
0100
0000
0001
0001
,
0001
0000
1000
0100
0010
0000
1000
0100
,
0001
0000
0100
0000
1000
0010
1000
0100
,
1000
0000
0010
0100
0001
0000
0010
0100
,
1000
0100
1010
0100
,
0001
0000
1001
0000
,
0010
0000
0000
0000
;
