#TITLE:Mickey Mouse Club Mix;
#SUBTITLE:;
#ARTIST:Disney Grooves;
#TITLETRANSLIT:;
#SUBTITLETRANSLIT:;
#ARTISTTRANSLIT:;
#CREDIT:;
#BANNER:;
#BACKGROUND:;
#LYRICSPATH:;
#CDTITLE:./CDTITLES/DanceDanceRevolution Disney Grooves.png;
#MUSIC:Mickey Mouse Club Mix.mp3;
#OFFSET:0.055;
#SAMPLESTART:55.720;
#SAMPLELENGTH:15.000;
#SELECTABLE:YES;
#DISPLAYBPM:130.000;
#BPMS:0.000=129.000;
#STOPS:;
#BGCHANGES:;

//---------------dance-single - ----------------
#NOTES:
     dance-single:
     :
     Beginner:
     2:
     0.122,0.153,0.091,0.000,0.000:
0000
0000
0000
0000
,
0000
0000
0000
0000
,
0001
0000
0001
0000
,
1000
0000
1000
0000
,
0001
0000
0001
0000
,
1000
0000
1000
0000
,
0010
0000
0000
0000
,
0100
0000
0000
0000
,
0010
0000
0000
0000
,
0100
0000
0000
0000
,
0010
0000
0000
0000
,
1000
0000
0100
0000
,
0100
0000
0000
0000
,
1001
0000
0000
0000
,
0100
0000
0000
0000
,
0001
0000
0010
0000
,
0010
0000
0000
0000
,
1001
0000
0000
0000
,
0010
0010
0000
0000
,
1000
1000
0000
0000
,
0010
0010
0000
0000
,
0001
0001
0000
0000
,
0100
0100
0000
0000
,
0001
0001
0000
0000
,
0100
0100
0000
0000
,
1000
0000
0000
0000
,
1001
0000
0000
0000
,
0000
0000
0000
0000
,
1001
0000
0000
0000
,
0000
0000
0000
0000
,
0000
0001
0001
0000
,
0000
1000
1000
0000
,
0001
0000
1000
0000
,
1001
0000
0000
0000
,
0000
0100
0100
0000
,
0000
0010
0010
0000
,
0100
0000
0010
0000
,
0110
0000
0000
0000
,
0100
0100
0000
0000
,
1000
1000
0000
0000
,
0100
0100
0000
0000
,
0001
0001
0000
0000
,
0010
0010
0000
0000
,
0001
0001
0000
0000
,
0010
0010
0000
0000
,
1000
0000
0000
0000
,
1001
0000
0000
0000
,
0000
0000
0000
0000
,
0000
1000
1000
0000
,
0000
0001
0001
0000
,
1000
0000
0001
0000
,
1001
0000
0000
0000
,
0000
0010
0010
0000
,
0000
0100
0100
0000
,
0010
0000
0100
0000
,
0110
0000
0000
0000
,
1001
0000
0000
0000
;

//---------------dance-single - ----------------
#NOTES:
     dance-single:
     :
     Easy:
     4:
     0.172,0.204,0.091,0.109,0.000:
0000
0000
0000
0000
,
0000
0000
0000
0000
,
0010
0000
0010
0000
,
1000
0000
1000
0000
,
0001
0000
0001
0000
,
0100
0000
0100
0000
,
2000
0000
3000
0000
,
0200
0000
0300
0000
,
0002
0000
0003
0000
,
0020
0000
0030
0000
,
1000
0000
0010
0000
,
0001
0000
0100
0000
,
0010
0000
0100
0000
,
1001
0000
0000
0000
,
0001
0000
0010
0000
,
1000
0000
0100
0000
,
0010
0000
0100
0000
,
1001
0000
0000
0000
,
0001
0001
0000
1000
,
0100
1000
0000
0010
,
0010
0010
0000
0100
,
1000
0001
0000
0000
,
1000
1000
0000
0001
,
0100
0001
0000
0100
,
0100
0100
0000
0010
,
0001
1000
0000
0000
,
0110
0000
0000
0000
,
0000
0000
0000
0000
,
1001
0000
0000
0000
,
0000
0000
0000
0000
,
0001
0001
1000
0000
,
0001
1000
1000
0000
,
0002
0003
2000
3000
,
0000
0000
1001
0000
,
0010
0010
0100
0000
,
0100
0100
0010
0000
,
0020
0030
0200
0300
,
0000
0000
1001
0000
,
0001
0001
0000
1000
,
0010
1000
0000
0100
,
0100
0100
0000
0010
,
0001
1000
0000
0000
,
1000
1000
0000
0001
,
0100
0001
0000
0010
,
0010
0010
0000
0100
,
1000
0001
0000
0000
,
0110
0000
0000
0000
,
0000
0000
0000
0000
,
1000
1000
0001
0000
,
1000
0001
0001
0000
,
2000
3000
0002
0003
,
0000
0000
1001
0000
,
0100
0100
0010
0000
,
0010
0010
0100
0000
,
0020
0030
0200
0300
,
0000
0000
0110
0000
,
1001
0000
0000
0000
;

//---------------dance-single - ----------------
#NOTES:
     dance-single:
     :
     Medium:
     6:
     0.242,0.229,0.209,0.073,0.000:
0000
0000
0000
0000
,
0000
0000
0000
0000
,
1000
0100
0100
0000
,
1000
0100
0010
0000
,
0001
0100
0100
0000
,
0001
0010
0100
0000
,
1000
0010
0100
0000
,
1000
0010
0100
0000
,
0001
0100
0010
0000
,
0001
0100
0010
0000
,
1000
0100
0100
0001
,
0100
0100
1000
0100
,
0001
0010
0010
1000
,
0010
0010
0110
0000
,
0001
0100
0100
1000
,
0100
0100
0001
0100
,
1000
0010
0010
0001
,
0010
0010
0110
0000
,
0001
0101
0000
1000
,
0100
1000
0000
0010
,
1000
1100
0000
0001
,
0100
0001
0000
0010
,
1000
1010
0000
0001
,
0010
0001
0000
0100
,
0001
0011
0000
1000
,
0001
1000
1001
0000
,
0001
0000
1001
0000
,
0100
0000
0110
0000
,
1000
0000
1001
0000
,
0010
0000
0110
0000
,
0001
0100
1000
0000
,
0001
0010
1000
0000
,
2000
0000
3002
0000
,
0103
0000
1001
0000
,
1000
0100
0001
0000
,
1000
0010
0001
0000
,
0002
0000
2003
0000
,
3010
0000
1001
0000
,
0001
0011
0000
1000
,
0010
1000
0000
0100
,
1000
1010
0000
0001
,
0010
0001
0000
0100
,
1000
1100
0000
0001
,
0100
0001
0000
0010
,
0001
0101
0000
1000
,
0001
1000
1001
0000
,
0010
0000
0110
0000
,
0001
0000
1001
0000
,
1000
0010
0001
0000
,
1000
0100
0001
0000
,
0020
0000
0230
0000
,
1300
0000
0110
0000
,
0001
0010
1000
0000
,
0001
0100
1000
0000
,
0200
0000
0320
0000
,
0031
0000
0110
0000
,
1001
0000
0000
0000
;

//---------------dance-single - ----------------
#NOTES:
     dance-single:
     :
     Hard:
     8:
     0.317,0.357,0.091,0.073,0.000:
0000
0000
0000
0000
,
0000
0000
0000
0000
,
0100
0000
0010
0000
0010
0000
0001
0100
,
0001
0100
0010
0000
,
0100
0000
0010
0000
0010
0000
1000
0100
,
1000
0100
0010
0000
,
0001
0100
0010
1000
,
1000
0010
0100
0001
,
0001
0010
0100
1000
,
1000
0100
0010
0001
,
1000
0000
0001
0000
0010
0100
1000
0000
,
0100
1000
0100
1000
,
0001
0000
1000
0000
0100
0010
0001
0000
,
0001
1000
1001
0000
,
1000
0000
0010
0000
0001
0010
0100
0000
,
0010
1000
0010
1000
,
0001
0000
0100
0000
1000
0100
0010
0000
,
0001
1000
1001
0000
,
0001
0000
0100
0000
0000
1000
0100
1000
,
0100
0100
0010
0010
,
0001
0000
0010
0000
0000
1000
0010
1000
,
0010
0010
0100
0000
,
1000
0000
0100
0000
0000
0001
0100
0010
,
0100
0100
0010
0010
,
1000
0000
0010
0000
0000
0001
0010
0100
,
0010
0100
0110
0000
,
1000
0100
0010
0010
,
0100
0000
0011
0000
,
0001
0100
0010
0010
,
0100
0000
1010
0000
,
0001
0100
1000
0100
,
0001
0000
0100
0000
1000
0001
1000
0000
,
0002
0013
2000
3010
,
0001
0100
0001
0000
0001
0100
0001
0000
,
1000
0010
0001
0010
,
1000
0000
0010
0000
0001
1000
0001
0000
,
2000
3100
0002
0103
,
1000
0010
1000
0000
1001
0000
0000
0000
,
1000
0000
0100
0000
0000
0001
0100
0001
,
0100
0100
0010
0010
,
1000
0000
0010
0000
0000
0001
0010
0001
,
0010
0010
0100
0000
,
0001
0000
0100
0000
0000
1000
0100
0010
,
0100
0100
0010
0010
,
0001
0000
0010
0000
0000
1000
0010
0100
,
0010
0100
0110
0000
,
1000
0100
0010
0010
,
0100
0000
0011
0000
,
1000
0010
0001
0010
,
1000
0000
0010
0000
0001
1000
0001
0000
,
2000
3100
0002
0103
,
1000
0010
1000
0000
1000
0010
1000
0000
,
0001
0100
1000
0100
,
0001
0000
0100
0000
1000
0001
1000
0000
,
0002
0013
2000
3010
,
0001
0100
0001
0000
1001
0000
1000
0000
,
1001
0000
0000
0000
;
