#TITLE:Mickey Mouse Club March;
#SUBTITLE:;
#ARTIST:Disney Grooves;
#TITLETRANSLIT:;
#SUBTITLETRANSLIT:;
#ARTISTTRANSLIT:;
#CREDIT:;
#BANNER:;
#BACKGROUND:;
#LYRICSPATH:;
#CDTITLE:./CDTITLES/DanceDanceRevolution Disney Grooves.png;
#MUSIC:Mickey Mouse Club March.mp3;
#OFFSET:-0.160;
#SAMPLESTART:62.900;
#SAMPLELENGTH:15.000;
#SELECTABLE:YES;
#BPMS:0.000=130.000;
#STOPS:;
#BGCHANGES:;

//---------------dance-single - ----------------
#NOTES:
     dance-single:
     :
     Beginner:
     2:
     0.146,0.155,0.062,0.000,0.000:
0000
0000
0000
0000
,
0000
0000
0000
0000
,
0010
0000
0000
0000
,
0100
0000
0000
0000
,
0010
0000
0000
0000
,
0100
0000
0000
0000
,
0001
0001
0000
0000
,
0001
0001
0000
0000
,
0010
0000
0010
0000
,
0100
0000
0100
0000
,
0001
0001
0000
0000
,
1000
0000
1000
0000
,
1000
0000
0001
0001
,
0000
0100
0100
0000
,
1000
0000
0000
1001
,
0000
0100
0000
0001
,
0000
0010
0000
0010
,
0000
0100
0000
0000
,
0001
0000
0000
1000
,
0000
0000
0001
0001
,
0000
1000
1000
0000
,
0100
0000
0000
1001
,
0000
0100
0000
0100
,
0000
1000
0000
0001
,
0000
0000
1000
1000
,
0000
0001
0001
0000
,
0100
0000
0001
0000
,
0100
0000
0001
0000
,
0000
0001
0000
1001
,
0000
0100
0000
0001
,
0000
0001
0000
0001
,
0000
1000
1000
0000
,
0000
0001
0000
1000
,
0000
0010
0010
0000
,
1000
1000
0000
0000
,
0001
0000
0001
0000
,
0001
0000
1000
1000
,
0000
0010
0010
0000
,
0001
0000
0000
1001
,
0000
0010
0000
1000
,
0000
0100
0000
0100
,
0000
0010
0000
0000
,
1000
0000
0000
0001
,
0000
0000
1000
1000
,
0000
0001
0001
0000
,
0100
0010
0000
1001
,
0000
0010
0000
0010
,
0000
0001
0000
1000
,
0000
0000
0001
0001
,
0000
0100
0000
1001
;

//---------------dance-single - ----------------
#NOTES:
     dance-single:
     :
     Easy:
     4:
     0.189,0.180,0.072,0.000,0.000:
0000
0000
0000
0000
,
0000
0000
0000
0000
,
0100
0000
0000
0100
,
0010
0000
0000
0010
,
0100
0000
0000
0100
,
0010
0000
0000
0010
,
1000
1000
0000
0000
,
1000
1000
0000
0000
,
0100
0000
0100
0000
,
0010
0000
0010
0000
,
1000
1000
0000
0000
,
0001
0001
0001
0000
,
0001
0000
1000
1000
,
0010
0010
0010
0000
,
0001
0000
0000
1001
,
0000
0010
1000
1000
,
0000
0100
0100
0100
,
0000
0010
0000
0000
,
0001
0000
0001
0001
,
0000
1000
1000
1000
,
0000
0001
0001
0000
,
1000
0001
0000
0110
,
0000
0010
0000
0010
,
1000
0001
1000
0001
,
0010
0000
0001
0001
,
0000
0100
0100
0000
,
0010
0000
1000
1000
,
0010
0000
1000
1000
,
0000
1001
0000
0110
,
0000
0010
1000
1000
,
0000
1000
0000
1000
,
0001
1000
0001
0000
,
0000
1000
0000
0001
,
1000
0001
0001
0000
,
0001
0001
0000
0000
,
1000
1000
1000
0000
,
1000
0000
0001
0001
,
0100
0100
0100
0000
,
1000
0000
0000
1001
,
0000
0100
0001
0001
,
0000
0010
0010
0010
,
0000
0100
0000
0000
,
1000
0000
1000
1000
,
0000
0001
0001
0001
,
0000
1000
1000
0000
,
0001
1000
0000
0110
,
0000
0100
0000
0100
,
0001
1000
0001
1000
,
0100
0000
1000
1000
,
0000
0010
0000
1001
;

//---------------dance-single - ----------------
#NOTES:
     dance-single:
     :
     Medium:
     7:
     0.252,0.335,0.176,0.031,0.000:
0000
0000
0000
0000
,
0000
0000
0000
0000
,
0101
0010
1000
0010
,
0100
0000
0001
0001
,
0101
0010
1000
0010
,
0100
0000
0001
0001
,
0010
0100
1001
1001
,
0010
0100
1001
1001
,
0010
0100
0001
0100
,
0010
0000
1000
1000
,
0000
0010
1000
0100
,
0010
0000
0100
1000
,
0001
0001
0000
0100
,
0010
1000
0001
0110
,
0000
0010
1000
0001
,
0010
0100
0000
1000
,
0001
0000
0001
0100
,
0001
1000
0010
0110
,
0000
1000
1000
0010
,
0010
0100
0100
0001
,
0010
0100
1000
0001
,
0000
1100
0000
0011
,
0000
0010
1000
1000
,
0010
0000
0100
0100
,
0001
0001
0010
0100
,
0010
1000
0110
0000
,
0002
0000
0000
1003
,
0002
0000
0000
1003
,
0000
0000
0000
0000
,
2000
0000
0000
3001
,
0100
0100
0000
0000
,
0010
0000
0001
1000
,
0010
0010
0000
0000
,
0100
0000
1000
0001
,
0000
0100
0001
0010
,
0100
0000
0010
0001
,
1000
1000
0000
0010
,
0100
0001
1000
0110
,
0000
0100
0001
1000
,
0100
0010
0000
0001
,
1000
0000
1000
0010
,
1000
0001
0100
0110
,
0000
0001
0001
0100
,
0100
0010
0010
1000
,
0100
0010
0001
1000
,
0000
0011
0000
1100
,
0000
0100
0001
0001
,
0100
0000
0010
0010
,
1000
1000
0100
0010
,
0100
0001
0110
1001
;

//---------------dance-single - ----------------
#NOTES:
     dance-single:
     :
     Hard:
     9:
     0.352,0.335,0.145,0.021,0.000:
0000
0000
0000
0000
,
0000
0000
0000
0000
,
1000
0000
0000
0100
0000
0010
0000
0001
,
0001
0000
0000
1000
0000
0001
0000
0100
,
0100
0000
0000
0010
0000
0010
0000
1000
,
0100
0000
0000
0010
0000
0001
0000
0010
,
0001
0000
0000
0100
0000
0100
0000
0100
,
0001
0000
0000
0100
0000
0100
0000
0100
,
0010
0000
0000
1000
0000
0001
0000
1000
,
0001
0000
0000
0010
0010
0010
0001
0000
,
0100
0000
0000
0001
0010
0000
0000
0001
,
0100
0010
1000
0000
0000
0000
1100
0000
,
0001
0100
0010
1000
,
0010
0000
0010
0000
0100
0001
0100
0000
,
0010
0000
0000
1000
0100
0000
0000
1000
,
0010
0100
0001
0000
0000
0000
0101
0000
,
1000
0000
0010
0000
0100
0000
0001
0100
,
0001
0100
1010
0000
,
0001
1000
0100
1000
0001
0000
0100
0000
,
0100
0010
1000
0010
0100
0000
0100
0000
,
0001
1000
0010
0100
0001
0000
0001
0000
,
0100
1010
0100
0011
,
0100
0000
0001
0000
0000
0100
0010
0000
,
0001
0100
0010
0000
0000
1000
0100
0000
,
0010
0000
0001
0100
0010
0100
0001
0000
,
1000
0001
0100
0000
0010
0000
0000
0000
,
0100
0000
0001
1000
0001
1000
0001
0000
,
0100
0000
0001
1000
0001
1000
0001
0000
,
1000
0000
0100
0000
0010
0100
0010
0000
,
0001
0010
0100
0000
0010
0000
0101
0000
,
0001
0200
0001
0301
,
0100
0001
0010
0000
1000
0000
0011
0000
,
1000
0020
1000
1030
,
0010
1000
0100
0000
0001
0000
1100
0000
,
0010
0000
0000
1000
0100
0000
0000
1000
,
0010
0100
0001
0000
0000
0000
0011
0000
,
1000
0010
0100
0001
,
0100
0000
0100
0000
0010
1000
0010
0000
,
0100
0000
0000
0001
0010
0000
0000
0001
,
0100
0010
1000
0000
0000
0000
1010
0000
,
0001
0000
0100
0000
0010
0000
1000
0010
,
1000
0010
0101
0000
,
1000
0001
0010
0001
1000
0000
0010
0000
,
0010
0100
0001
0100
0010
0000
0010
0000
,
1000
0001
0100
0010
1000
0000
1000
0000
,
0010
0101
0010
1100
,
0010
0000
1000
0000
0000
0010
0100
0000
,
1000
0010
0100
0000
0000
0001
0010
0000
,
0000
0000
1000
0010
0100
0010
1000
0000
,
0010
1000
0001
0100
0010
0000
1001
0000
;
