#TITLE:Little Red Rappinghood;
#SUBTITLE:;
#ARTIST:Disney Grooves;
#TITLETRANSLIT:;
#SUBTITLETRANSLIT:;
#ARTISTTRANSLIT:;
#CREDIT:;
#BANNER:;
#BACKGROUND:;
#LYRICSPATH:;
#CDTITLE:./CDTITLES/DanceDanceRevolution Disney Grooves.png;
#MUSIC:Little Red Rappinghood.mp3;
#OFFSET:-0.065;
#SAMPLESTART:20.400;
#SAMPLELENGTH:15.000;
#SELECTABLE:YES;
#BPMS:0.000=116.000;
#STOPS:;
#BGCHANGES:;

//---------------dance-single - ----------------
#NOTES:
     dance-single:
     :
     Beginner:
     1:
     0.094,0.136,0.069,0.000,0.000:
0000
0000
0000
0000
,
0000
0000
0000
0000
,
1000
0000
0000
0000
,
0001
0000
0000
0000
,
0010
0000
0000
0000
,
0001
0000
0001
0000
,
0001
0000
0000
0000
,
1000
0000
0000
0000
,
0010
0000
0000
0000
,
1000
0000
1000
0000
,
0010
0000
0001
0000
,
0001
0000
0000
0000
,
0010
0000
1000
0000
,
1000
0000
0000
0000
,
0000
0000
1001
0000
,
0000
0000
1001
0000
,
0001
0000
0000
0000
,
1000
0000
0000
0000
,
0100
0000
0000
0000
,
1000
0000
1000
0000
,
1000
0000
0000
0000
,
0001
0000
0000
0000
,
0100
0000
0000
0000
,
0001
0000
0001
0000
,
0100
0000
1000
0000
,
1000
0000
0000
0000
,
0100
0000
0001
0000
,
0001
0000
0000
0000
,
0000
0000
1001
0000
,
0000
0000
1001
0000
,
0000
0000
0000
0000
,
0010
0010
0010
0000
,
0000
0000
0000
0000
,
1000
1000
1000
0000
,
0000
0000
0000
0000
,
0100
0100
0100
0000
,
0000
0000
0000
0000
,
0001
0001
0001
0000
,
0010
0000
0001
0000
,
0001
0000
0000
0000
,
0010
0000
1000
0000
,
1000
0000
0000
0000
,
0100
0000
0001
0000
,
0001
0000
0000
0000
,
0000
0000
1001
0000
,
0000
0000
1001
0000
,
1001
0000
0000
0000
;

//---------------dance-single - ----------------
#NOTES:
     dance-single:
     :
     Easy:
     3:
     0.141,0.181,0.069,0.069,0.000:
0000
0000
0000
0000
,
0000
0000
0000
0000
,
0001
0000
1000
0000
,
0010
0000
1000
0000
,
0100
0000
1000
0000
,
1000
0000
1000
0000
,
1000
0000
0001
0000
,
0010
0000
0001
0000
,
0100
0000
0001
0000
,
0001
0000
0001
0000
,
0001
0000
0100
0000
,
2000
0000
3000
0000
,
1000
0000
0100
0000
,
0002
0000
0003
0000
,
1000
0000
1001
0000
,
0001
0000
1001
0000
,
1000
0000
0001
0000
,
0100
0000
0001
0000
,
0010
0000
0001
0000
,
0001
0000
0001
0000
,
0001
0000
1000
0000
,
0100
0000
1000
0000
,
0010
0000
1000
0000
,
1000
0000
1000
0000
,
1000
0000
0010
0000
,
0002
0000
0003
0000
,
0001
0000
0010
0000
,
2000
0000
3000
0000
,
0001
0000
1001
0000
,
1000
0000
1001
0000
,
0100
0000
0100
0000
,
1000
0001
0100
0000
,
0001
0000
0001
0000
,
0100
0010
0100
0000
,
0010
0000
0010
0000
,
0001
1000
0100
0000
,
1000
0000
1000
0000
,
0010
0100
0010
0000
,
1000
0000
0010
0000
,
0002
0000
0003
0000
,
0001
0000
0100
0000
,
2000
0000
3000
0000
,
1000
0000
0100
0000
,
0002
0000
0003
0000
,
1000
0000
1001
0000
,
0001
0000
1001
0000
,
1001
0000
0000
0000
;

//---------------dance-single - ----------------
#NOTES:
     dance-single:
     :
     Medium:
     5:
     0.183,0.226,0.010,0.138,0.000:
0000
0000
0000
0000
,
0000
0000
0000
0000
,
1000
0001
1000
0000
,
0010
1000
0010
0000
,
0100
0000
0001
0000
,
1000
0000
0100
0000
,
0001
1000
0001
0000
,
0100
0001
0100
0000
,
0010
0000
1000
0000
,
0001
0000
0010
0000
,
0200
0300
0002
0003
,
1000
0000
0001
0000
,
0200
0300
2000
3000
,
0001
0000
1000
0000
,
1000
1000
0000
1000
1000
0000
0000
0000
,
0001
0001
0000
0001
0001
0000
0000
0000
,
0001
1000
0001
0000
,
0100
0001
0100
0000
,
0010
0000
1000
0000
,
0001
0000
0010
0000
,
1000
0001
1000
0000
,
0010
1000
0010
0000
,
0100
0000
0001
0000
,
1000
0000
0100
0000
,
0020
0030
2000
3000
,
0001
0000
1000
0000
,
0020
0030
0002
0003
,
1000
0000
0001
0000
,
0001
0001
0000
0001
0001
0000
0000
0000
,
1000
1000
0000
1000
1000
0000
0000
0000
,
0010
0000
0001
0000
,
0100
1000
0100
0010
,
0010
0000
1000
0000
,
0100
0001
0001
0000
,
0010
0000
1000
0000
,
0100
0001
0100
0010
,
0010
0000
0001
0000
,
0100
1000
1000
0000
,
0200
0300
2000
3000
,
0001
0000
1000
0000
,
0200
0300
0002
0003
,
1000
0000
0001
0000
,
0200
0300
0002
0003
,
1000
0000
0001
0000
,
0001
0001
0000
0001
0001
0000
0000
0000
,
1000
1000
0000
1000
1000
0000
0000
0000
,
1001
0000
0000
0000
;

//---------------dance-single - ----------------
#NOTES:
     dance-single:
     :
     Hard:
     7:
     0.293,0.294,0.039,0.177,0.000:
0000
0000
0000
0000
,
0000
0000
0000
0000
,
1000
0100
0010
0100
,
0001
0000
0100
0000
1000
1000
0001
0000
,
1000
0000
0010
0000
0001
0000
0100
0100
,
0100
0010
1000
0100
,
0001
0100
0010
0100
,
1000
0000
0100
0000
0001
0001
1000
0000
,
0001
0000
0010
0000
1000
0000
0100
0100
,
0100
0010
0001
0100
,
2000
3100
0002
0103
,
1000
0010
0001
0100
,
0002
0103
2000
3100
,
0001
0100
1000
0010
,
1000
1000
0000
0001
0001
0000
1001
0000
,
0001
0001
0000
1000
1000
0000
0000
0000
,
0001
0010
0100
0010
,
1000
0000
0010
0000
0001
0001
1000
0000
,
0001
0000
0100
0000
1000
0000
0010
0010
,
0010
0100
0001
0010
,
1000
0010
0100
0010
,
0001
0000
0010
0000
1000
1000
0001
0000
,
1000
0000
0100
0000
0001
0000
0010
0010
,
0010
0100
0001
0010
,
0002
0013
2000
3010
,
0001
0100
1000
0010
,
2000
3010
0002
0013
,
1000
0010
0001
0100
,
0001
0001
0000
1000
1000
0000
1001
0000
,
1000
1000
0000
0001
0001
0000
0000
0000
,
1000
0001
1000
0100
,
0010
0001
0100
1000
,
1000
0100
0010
0100
,
0001
0010
0100
0000
,
0001
1000
0001
0100
,
0010
1000
0100
0001
,
0001
0100
0010
0100
,
1000
0010
0100
0000
,
0002
0013
2000
3010
,
0002
0013
0200
1300
,
2000
3010
0002
0013
,
2000
3010
0200
0301
,
0002
0103
2000
3100
,
0001
0100
1000
0010
,
0001
0001
0000
1000
1000
0000
1001
0000
,
1000
1000
0000
0001
0001
0000
0000
0000
,
1001
0000
0000
0000
;
