#TITLE:Jungle Beat;
#SUBTITLE:;
#ARTIST:Disney Grooves;
#TITLETRANSLIT:;
#SUBTITLETRANSLIT:;
#ARTISTTRANSLIT:;
#CREDIT:;
#BANNER:;
#BACKGROUND:;
#LYRICSPATH:;
#CDTITLE:./CDTITLES/DanceDanceRevolution Disney Grooves.png;
#MUSIC:Jungle Beat.mp3;
#OFFSET:-0.029;
#SAMPLESTART:14.780;
#SAMPLELENGTH:15.000;
#SELECTABLE:YES;
#BPMS:0.000=110.000;
#STOPS:;
#BGCHANGES:;

//---------------dance-single - ----------------
#NOTES:
     dance-single:
     :
     Beginner:
     2:
     0.088,0.111,0.065,0.000,0.000:
0000
0000
0000
0000
,
0000
0000
0000
0000
,
0000
0000
0000
0000
,
0010
0000
0000
0000
,
0010
0000
0010
0000
,
0100
0000
0000
0000
,
0100
0000
0100
0000
,
0010
0000
0000
0000
,
0000
0010
0000
0000
,
0010
0000
0000
0000
,
0000
0010
0000
0000
,
0010
0000
0000
0000
,
0010
0000
0100
0000
,
0100
0000
0010
0000
,
0010
0000
0010
0000
,
0100
0000
0100
0000
,
0010
0000
0000
0000
,
0010
0000
0000
0000
,
0100
0000
0000
0000
,
0100
0000
0000
0000
,
0010
0000
0000
0000
,
0100
0000
0000
0000
,
0100
0000
0100
0000
,
0100
0000
0000
0000
,
0100
0000
0100
0000
,
0100
0000
0000
0000
,
0100
0000
0100
0000
,
0100
0000
0000
0000
,
0000
0000
0000
0110
,
0000
0000
0000
0110
,
0000
0000
0000
0110
,
0000
0000
0000
0110
,
0000
0000
0000
0110
,
0000
0000
0000
0000
,
0010
0000
0000
0000
,
0100
0000
0000
0000
,
0010
0000
0010
0000
,
0100
0000
0100
0000
,
0010
0000
0000
0000
,
0100
0000
0100
0000
,
0000
0100
0100
0000
,
0110
0000
0000
0000
;

//---------------dance-single - ----------------
#NOTES:
     dance-single:
     :
     Easy:
     3:
     0.156,0.200,0.076,0.206,0.000:
0000
0000
0000
0000
,
0000
0000
0000
0000
,
0000
0000
0000
0000
,
0010
0000
0010
0000
,
0010
0010
0010
0010
,
0100
0000
0100
0000
,
0100
0100
0100
0100
,
0020
0000
0000
0030
,
0000
0010
0000
0100
,
0020
0000
0000
0030
,
0000
0010
0000
0100
,
0020
0000
0000
0030
,
0002
0003
0200
0300
,
0002
0003
0100
0001
,
2000
3000
0020
0030
,
0200
0300
0000
0000
,
0001
0000
0000
0000
,
1000
0000
0100
0000
,
1000
0000
0000
0000
,
0001
0000
0100
0000
,
0001
0000
0000
0000
,
1000
0000
0100
0000
,
0100
0010
0100
1000
,
0020
0000
0000
0030
,
0010
0100
0010
0001
,
0020
0000
0000
0030
,
0100
0010
0100
1000
,
0020
0000
0000
0030
,
0001
0000
0000
1001
,
1000
0000
0000
0110
,
0001
0000
0000
1001
,
1000
0000
0000
0110
,
0001
0000
0000
1001
,
1000
0000
0000
0010
,
0002
0000
0000
0003
,
2000
0000
0000
3000
,
2000
0000
0000
3000
,
0002
0000
0000
0003
,
1000
0020
0000
0030
,
0100
0000
0100
2002
,
3003
0100
0000
0100
,
1001
0000
0000
0000
;

//---------------dance-single - ----------------
#NOTES:
     dance-single:
     :
     Medium:
     6:
     0.197,0.222,0.076,0.217,0.000:
0000
0000
0000
0000
,
0000
0000
0000
0000
,
0000
0000
0000
0000
,
0010
0010
0010
0010
,
0010
0000
0010
0000
0010
0010
0010
0000
,
0100
0100
0100
0100
,
0100
0000
0100
0000
0100
0100
0100
0000
,
0020
0000
0000
0030
,
0001
1000
0001
1000
,
0020
0000
0000
0030
,
1000
0001
1000
0001
,
0020
0000
0000
0030
,
0002
0000
0000
0003
0200
0000
0000
0300
,
0020
0000
0000
0030
0001
0000
1000
0000
,
0002
0000
0000
0003
0200
0000
0000
0300
,
0020
0000
0000
0030
0000
0000
0000
0000
,
0001
0000
0100
0000
,
0100
0000
0001
0000
,
1000
0000
0010
0000
,
0010
0000
1000
0000
,
0001
0000
0010
0000
,
0010
0000
0001
0000
,
0001
0010
0100
1000
,
0020
0000
0000
0030
,
1000
0100
0010
0001
,
0020
0000
0000
0030
,
1000
0010
0100
0001
,
0020
0000
0000
0030
,
0001
0000
0010
1001
,
1000
0000
0100
0110
,
0001
0000
0010
1001
,
1000
0000
0100
0110
,
0001
0000
0010
1001
,
1000
0000
0100
0010
,
0002
0010
0000
0013
,
0200
1000
0000
1300
,
2000
0000
3002
0000
,
0023
0000
0030
0000
,
1000
0020
0000
0030
,
1000
0000
0010
2002
,
3003
1000
0100
0010
,
1001
0000
0000
0000
;

//---------------dance-single - ----------------
#NOTES:
     dance-single:
     :
     Hard:
     7:
     0.297,0.378,0.087,0.217,0.000:
0000
0000
0000
0000
,
0000
0000
0000
0000
,
0000
0000
0000
0000
,
0100
0100
0100
0100
,
0100
0100
0100
0100
0100
0100
0100
0100
,
0010
0010
0010
0010
,
0010
0010
0010
0010
0010
0010
0010
0010
,
0200
0000
0000
0300
,
1000
0001
0010
0100
1000
0100
0010
0001
,
0200
0000
0000
0300
,
0001
1000
0100
0010
0001
0010
0100
1000
,
0200
0000
0000
0300
,
2000
0100
0000
3100
0020
0001
0000
0031
,
0200
0010
0000
0310
1000
0100
0010
0001
,
2000
0100
0000
3100
0020
0001
0000
0031
,
0200
0010
0000
0310
0000
0000
0000
0000
,
1000
0001
0010
1000
,
0010
0001
1000
0000
,
0001
1000
0100
0001
,
0100
1000
0001
0000
,
1000
0001
0100
1000
,
0100
0001
1000
0000
,
1000
0010
0100
0100
0010
1000
0001
0001
,
0200
0000
0000
0300
,
0001
0100
0010
0010
0100
0001
1000
1000
,
0200
0000
0000
0300
,
0001
0010
0100
0100
0010
0100
1000
1000
,
0200
0000
0000
0300
,
1000
0000
0000
0010
0100
0000
1001
0000
,
0001
0000
0000
0100
0010
0000
0110
0000
,
1000
0000
0000
0010
0100
0000
1001
0000
,
0001
0000
0000
0100
0010
0000
0110
0000
,
1000
0000
0000
0010
0100
0000
1001
0000
,
0001
0000
0000
0100
0010
0000
0100
0010
,
2000
0100
3100
0010
,
0020
0001
0031
0010
,
0002
0010
2003
0100
,
3200
1000
1300
0100
,
0001
0200
0000
0300
,
0001
0010
0100
2002
,
3003
1001
0010
0100
,
1001
0000
0000
0000
;
