#TITLE:I Wan'na Be Like You;
#SUBTITLE:;
#ARTIST:Disney Grooves;
#TITLETRANSLIT:;
#SUBTITLETRANSLIT:;
#ARTISTTRANSLIT:;
#CREDIT:;
#BANNER:;
#BACKGROUND:;
#LYRICSPATH:;
#CDTITLE:./CDTITLES/DanceDanceRevolution Disney Grooves.png;
#MUSIC:I Wan'na Be Like You.mp3;
#OFFSET:-0.562;
#SAMPLESTART:60.000;
#SAMPLELENGTH:15.000;
#SELECTABLE:YES;
#DISPLAYBPM:93.000;
#BPMS:0.000=93.500;
#STOPS:;
#BGCHANGES:;

//---------------dance-single - ----------------
#NOTES:
     dance-single:
     :
     Beginner:
     1:
     0.066,0.094,0.010,0.000,0.000:
0000
0000
0000
0000
,
0000
0000
0000
0000
,
0100
0000
0000
0000
,
0000
0000
0000
0000
,
0001
0000
0000
0000
,
0000
0000
0000
0000
,
1000
0000
0000
0000
,
0000
0000
0000
0000
,
1000
0000
0000
0000
,
0000
0000
0000
0000
,
0001
0000
0000
0000
,
0000
0000
0000
0000
,
1000
0000
1000
0000
,
0100
0000
0100
0000
,
0001
0000
0001
0000
,
0010
0000
0010
0000
,
1000
0000
1000
0000
,
0010
0000
0010
0000
,
0001
0000
0001
0000
,
0100
0000
0100
0000
,
0000
0000
0000
0000
,
0000
0000
0000
0000
,
0001
0000
0000
0000
,
0001
0000
0000
0000
,
1000
0000
0000
0000
,
1000
0000
0000
0000
,
1000
0000
0000
0000
,
1000
0000
0000
0000
,
0001
0000
0000
0000
,
0001
0000
0000
0000
,
1000
1000
0000
0000
,
0100
0100
0000
0000
,
0001
0001
0000
0000
,
0010
0010
0000
0000
,
1000
1000
0000
0000
,
0010
0010
0000
0000
,
0001
0001
0000
0000
,
1000
0000
1001
0000
;

//---------------dance-single - ----------------
#NOTES:
     dance-single:
     :
     Easy:
     3:
     0.115,0.170,0.060,0.000,0.000:
0000
0000
0000
0000
,
0000
0000
0000
0000
,
0100
0000
0000
0000
,
0000
0000
0000
0000
,
1000
0000
0000
0000
,
0001
0000
0000
0000
,
1000
0000
0000
0000
,
0100
0000
0010
0000
,
1000
0000
0000
0000
,
0001
0000
0000
0000
,
1000
0000
0000
0000
,
0010
0000
0100
0000
,
1000
0000
1000
0100
,
0001
0000
0001
0010
,
0100
0000
0100
0010
,
1001
0000
0000
0000
,
0001
0000
0001
0010
,
1000
0000
1000
0100
,
0010
0000
0010
0100
,
1001
0000
0000
0000
,
0100
0000
0000
0000
,
0000
0000
0000
0000
,
1000
0000
0000
0000
,
0001
0000
0001
0000
,
1000
0000
0000
0000
,
0100
0000
1001
0000
,
0001
0000
0000
0000
,
1000
0000
1000
0000
,
0001
0000
0000
0000
,
0010
0000
1001
0000
,
1000
0001
1000
0100
,
0001
1000
0001
0100
,
0010
1000
0100
0001
,
0100
0010
1001
0000
,
0001
1000
0001
0010
,
1000
0001
1000
0010
,
0100
0001
0010
1000
,
0010
0100
1001
0000
;

//---------------dance-single - ----------------
#NOTES:
     dance-single:
     :
     Medium:
     5:
     0.162,0.207,0.050,0.000,0.000:
0000
0000
0000
0000
,
0000
0000
0000
0000
,
0100
0000
0000
0000
,
0010
0000
0000
0000
,
1000
0000
0100
0000
,
0001
0000
0100
0000
,
1000
0000
0010
0000
,
0001
0000
0010
0000
,
1000
0000
0100
0100
,
0001
0000
0100
0100
,
1000
0000
0010
0010
,
0001
0000
0010
0010
,
1000
1000
0000
0000
0000
1000
1000
0000
,
0001
0001
0000
0000
0000
0001
0001
0000
,
0100
0100
1000
1000
,
0010
0100
0001
0001
,
0001
0001
0000
0000
0000
0001
0001
0000
,
1000
1000
0000
0000
0000
1000
1000
0000
,
0010
0010
0001
0001
,
0100
0010
1000
1000
,
0100
0000
0000
0000
,
0000
0000
0000
0000
,
1000
0000
0010
0000
,
0100
0000
0100
1001
,
0010
0000
0100
0000
,
0100
0000
1001
0000
,
0001
0000
0100
0000
,
0010
0000
0010
1001
,
0100
0000
0010
0000
,
0010
0000
1001
0000
,
1000
0100
0000
0100
1000
0000
1000
0000
,
0001
0010
0000
0010
0001
0000
0001
0000
,
1000
0001
1000
0001
,
0100
0010
1000
1000
,
0001
0010
0000
0010
0001
0000
0001
0000
,
1000
0100
0000
0100
1000
0000
1000
0000
,
0001
1000
0001
1000
,
0010
0100
1001
0000
;

//---------------dance-single - ----------------
#NOTES:
     dance-single:
     :
     Hard:
     7:
     0.218,0.226,0.090,0.000,0.000:
0000
0000
0000
0000
,
0000
0000
0000
0000
,
0100
0000
0100
0000
,
0010
0000
0010
0000
,
1000
0000
0100
0001
,
0100
0100
1000
0110
,
1000
0000
0010
0001
,
0010
0010
1000
0110
,
0001
0000
0100
1000
,
0100
0100
0001
0110
,
0001
0000
0010
1000
,
0010
0010
0001
0110
,
1000
1000
0000
1000
0000
1000
0000
0100
,
0001
0001
0000
0001
0000
0001
0000
0010
,
1000
0001
0000
0100
0001
1000
0000
0010
,
1000
0000
0010
0000
1000
0001
1000
0000
,
0001
0001
0000
0001
0000
0001
0000
0010
,
1000
1000
0000
1000
0000
1000
0000
0100
,
0001
1000
0000
0010
1000
0001
0000
0100
,
0001
0000
0100
0000
0001
1000
0001
0000
,
0100
0000
0000
0000
,
0000
0000
0000
0000
,
1000
0000
0010
0010
,
0100
0100
0001
1100
,
1000
0000
0100
0100
,
0010
0010
0001
1010
,
0001
0000
0010
0010
,
0100
0100
1000
0011
,
0001
0000
0100
0100
,
0010
0010
1000
0101
,
1000
1000
0000
0100
0000
1000
0000
0100
,
0001
0001
0000
0010
0000
0001
0000
0010
,
1000
0100
0000
0001
1000
0100
0000
0001
,
1000
0000
0010
0000
1000
0001
1000
0000
,
0001
0001
0000
0010
0000
0001
0000
0010
,
1000
1000
0000
0100
0000
1000
0000
0100
,
0001
0010
0000
1000
0001
0010
0000
1000
,
0001
0100
1001
0000
;
