#TITLE:I CAN'T TAKE MY EYES OFF OF YOU;
#ARTIST:HIGH SCHOOL MUSICAL;
#FILE:I CAN'T TAKE MY EYES OFF OF YOU.mp3;
#BPM:115.000;
#GAP:42;
#SAMPLESTART:25.040;
#SAMPLELENGTH:15.000;
#CDTITLE:./CDTITLES/Dance Dance Revolution Disney Channel Edition.png;
#SINGLE:BEGINNER:1:
00000000
00000000
80000000
80000000
60000000
60000000
40000000
40000000
20000000
20000000
80000000
80000000
60000060
60000000
00400040
00400040
40000040
40000000
00600060
00600060
80808000
00200020
20202000
00800080
40404000
00600060
60606000
00400040
80808000
00200020
20202000
00800080
60606000
00400040
40404000
00600060
20202000
00800080
80808000
00200020
60606000
00400040
40404000
60606000
B0000000
;
#SINGLE:BASIC:3:
00000000
00000000
40006000
40006000
80600060
40800080
40200020
40600060
60200020
80400040
80200020
60400040
B00000B0
A0008020
60004000
60004000
B00000B0
A0008020
40006000
40006000
80606060
40200020
40606060
80200020
40600040
60400060
80802020
40606040
80404040
60200020
60404040
80200020
60400060
40600040
80802020
60404060
20606060
40800080
40606060
20800080
40600040
60400060
20208080
40604060
B0000000
;
#SINGLE:ANOTHER:5:
00000000
00000000
40006000
80002000
40208060
80208060
60208040
20802040
80402060
20806040
20408060
80206040
B!B000B080
2!20206040
80802020
604060B0
A!A000A060
40208020
40408080
20206060
40204080
40106030
60806020
80706090
80402060
204080A0
60B040B0
80806040
60206080
60304010
40804020
80904070
80602040
206080A0
40B060B0
80804060
60806020
60904070
40204080
20304010
20608040
806020A0
40B060B0
20204060
B!B00000B0
;
#SINGLE:MANIAC:7:
00000000
00000000
40604820
60406820
42406020
80402060
24208060
40802060
48268020
40806080
46408020
60208040
B!B000B020
A!A0A08428
(6006006000004000)
60204080
B!B000B020
A0682428
6!6040B0B0
4!4060B0B2
8!80924268!8
00A04068
24682!20A6
4!406000B2
8!80726248!8
00A02648
08260648
(0800800020002000)
8!80726248!8
00A06048
26482!20A4
6!604000B2
8!80924268!8
00A02468
08240468
(0800800020002000)
2!20186842!2
00A06042
86428!80A4
6!604000B8
2!20384862!2
00A08462
02840462
0284604!40
6!600000B0
;
#DOUBLE:BASIC:3:
00000000
00000000
40006000
40006000
80600060
40800080
40200020
80000060
00000000
00000000
00000000
00600000
60000090
A0008020
60004000
20006000
60000060
00000000
00000000
00000000
00000000
00000000
00000060
80200020
60400060
40600040
80802020
60808000
60000000
00000000
00000000
00000060
00000000
60200060
20208080
60404060
20606060
40800060
00606060
00000000
60000060
00600000
20208080
40604060
B0000000
:
00000000
00000000
00000000
00000000
00000000
00000000
00000000
00400000
40800080
20600060
20800080
40000040
40000000
00000000
00000000
00000000
40000040
10002080
60004000
60004000
80404040
60200020
60402000
00000000
00000000
00000000
00000000
00000040
00808080
40200020
40606060
80200000
40200040
00000000
00000000
00000000
00000000
00000000
40000000
20800040
00400000
40000040
00000000
00000000
00000000
;
#DOUBLE:ANOTHER:4:
00000000
00000000
40006000
80002000
40208060
80208060
60208040
20600000
00000000
00000000
00000000
00000000
00000000
00000060
80802020
604060B0
A!A000A060
40206000
00000000
00000000
00000000
00000000
00000000
00000000
00000000
00000000
00606030
80806040
60206080
60304010
40804020
80904070
80402060
204080A0
60600060
80800060
00000060
00006060
60002060
80900060
00000000
00000000
00000000
00000000
00000000
:
00000000
00000000
00000000
00000000
00000000
00000000
00000000
00004020
80402060
20806040
20408060
80206040
B!B000B080
2!20204000
00000000
00000000
00000000
00000040
80806060
40402020
40204080
40106030
60806020
80706090
80602040
206080A0
40400000
00000000
00000000
00000000
00000000
00000000
00000000
00000000
00404040
00004000
40804000
40100040
00400000
00004040
20408060
804020A0
60B040B0
20206040
B!B00000B0
;
#DOUBLE:MANIAC:7:
00000000
00000000
00000000
60006280
62604020
80602040
26208060
00000000
00000000
00000000
00000000
00006000
6!60006020
A!A0A08428
(6006006000004000)
20600060
6!60006000
00000000
6!60006060
00606060
8!80924268!8
00A04068
24682!20A6
4!406000B2
8!80726248!8
00A02648
08260648
(0800800060000000)
00000000
00000000
00000000
00000000
00000000
00000000
00000000
(0000000000000000)
6!60600006!6
00904062
84628!8090
6!60000066
00000000
00000000
00600062
(008020600006!60000)
00000060
:
00000000
00000000
60408420
00400000
00000000
00000000
00000000
40802040
68248020
60804080
64608020
40800040
4!40004000
00000000
(0000000000000000)
00004000
4!40004020
A0482624
00404040
4!40004040
00000000
00000000
00000000
00000000
00000000
00000000
00000000
(0000000000004000)
8!80924268!8
00A04068
24682!20A6
4!406000B2
8!80726248!8
00A02648
08260648
(0800800020004000)
00486840
00000000
00000004
00400040
2!20186842!2
00A08642
02040400
(000000004000004!40)
00000040
;
