#TITLE:He's A Tramp;
#SUBTITLE:;
#ARTIST:Disney Grooves;
#TITLETRANSLIT:;
#SUBTITLETRANSLIT:;
#ARTISTTRANSLIT:;
#CREDIT:;
#BANNER:He's A Tramp.png;
#BACKGROUND:He's A Tramp-bg.png;
#LYRICSPATH:;
#CDTITLE:./CDTITLES/DanceDanceRevolution Disney Grooves.png;
#MUSIC:He's A Tramp.mp3;
#OFFSET:-0.031;
#SAMPLESTART:10.400;
#SAMPLELENGTH:15.000;
#SELECTABLE:YES;
#DISPLAYBPM:107.000;
#BPMS:0.000=107.000,24.000=106.000,36.000=104.000,44.000=106.400,52.000=105.900,68.000=104.100,76.000=106.500,84.000=109.000,92.000=111.000,100.000=109.800,108.000=107.700,112.000=109.400,118.000=108.000,130.000=105.700,140.000=106.700,147.000=108.300,155.000=108.260;
#STOPS:;
#BGCHANGES:;

//---------------dance-single - ----------------
#NOTES:
     dance-single:
     :
     Beginner:
     2:
     0.099,0.110,0.011,0.000,0.000:
0000
0000
0000
0000
,
1000
0000
0000
0000
,
0000
0000
0000
0000
,
0001
0000
0000
0000
,
0000
0000
0000
0000
,
1000
0000
1000
0000
,
0001
0000
0001
0000
,
1000
0000
1000
0000
,
0001
0000
0001
0000
,
1000
0000
0000
0000
,
0100
0000
0000
0000
,
1000
1000
1000
1000
,
0000
0000
0000
0000
,
0001
0000
0001
0000
,
1000
0000
1000
0000
,
0001
0000
0001
0000
,
1000
0000
1000
0000
,
0001
0000
0000
0000
,
0010
0000
0000
0000
,
0001
0001
0001
0001
,
0000
0000
0000
0000
,
1000
0000
0000
0000
,
0010
0000
0000
0000
,
0001
0000
0000
0000
,
0100
0000
0000
0000
,
0000
1000
0000
0000
,
0000
0001
0000
0000
,
1001
0000
0000
0000
,
1000
0000
1000
0000
,
0100
0000
1000
0000
,
0100
0000
0001
0000
,
0010
0000
1000
0000
,
0010
0000
0001
0000
,
1000
0000
0000
0000
,
0100
0000
0000
0000
,
1000
1000
1000
1000
,
0000
0000
0000
0000
,
0001
0001
0001
0001
,
0000
0000
0000
0000
,
1000
1000
1000
1000
,
0000
0010
0000
0010
,
0000
0010
0000
0010
;

//---------------dance-single - ----------------
#NOTES:
     dance-single:
     :
     Easy:
     3:
     0.142,0.154,0.011,0.000,0.000: // measure 1
0000
0000
0000
0000
,  // measure 2
0010
0000
0000
0000
,  // measure 3
1000
0000
0000
0000
,  // measure 4
0100
0000
0000
0000
,  // measure 5
0001
0000
0000
0000
,  // measure 6
1000
0000
0100
0000
,  // measure 7
0001
0000
0100
0000
,  // measure 8
1000
0000
0010
0000
,  // measure 9
0001
0000
0010
0000
,  // measure 10
1000
1000
0000
0000
,  // measure 11
0100
0100
0000
0000
,  // measure 12
1000
1000
0001
0001
,  // measure 13
0000
0100
0000
0010
,  // measure 14
0001
0000
0010
0000
,  // measure 15
1000
0000
0010
0000
,  // measure 16
0001
0000
0100
0000
,  // measure 17
1000
0000
0100
0000
,  // measure 18
0001
0001
0000
0000
,  // measure 19
0010
0010
0000
0000
,  // measure 20
0001
0001
1000
1000
,  // measure 21
0000
0010
0000
0100
,  // measure 22
0000
1000
0000
1000
,  // measure 23
0000
0010
0000
0010
,  // measure 24
0000
0001
0000
0001
,  // measure 25
0000
0100
0000
0100
,  // measure 26
0000
1000
1000
0000
,  // measure 27
0000
0001
0001
0000
,  // measure 28
1001
0000
1000
0000
,  // measure 29
1000
0000
0001
0000
,  // measure 30
0100
0100
1000
0000
,  // measure 31
0100
0100
0001
0000
,  // measure 32
0010
0010
1000
0000
,  // measure 33
0010
0010
0001
0000
,  // measure 34
1000
1000
0000
0000
,  // measure 35
0100
0100
0000
0000
,  // measure 36
1000
1000
0001
0001
,  // measure 37
0000
0100
0000
0010
,  // measure 38
0001
0001
1000
1000
,  // measure 39
0000
0010
0000
0100
,  // measure 40
1000
1000
0001
0001
,  // measure 41
1000
0000
0010
0000
,  // measure 42
0010
0000
0010
0010
;

//---------------dance-single - ----------------
#NOTES:
     dance-single:
     :
     Medium:
     5:
     0.212,0.198,0.011,0.000,0.000:
0000
0000
0000
0000
,
1000
0000
0010
0000
,
1000
0000
0001
0000
,
0001
0000
0100
0000
,
0001
0000
1000
0000
,
0001
0000
0100
0010
,
1000
0000
0010
0100
,
0001
0000
0100
0010
,
1000
0000
0010
0100
,
1000
0100
0100
0010
,
0010
0100
0100
1000
,
1000
0001
1000
0001
,
1000
0100
0010
0001
,
1000
0000
0010
0100
,
0001
0000
0100
0010
,
1000
0000
0010
0100
,
0001
0000
0100
0010
,
0001
0010
0010
0100
,
0100
0010
0010
0001
,
0001
1000
0001
1000
,
0001
0010
0100
1000
,
0001
0001
0001
0001
,
0100
0100
0100
0100
,
1000
1000
1000
1000
,
0010
0010
0010
0010
,
1000
0100
1000
0100
,
0001
0100
0001
0100
,
1001
0000
0100
0000
,
1000
0001
0100
0010
,
1000
0100
0010
0000
,
0001
0100
0010
0000
,
1000
0100
0010
0000
,
1000
0010
0100
0000
,
1000
0100
0100
0010
,
0010
0100
0100
1000
,
1000
0001
1000
0001
,
1000
0100
0010
0001
,
0010
0100
0010
0100
,
0001
0010
0100
1000
,
0001
1000
0001
1000
,
0001
0010
0010
0010
,
0000
0010
0000
0010
;

//---------------dance-single - ----------------
#NOTES:
     dance-single:
     :
     Hard:
     7:
     0.261,0.264,0.011,0.000,0.000:
0000
0000
0000
0000
,
1000
0000
0010
0001
,
1000
0000
0010
0001
,
1000
0000
0100
1000
,
1000
0000
0100
1000
,
0001
0000
0000
0010
0100
0000
0000
0000
,
1000
0000
0000
0010
0100
0000
0000
0000
,
1000
0000
0000
0001
0100
0000
0000
0000
,
0001
0000
0000
1000
0100
0000
0000
0000
,
1000
0000
0000
1000
0100
0000
0000
0001
,
0010
0000
0000
0010
0100
0000
0000
0000
,
1000
0100
0010
0000
0001
0100
0010
0000
,
1000
0100
0010
0001
,
1000
0000
0000
0100
0010
0000
0000
0000
,
0001
0000
0000
0100
0010
0000
0000
0000
,
0001
0000
0000
1000
0010
0000
0000
0000
,
1000
0000
0000
0001
0010
0000
0000
0000
,
0001
0000
0000
0001
0010
0000
0000
1000
,
0100
0000
0000
0100
0010
0000
0000
0000
,
0001
0010
0100
0000
1000
0010
0100
0000
,
0001
0010
0100
1000
,
1000
0000
0100
0100
0010
0010
0001
0000
,
0001
0100
0010
1000
,
1000
0000
0010
0010
0100
0100
0001
0000
,
0001
0010
0100
1000
,
1000
1000
0001
0001
0010
0010
1000
0000
,
0001
1000
0100
0001
,
1001
0000
0000
0010
0100
0000
0000
0000
,
1000
0000
0010
0000
0100
0000
0010
0010
,
1000
0000
0100
0000
0010
0000
0100
0100
,
1000
0000
0010
0000
0100
0000
0010
0010
,
1000
0000
0100
0000
0010
0000
0100
0100
,
1000
0000
0010
0000
0100
0000
0010
0010
,
1000
0000
0000
1000
0100
0000
0000
0001
,
0010
0000
0000
0010
0100
0000
0000
0000
,
1000
0100
0010
0000
0001
0100
0010
0000
,
1000
0100
0010
0001
,
0001
0010
0100
0000
1000
0010
0100
0000
,
1000
0100
0010
0001
,
1000
0100
0010
0000
0001
0100
0010
0000
,
0001
0000
0010
0010
0010
0000
0010
0000
,
0010
0000
0010
0010
0010
0000
0010
0000
;
