#TITLE:He Mele No Lilo;
#SUBTITLE:;
#ARTIST:Disney Grooves;
#TITLETRANSLIT:;
#SUBTITLETRANSLIT:;
#ARTISTTRANSLIT:;
#CREDIT:;
#BANNER:;
#BACKGROUND:;
#LYRICSPATH:;
#CDTITLE:./CDTITLES/DanceDanceRevolution Disney Grooves.png;
#MUSIC:He Mele No Lilo.mp3;
#OFFSET:-0.060;
#SAMPLESTART:11.200;
#SAMPLELENGTH:15.000;
#SELECTABLE:YES;
#DISPLAYBPM:108.000:112.000;
#BPMS:0.000=108.000,56.000=112.000,120.000=116.950;
#STOPS:;
#BGCHANGES:;

//---------------dance-single - ----------------
#NOTES:
     dance-single:
     :
     Beginner:
     1:
     0.086,0.108,0.000,0.000,0.000:
0000
0000
0000
0000
,
0000
0000
0000
0000
,
0000
0000
0000
0000
,
0000
0000
0000
0000
,
0000
0000
0000
0000
,
1000
0000
0000
0000
,
0001
0000
0000
0000
,
0010
0000
0000
0000
,
0010
0000
0000
0000
,
0001
0000
0000
0000
,
1000
0000
0000
0000
,
0010
0000
0000
0000
,
0010
0000
0000
0000
,
0000
0000
0000
0000
,
1000
0000
1000
0000
,
0001
0000
0000
0000
,
0001
0000
0001
0000
,
1000
0000
0000
0000
,
0010
0000
0000
0000
,
0001
0000
0000
0000
,
1000
0000
1000
0000
,
0001
0000
0000
0000
,
0001
0001
0000
0000
,
1000
1000
0000
0000
,
0010
0010
0000
0000
,
0001
0001
0000
0000
,
1000
0000
1000
0000
,
0001
0000
0001
0000
,
1000
0000
0001
0000
,
1000
1000
1000
0000
,
0000
0000
0000
0000
,
0001
0000
0000
0000
,
0010
0000
0000
0000
,
1000
0000
0000
0000
,
0010
0000
0000
0000
,
1000
0000
1000
0000
,
0001
0000
0001
0000
,
0010
0000
0010
0000
,
0001
0001
0000
0000
,
1000
0000
1000
0000
,
0001
0000
0001
0000
,
0010
0000
0010
0000
,
0100
0000
0100
0000
,
0001
0001
0000
0000
,
1000
1000
0000
0000
,
0001
0000
1000
0000
,
0001
0001
0001
0000
;

//---------------dance-single - ----------------
#NOTES:
     dance-single:
     :
     Easy:
     3:
     0.130,0.173,0.000,0.000,0.000:
0000
0000
0000
0000
,
0000
0000
0000
0000
,
0000
0000
0000
0000
,
0000
0000
0000
0000
,
0000
0000
0000
0000
,
1000
0000
1000
0000
,
0001
0000
0001
0000
,
0010
0000
0010
0000
,
0100
0000
0100
0000
,
0001
0000
0001
0000
,
1000
0000
1000
0000
,
0010
0000
0010
0000
,
0100
0000
0100
0000
,
0000
0000
0000
0000
,
1000
0000
1000
0000
,
0001
0000
0001
0000
,
0001
0000
0001
0000
,
1000
0000
1000
0000
,
0010
0010
0000
0000
,
0001
0001
0000
0000
,
1000
0000
1000
0000
,
0001
0000
0001
0000
,
0001
0001
0010
0000
,
1000
1000
0100
0000
,
0010
0010
0001
0000
,
0001
0001
1000
0000
,
1000
0000
1000
0000
,
0001
0000
0001
0000
,
1000
1000
0001
0001
,
1000
1000
1000
0000
,
0000
0000
0000
0000
,
0001
0000
0001
0000
,
0010
0000
0010
0000
,
1000
0000
1000
0000
,
0010
0000
0010
0000
,
1000
1000
1000
0000
,
0001
0001
0001
0000
,
0010
0000
0010
0000
,
0001
0001
0000
0000
,
1000
1000
1000
0000
,
0001
0001
0001
0000
,
0010
0010
0010
0000
,
0100
0100
0100
0000
,
0001
0001
0001
0000
,
1000
1000
1000
0000
,
0001
0001
1000
1000
,
0001
1000
0010
0000
;

//---------------dance-single - ----------------
#NOTES:
     dance-single:
     :
     Medium:
     5:
     0.195,0.195,0.028,0.019,0.000:
0000
0000
0000
0000
,
0000
0000
0000
0000
,
0000
0000
0000
0000
,
0000
0000
0000
0000
,
0000
0000
0000
0000
,
0001
0010
0100
0001
,
0100
0001
1000
0000
,
0100
0100
0010
0010
,
0100
1000
0010
0000
,
1000
0010
0100
1000
,
0100
1000
0001
0000
,
0100
0100
0010
0010
,
0100
0001
0010
0000
,
2000
0000
0000
3000
,
0001
0010
1000
0001
,
0100
0001
1000
0000
,
0100
0100
0010
0010
,
0100
1000
0001
0000
,
1000
0010
0001
0100
,
1000
0100
0001
0000
,
1000
1000
0001
0001
,
0010
0001
1000
0000
,
1000
0010
0001
1000
,
0100
1000
0001
0000
,
0100
0100
0010
0010
,
0100
0001
1000
0000
,
0001
0010
0100
0001
,
0100
0001
1000
0000
,
0001
0001
1000
1000
,
0010
1000
0001
0000
,
0002
0000
0000
0003
,
1000
0010
0100
1000
,
0100
1000
0001
0000
,
0100
0100
0010
0010
,
0100
0001
0010
0000
,
0001
0010
0100
0001
,
0100
0001
1000
0000
,
0100
0100
0010
0010
,
0100
1000
0010
0000
,
1000
0010
0100
1000
,
0100
1000
0001
0000
,
0100
0100
0010
0010
,
0100
0001
0010
0000
,
1000
0010
0001
0100
,
1000
0100
0001
0000
,
1000
1000
0001
0001
,
1001
0110
1001
0000
;

//---------------dance-single - ----------------
#NOTES:
     dance-single:
     :
     Hard:
     7:
     0.262,0.281,0.149,0.019,0.000:
0000
0000
0000
0000
,
0000
0000
0000
0000
,
0000
0000
0000
0000
,
0000
0000
0000
0000
,
0000
0000
0000
0000
,
1000
0000
0000
0100
0010
0100
1000
0000
,
0010
1000
0001
0000
,
0010
0001
0010
0000
0100
1000
0100
0000
,
0010
0001
1000
0110
,
0001
0000
0100
0000
0010
0100
0001
0000
,
0010
0001
1000
0000
,
0010
1000
0010
0000
0100
0001
0100
0000
,
0010
1000
0001
0110
,
0002
0000
0000
0003
,
1000
0000
0100
0000
0001
0100
1000
0000
,
0010
1000
0001
0000
,
0010
0001
0010
0000
0100
1000
0100
0000
,
0010
0001
1000
0110
,
0001
0100
1000
0010
,
0001
0010
1000
0010
,
0010
1000
0001
0000
0010
0001
1000
0000
,
0011
1100
0101
0000
,
0001
0000
0100
0000
1000
0100
0001
0000
,
0010
0001
1000
0000
,
0010
1000
0010
0000
0100
0001
0100
0000
,
0010
1000
0001
0110
,
1000
0000
0100
0000
0010
0100
1000
0000
,
0010
1000
0001
0000
,
0010
0001
1000
0000
0010
1000
0001
0000
,
1010
0101
1100
0000
,
2000
0000
0000
3000
,
0001
0000
0100
0000
0010
0100
0001
0000
,
0010
0001
1000
0000
,
0010
1000
0010
0000
0100
0001
0100
0000
,
0010
1000
0001
0110
,
1000
0000
0100
0000
0010
0100
1000
0000
,
0010
1000
0001
0000
,
0010
0001
0010
0000
0100
1000
0100
0000
,
0010
0001
1000
0110
,
0001
0000
0100
0000
0010
0100
0001
0000
,
0010
0001
1000
0000
,
0010
1000
0010
0000
0100
0001
0100
0000
,
0010
1000
0001
0110
,
0001
0100
1000
0010
,
0001
0010
1000
0010
,
0010
1000
0001
0000
0010
0001
1000
0000
,
0011
1100
0101
0000
;
