#TITLE:GET'CHA HEAD IN THE GAME;
#SUBTITLE:;
#ARTIST:HIGH SCHOOL MUSICAL;
#TITLETRANSLIT:;
#SUBTITLETRANSLIT:;
#ARTISTTRANSLIT:;
#CREDIT:;
#BANNER:GET'CHA HEAD IN THE GAME.png;
#BACKGROUND:GET'CHA HEAD IN THE GAME-bg.png;
#LYRICSPATH:;
#CDTITLE:./CDTITLES/Dance Dance Revolution Disney Channel Edition.png;
#MUSIC:GET'CHA HEAD IN THE GAME.mp3;
#OFFSET:-0.010;
#SAMPLESTART:33.569;
#SAMPLELENGTH:15.000;
#SELECTABLE:YES;
#DISPLAYBPM:110.000:113.000;
#BPMS:0.000=113.000;
#STOPS:;
#BGCHANGES:;

//---------------dance-single - ----------------
#NOTES:
     dance-single:
     :
     Beginner:
     1:
     0.102,0.139,0.055,0.022,0.000:
0000
0000
0000
0000
,
0000
0000
0000
0000
,
0001
0000
0000
0000
,
1000
0000
0000
0000
,
0010
0000
0000
0000
,
0010
0000
0000
0000
,
0100
0000
0000
0000
,
0100
0000
0000
0000
,
0001
0000
0000
0000
,
1000
0000
0000
0000
,
1000
0000
0000
0000
,
0001
0000
0000
0000
,
1001
0000
0000
0000
,
0010
0000
0000
0000
,
0100
0000
0000
0000
,
1001
0000
0000
0000
,
0001
0001
0000
0000
,
1000
1000
0000
0000
,
0010
0010
0000
0000
,
0100
0100
0000
0000
,
0001
0001
0000
0000
,
0010
0010
0000
0000
,
0100
0100
0000
0000
,
1000
1000
0000
0000
,
0220
0000
0330
0000
,
0001
0000
0000
0000
,
0001
0000
0000
0000
,
1000
0000
0000
0000
,
1000
0000
0000
0000
,
0110
0000
0000
0000
,
0010
0000
0000
0000
,
1000
0000
0000
0000
,
0100
0000
0000
0000
,
0001
0000
1000
0000
,
1000
1000
0000
0000
,
0100
0100
0000
0000
,
0001
0001
0000
0000
,
0100
0100
0000
0000
,
1000
1000
0000
0000
,
0010
0010
0000
0000
,
0001
0001
0000
0000
,
0010
0010
0000
0000
,
0110
0000
0000
0000
;

//---------------dance-single - ----------------
#NOTES:
     dance-single:
     :
     Easy:
     3:
     0.189,0.231,0.099,0.077,0.000:
0000
0000
0000
0000
,
0000
0000
0000
0000
,
1000
0000
0001
0000
,
0100
0000
0010
0000
,
0100
0000
0001
0000
,
1000
0000
0010
0000
,
1000
0000
0001
0000
,
0010
0000
0100
0000
,
1000
0001
0000
1000
,
0010
0100
0000
0010
,
0100
0001
0000
0100
,
0010
1000
0000
0010
,
0110
0000
0001
1000
,
0010
0000
1000
0001
,
0010
0001
0000
0010
,
0110
0000
0100
0010
,
0001
0000
1000
0000
,
0010
0010
0100
1001
,
1000
0000
0001
0000
,
0100
0100
0010
1001
,
0010
0000
0100
0000
,
0001
0100
1000
0100
,
0010
0000
0100
0000
,
0010
0100
0001
1000
,
2002
0000
0000
3003
,
1000
0000
0001
0000
,
1000
0000
0100
0000
,
0001
0000
0100
0000
,
1000
0000
0010
0000
,
1001
0000
0000
0000
,
0002
0000
0000
0003
,
2000
0000
0000
3000
,
0200
0000
0000
0300
,
0020
0000
0230
0000
,
1300
0000
0010
0000
,
1000
1000
0001
0110
,
0001
0000
0010
0000
,
0001
0001
1000
0110
,
0010
0100
0001
1000
,
0100
0010
1000
0001
,
0010
1000
0100
0001
,
1000
0100
0001
1000
,
0110
0000
0000
0000
;

//---------------dance-single - ----------------
#NOTES:
     dance-single:
     :
     Medium:
     6:
     0.360,0.369,0.132,0.044,0.022:
0000
0000
0000
0000
,
0000
0000
0000
0000
,
1000
0001
0100
0000
0001
1000
0010
0000
,
0100
0010
1000
0000
0001
0100
0010
0000
,
0010
1000
0100
0000
0100
1000
0001
0000
,
0001
0010
0100
0000
0100
1000
0010
0000
,
0100
0001
0010
0000
0010
0100
1000
0000
,
1000
0001
0010
0000
0010
0001
0100
0000
,
0100
0010
0001
0000
0001
0010
1000
0000
,
1000
0100
0010
0000
0010
0001
0100
0000
,
0100
0010
1000
0000
1000
0100
0001
0000
,
0001
0100
0010
0000
0010
0001
0011
0000
,
1100
0000
1000
0000
1000
0001
1000
0000
,
0101
0000
0001
0000
0001
1000
0001
0000
,
0100
0010
0100
0000
0010
1000
1010
0000
,
0101
0000
0001
0000
0001
0010
1000
0000
,
0010
0000
0001
0000
1000
1000
0100
0000
,
1000
0010
0001
0000
0010
0010
0100
0000
,
0010
0000
1000
0000
0001
0001
0010
0000
,
0001
0100
1000
0000
0100
0100
0010
0000
,
1000
0000
0001
0000
1000
0001
0010
0000
,
0100
0100
1000
0000
0010
0010
0001
0000
,
0010
0000
0100
0000
0010
0100
0001
0000
,
1000
1000
0100
0000
0010
0010
0001
0000
,
2002
0000
0000
3003
,
0000
0000
0001
0000
1000
0000
0000
0000
0010
0000
0000
1000
0000
0000
0100
0000
,
0010
0000
0000
0000
0001
0000
0000
0000
0100
0000
0000
0010
0000
0000
1000
0000
,
0100
0000
0000
0000
0010
0000
0000
0000
0001
0000
0000
0100
0000
0000
0010
0000
,
1000
0000
0000
0000
0001
0000
0000
0000
0100
0000
0000
0001
0000
0000
1000
0000
,
2002
0000
0000
3003
,
0000
0001
1000
0000
0010
0100
0001
0000
,
0000
0010
0100
0000
1000
0001
0010
0000
,
0000
0100
1000
0000
0001
0010
0100
0000
,
0000
1000
0001
0000
0000
1000
0001
0000
,
0010
0000
0100
0000
1000
0100
1000
0000
,
0001
0001
0010
0000
0001
0001
0100
0000
,
0010
0000
0100
0000
0001
0010
0001
0000
,
1000
1000
0100
0000
1000
1000
0010
0000
,
1000
0001
0010
0000
0010
0100
0110
0000
,
1000
0001
0100
0001
0010
0000
0011
0000
,
0010
0001
0010
1000
0010
0000
0110
0000
,
0001
1000
0100
1000
0010
0000
1010
1001
;

//---------------dance-single - ----------------
#NOTES:
     dance-single:
     :
     Hard:
     8:
     0.479,0.484,0.342,0.066,0.187: // measure 1
0000
0000
0000
0000
,  // measure 2
0000
0000
0000
0000
,  // measure 3
1000
0000
0100
0000
1000
0000
0000
0000
0100
0000
1000
0100
0000
1000
0100
0000
,  // measure 4
0010
0000
0001
0000
0010
0000
0000
0000
0001
0000
0010
0001
0000
0010
0001
0000
,  // measure 5
1000
0000
0010
0000
1000
0000
0000
0000
0010
0000
1000
0010
0000
0010
1000
0000
,  // measure 6
0001
0000
0100
0000
0001
0000
0000
0000
0100
0000
0001
0100
0000
0100
0001
0000
,  // measure 7
0010
0000
0001
0000
0100
0000
0000
0000
0001
0000
1000
0001
0000
0001
1000
0000
,  // measure 8
0010
0000
1000
0000
0100
0000
0000
0000
1000
0000
0001
1000
0000
1000
0001
0000
,  // measure 9
1000
0010
0001
0000
0010
0100
1000
0000
,  // measure 10
0100
0001
0010
0100
1000
0010
0100
0000
,  // measure 11
0001
1000
0100
0000
1000
0001
0010
0000
,  // measure 12
0010
0001
0010
1000
0010
0100
0011
0000
,  // measure 13
1100
0000
1000
0000
1000
0100
0010
0000
,  // measure 14
0011
0000
0001
0000
0001
0010
0100
0000
,  // measure 15
1000
0010
0001
0010
0100
0010
1010
0000
,  // measure 16
0101
0000
0100
0000
0100
0010
1000
0000
,  // measure 17
0001
0000
1000
0100
0000
0000
1000
0001
1000
0000
0010
0000
0001
0000
0000
0000
,  // measure 18
0010
1000
0100
0001
0100
1000
0001
0000
,  // measure 19
1000
0000
0001
0010
0000
0000
0001
1000
0001
0000
0100
0000
1000
0000
0000
0000
,  // measure 20
0100
0001
0010
1000
0010
0001
1000
0000
,  // measure 21
0010
0000
0100
0001
0000
0000
1000
0010
1000
0000
0001
0000
0100
0000
0000
0000
,  // measure 22
0010
1000
0010
0100
0001
0100
0001
0000
,  // measure 23
0010
0100
1000
0001
0100
0010
0001
0000
,  // measure 24
0010
0100
0001
1000
0100
0010
1000
0022
,  // measure 25
0000
0000
0000
0033
,  // measure 26
0000
0000
0001
0000
0100
0000
0000
0000
1010
0000
0000
0110
0000
0000
0101
0000
,  // measure 27
0001
0000
0100
0000
0010
0000
0000
0000
0110
0000
0000
0101
0000
0000
1010
0000
,  // measure 28
0010
0000
1000
0000
0001
0000
0000
0000
1001
0000
0000
0011
0000
0000
0110
0000
,  // measure 29
0100
0000
1000
0000
0010
0000
0000
0000
0101
0000
0000
1001
0000
0000
1010
0000
,  // measure 30
0220
0000
0000
0330
,  // measure 31
0000
0110
0110
0010
0100
0001
1000
0000
,  // measure 32
0000
1001
1001
0001
1000
0100
0010
0000
,  // measure 33
0000
0011
0011
0001
1000
0100
1100
0000
,  // measure 34
0000
1010
2020
0000
3030
0101
0101
0000
,  // measure 35
0001
0000
1000
0100
0000
0000
0001
0100
0001
0000
1000
0000
0010
0000
0000
0000
,  // measure 36
0001
0010
1000
0100
0010
0001
1000
0000
,  // measure 37
1000
0000
0001
0010
0000
0000
1000
0010
1000
0000
0001
0000
0100
0000
0000
0000
,  // measure 38
1000
0100
0001
0010
0100
1000
0001
0000
,  // measure 39
0010
0000
0001
0100
0000
0000
0010
1000
0010
0000
0100
0000
0001
0000
0000
0000
,  // measure 40
1000
0001
0010
0001
0100
0001
1000
0000
,  // measure 41
0010
1000
0010
1000
0001
1000
0001
1000
0001
0100
0001
0100
0000
0000
0000
0000
,  // measure 42
0010
0001
0010
1000
0010
0100
0001
1001
;

//---------------dance-double - ----------------
#NOTES:
     dance-double:
     :
     Easy:
     4:
     0.315,0.347,0.198,0.154,0.000:
00000000
00000000
00000000
00000000
,
00000000
00000000
00000000
00000000
,
00100000
10000000
01000000
00010000
,
00001000
00000100
00000001
00000010
,
00000001
00001000
00000100
00000010
,
00000001
00000010
00001000
00010000
,
00001000
00010000
00100000
10000000
,
00000000
01000000
00010000
10000000
,
01000000
00010000
00001000
00100000
,
00010000
01000000
00001000
00010000
,
00000010
00001000
00000001
00000100
,
00000010
00010000
00001000
00000110
,
00001001
00000000
00000001
00000000
00000100
00000100
00000010
00000000
,
00010000
00000000
00001000
00000000
01000000
01000000
00100000
00000000
,
00010000
00001000
01000000
01100000
,
10010000
00000000
10000000
00000000
01000000
01000000
00100000
00000000
,
00001000
00000000
00010000
00000000
00000100
00000100
00000010
00000000
,
00001000
00000000
00010000
00000000
00000100
00000100
00001000
00000000
,
00000010
00000000
00010000
00000000
00001000
00001000
01000000
00000000
,
00100000
00000000
10000000
00000000
00010000
00010000
00100000
00000000
,
01000000
00000000
00010000
00000000
00001000
00001000
01000000
00000000
,
00100000
00000000
00010000
00000000
00001000
00001000
01000000
00000000
,
00010000
00000000
00100000
00000000
00001000
00001000
00010000
00000000
,
00000100
00000000
00000010
00000000
00001000
00001000
00010000
00000000
,
00022000
00000000
00000000
00033000
,
00000100
00001000
00001001
00000110
,
00000100
00001000
00010000
00100000
,
01100000
10010000
10000000
01000000
,
00100000
00001000
00010000
00000100
,
00022000
00000000
00000000
00033000
,
00022000
00033000
00000010
00000100
,
00000220
00000330
00000001
00001000
,
00002002
00003003
00000100
00000010
,
00002002
00003003
00000220
00000330
,
00000100
00000000
00001000
00000000
00010000
00010000
01000000
00000000
,
10000000
00000000
00100000
00000000
00010000
00010000
00001000
00000000
,
00000100
00000000
00000001
00000000
00000010
00000010
00001000
00000000
,
00010000
00000000
01000000
00000000
10000000
10000000
00100000
00000000
,
01100000
00000000
10010000
00000000
10000000
10000000
00010000
00000000
,
01000000
00000000
00001000
00000000
00010000
00010000
00001000
00000000
,
00010000
00000000
00000100
00000000
00001000
00001000
00000001
00000000
,
00000100
00000000
00001000
00000000
00010000
00010000
00001000
00000000
,
00011000
00000000
00000000
00000000
;

//---------------dance-double - ----------------
#NOTES:
     dance-double:
     :
     Medium:
     6:
     0.376,0.392,0.198,0.044,0.022:
00000000
00000000
00000000
00000000
,
00000000
00000000
00000000
00000000
,
10000000
00010000
01000000
00000000
00100000
00010000
00001000
00000000
,
00000010
00000001
00001000
00000000
00000100
00010000
00001000
00000000
,
00100000
00010000
10000000
00000000
01000000
10000000
00100000
00000000
,
00010000
00000010
00001000
00000000
00000001
00000010
00001000
00000000
,
00010000
00001000
00100000
00000000
00001000
00010000
00100000
00000000
,
00010000
00000100
00001000
00000000
00000010
00010000
00001000
00000000
,
00010000
00001000
00000010
00000000
00001000
00010000
00100000
00000000
,
00100000
10000000
01000000
00000000
01000000
10000000
00010000
00000000
,
00010000
01000000
00001000
00000000
00001000
00000010
00000001
00000000
,
00001000
00000010
00000001
00000000
00000010
00001000
00001010
00000000
,
00000101
00000000
00000001
00000000
00000001
00000100
00001000
00000000
,
00011000
00000000
00001000
00000000
00010000
01000000
10000000
00000000
,
00010000
00100000
10000000
00000000
00100000
00010000
00110000
00000000
,
11000000
00000000
10000000
00000000
10000000
00100000
01000000
00000000
,
00100000
10000000
00000000
00010000
01000000
00001000
00010000
00000000
,
00000010
00001000
00000000
00000001
00000100
00000010
00001000
00000000
,
00000100
00000010
00000000
00000001
00001000
00000100
00010000
00000000
,
00001000
00100000
00000000
00010000
10000000
01000000
00100000
00000000
,
00110000
00000000
01010000
00000000
10000000
01000000
00010000
00000000
,
00010000
00001000
00000100
00000000
00000100
00000010
00001000
00000000
,
00001100
00000000
00001010
00000000
00000001
00000010
00001000
00000000
,
00001000
00010000
00100000
00000000
00100000
10000000
00010000
00000000
,
20020000
00000000
00000000
30030000
,
00000000
00000000
00010000
00000000
10000000
00000000
00000000
00000000
00100000
00000000
00000000
10000000
00000000
00000000
01000000
00000000
,
00100000
00000000
00000000
00000000
00010000
00000000
00000000
00000000
01000000
00000000
00000000
00001000
00000000
00000000
00010000
00000000
,
00001000
00000000
00000000
00000000
00000010
00000000
00000000
00000000
00000001
00000000
00000000
00000100
00000000
00000000
00000010
00000000
,
00001000
00000000
00000000
00000000
00000100
00000000
00000000
00000000
00000010
00000000
00000000
00001000
00000000
00000000
00010000
00000000
,
00022000
00000000
00000000
00033000
,
00000000
00000010
00001000
00000000
00000001
00000100
00000010
00000000
,
00000000
00010000
00001000
00000000
00100000
00010000
10000000
00000000
,
00000000
00010000
00100000
00000000
01000000
10000000
00010000
00000000
,
00000000
00100000
00001000
00000000
00000000
00010000
00000100
00000000
,
00000010
00000000
00000001
00000000
00001000
00000100
00001100
00000000
,
00000100
00010000
00001000
00010000
00100000
00000000
10010000
00000000
,
01000000
00000000
00010000
00000000
10000000
00100000
10100000
00000000
,
00100000
10000000
00010000
01000000
00001000
00000000
00011000
00000000
,
00000010
00001000
00000001
00000000
00000001
00000100
00000101
00000000
,
00000100
00001000
00010000
00001000
00000100
00000000
00000010
00000000
,
00000100
00001000
00010000
00100000
01000000
00010000
01010000
00000000
,
01000000
00100000
00010000
00001000
00000010
00001000
00010000
00011000
;

//---------------dance-double - ----------------
#NOTES:
     dance-double:
     :
     Hard:
     8:
     0.464,0.508,0.264,0.055,0.176:
00000000
00000000
00000000
00000000
,
00000000
00000000
00000000
00000000
,
01000000
00000000
00000000
00000000
10000000
00000000
00000000
00000000
10000000
00000000
01000000
00010000
00000000
00010000
00001000
00000000
,
00000100
00000000
00000000
00000000
00000001
00000000
00000000
00000000
00000001
00000000
00000100
00001000
00000000
00001000
00010000
00000000
,
00000010
00000000
00001000
00000000
00010000
00000000
00000000
00000000
00001000
00000000
01000000
00010000
00000000
01000000
00010000
00000000
,
00100000
00000000
00010000
00000000
00001000
00000000
00000000
00000000
00010000
00000000
00000100
00001000
00000000
00000100
00001000
00000000
,
00000010
00000000
00000100
00000000
00001000
00000000
00000000
00000000
00010000
00000000
01000000
00100000
00000000
01000000
00100000
00000000
,
01000000
00000000
00100000
00000000
00010000
00000000
10000000
00000000
01000000
00000000
00000000
00100000
00000000
00000000
00001000
00000000
,
00010000
00001000
00000010
00000000
00001000
01000000
00100000
00000000
,
10000000
01000000
00100000
00010000
01000000
00100000
00010000
00000000
,
00100000
01000000
00001000
00010000
00000100
00001000
00000001
00000000
,
00001000
00000010
00000100
00000001
00001000
00000001
00001010
00000000
,
00000101
00000000
00000100
00000000
00000100
00000001
00000010
00000000
,
00001000
00000000
00010000
00000000
00010000
01000000
10000000
00000000
,
00010000
00100000
00010000
01000000
00010000
10000000
00110000
00000000
,
11000000
00000000
01000000
00000000
01000000
10000000
00100000
00000000
,
00010000
00000000
00001000
00010000
00000000
00000000
00001000
00010000
00001000
00000000
00000100
00000000
00000001
00000000
00000000
00000000
,
00000010
00000100
00000010
00001000
00000010
00000001
00000100
00000000
,
00001000
00000000
00010000
00001000
00000000
00000000
00010000
00001000
00010000
00000000
00100000
00000000
10000000
00000000
00000000
00000000
,
01000000
00100000
01000000
00010000
01000000
10000000
00100000
00000000
,
10000000
00000000
00010000
01000000
00000000
00000000
00001000
00010000
00001000
00000000
00000100
00000000
00000010
00000000
00000000
00000000
,
00000001
00000010
00001000
00000100
00000001
00000100
00001000
00000000
,
00000100
00010000
00001000
00100000
00010000
01000000
10000000
00000000
,
01000000
00100000
10000000
01000000
00010000
01000000
10000000
20200000
,
00000000
00000000
00000000
30300000
,
00000000
00000000
00010000
00000000
10000000
00000000
00000000
00000000
10010000
00000000
00000000
10100000
00000000
00000000
00110000
00000000
,
00000000
00000000
00001000
00000000
00010000
00000000
00000010
00000000
00001010
00000000
00000000
00000110
00000000
00000000
00000101
00000000
,
00000000
00000000
00000001
00000000
00001000
00000000
00000010
00000000
00010010
00000000
00000000
00011000
00000000
00000000
01001000
00000000
,
00000000
01000000
00010000
10000000
01000000
00100000
00020000
00000000
,
20000000
00000000
00000000
30030000
,
00000000
10010000
10010000
00010000
01000000
00001000
00010000
00000000
,
00000000
00011000
00011000
00001000
00000100
00000010
00001000
00000000
,
00000000
00001001
00001001
00001000
00000010
00010000
00001000
00000000
,
00000000
00020000
01000000
00000000
00000000
00031000
00000100
00000000
,
00000110
00000000
00000010
00000100
00000000
00000000
00000001
00001000
00000001
00000000
00000100
00000000
00000010
00000000
00000000
00000000
,
00000010
00010000
00001000
01000000
00010000
10000000
00100000
00000000
,
01100000
00000000
00100000
01000000
00000000
00000000
00010000
10000000
00010000
00000000
01000000
00000000
00100000
00000000
00000000
00000000
,
01000000
00001000
00010000
00000010
00001000
00000001
00000100
00000000
,
00001010
00000000
00000010
00001000
00000000
00000000
00000001
00000100
00000001
00000000
00000100
00000000
00000010
00000000
00000000
00000000
,
00000010
00010000
00001000
01000000
00010000
10000000
00100000
00000000
,
00010000
01000000
00010000
01000000
00100000
10000000
00100000
10000000
00010000
10000000
00010000
10000000
00000000
00000000
00010000
00000000
,
01000000
00001000
00010000
00000010
00001000
00000001
00000100
00001001
;
