#TITLE:Ev'rybody Wants To Be A Cat;
#SUBTITLE:;
#ARTIST:Disney Grooves;
#TITLETRANSLIT:;
#SUBTITLETRANSLIT:;
#ARTISTTRANSLIT:;
#CREDIT:;
#BANNER:;
#BACKGROUND:;
#LYRICSPATH:;
#CDTITLE:./CDTITLES/DanceDanceRevolution Disney Grooves.png;
#MUSIC:Ev'rybody Wants To Be A Cat.mp3;
#OFFSET:0.163;
#SAMPLESTART:5.620;
#SAMPLELENGTH:15.000;
#SELECTABLE:YES;
#BPMS:0.000=93.000;
#STOPS:;
#BGCHANGES:;

//---------------dance-single - ----------------
#NOTES:
     dance-single:
     :
     Beginner:
     1:
     0.074,0.074,0.027,0.000,0.000:
0000
0000
0000
0000
,
0000
0001
0000
0001
,
0000
0001
0000
0000
,
0010
0010
0000
0000
,
1000
1000
0000
0000
,
0100
0100
0000
0000
,
0000
0001
0000
0001
,
0000
0001
0000
0001
,
0000
1000
0000
1000
,
0000
1000
0000
1000
,
0000
0001
0000
0000
,
0000
0000
0000
0000
,
0000
1000
0000
0000
,
0000
0000
0000
0000
,
0000
0010
0000
0000
,
0000
0000
0000
0000
,
0000
0100
0000
0000
,
0000
0000
0000
0000
,
0000
1000
0000
1000
,
0000
0001
0000
0001
,
0000
0100
0000
0100
,
0000
0010
0000
0010
,
0000
0001
0000
0000
,
0010
0010
0000
0000
,
1000
1000
0000
0000
,
0000
0110
0000
0000
,
0000
0000
0000
0000
,
0000
0000
1001
0000
;

//---------------dance-single - ----------------
#NOTES:
     dance-single:
     :
     Easy:
     3:
     0.135,0.186,0.068,0.054,0.000:
0000
0000
0000
0000
,
0000
0001
0000
1000
,
0000
0001
0100
0000
,
0000
1000
0100
0000
,
0000
1000
0010
0000
,
0000
0001
0010
0000
,
0000
1000
0100
0100
,
0010
1000
0100
0100
,
0010
0001
0010
0010
,
0100
0001
0010
0100
,
1001
0000
0000
0000
,
0000
1000
0000
0100
,
0001
0000
0000
0000
,
0000
0001
0000
0010
,
1000
0200
0000
0000
,
0300
0000
0000
0000
,
0000
0020
0000
0000
,
0030
0000
0000
0000
,
0000
1000
0100
1000
,
0100
0001
0010
0001
,
0010
1000
0001
1000
,
0001
1000
0100
0010
,
1001
0000
0000
0010
,
0001
0001
0000
0100
,
1000
1000
0000
0010
,
0010
0110
0000
0000
,
2002
0000
0000
0000
,
0000
3003
1001
0000
;

//---------------dance-single - ----------------
#NOTES:
     dance-single:
     :
     Medium:
     6:
     0.161,0.186,0.068,0.054,0.000:
0000
0000
0000
0000
,
0000
0001
1000
0001
,
1000
0001
0000
0001
,
0001
0010
0000
0100
,
0000
1000
0000
1000
,
1000
0100
0000
0010
,
0000
1000
0000
0001
,
0001
0000
0000
0100
0000
0100
0000
0100
,
0000
1000
0000
0001
,
0001
0000
0000
0010
0000
0010
0000
0010
,
0000
1001
0000
0000
0000
0000
0000
0000
,
0000
1000
0001
1000
,
0001
0000
0000
0000
,
0000
0001
1000
0001
,
1000
0200
0000
0000
,
0300
0000
0000
1000
0000
1000
0000
0001
,
0000
0001
0020
0000
0000
0000
0000
0000
,
0030
0000
0000
0001
0000
0001
0000
1000
,
0000
1000
0001
0000
0100
0000
1000
0000
,
1000
1000
0010
0001
,
0001
0001
0100
1000
,
1000
0001
0010
0100
,
1001
0001
0000
0010
,
1000
1000
0000
0100
,
0001
0001
0000
0010
,
1000
0110
0000
0100
,
2002
0000
0000
0000
,
0000
3003
1001
0000
;

//---------------dance-single - ----------------
#NOTES:
     dance-single:
     :
     Hard:
     7:
     0.253,0.242,0.108,0.054,0.000:
0000
0000
0000
0000
,
0000
0001
0001
1000
1000
0001
0001
1000
,
1000
0000
1000
0001
0000
0001
0000
0100
,
0000
0100
0000
0010
0000
0010
0000
0100
,
0000
0100
0001
1000
0000
1000
0000
0010
,
0000
0010
0000
0100
0000
0100
0000
0010
,
0000
0010
1000
0000
0000
1000
0010
0000
,
0000
0000
0001
0000
0000
0001
0100
0000
,
0000
0100
1000
0000
0000
0000
0001
0100
,
0000
1000
0110
0010
,
1001
0000
0000
0100
0000
0100
0000
0100
,
0000
0000
1000
0100
0010
0001
1000
0100
,
0010
0001
0000
0010
0000
0010
0000
0010
,
0000
0000
1000
0001
1000
0001
1000
0001
,
1000
0001
0200
0000
0000
0000
0010
0000
,
0310
0000
1000
1000
0001
0001
1000
1000
,
0001
0001
0020
0000
0000
0000
0100
0000
,
0130
0000
0001
0001
1000
1000
0001
0001
,
1000
1000
0001
0000
0010
0000
0010
0000
,
1000
1000
0100
0100
,
0001
0001
0100
0001
,
0001
0001
0110
0100
,
1001
0000
1000
0001
0000
0001
0000
0100
,
0000
0100
0000
0010
0000
0010
0000
0100
,
0000
0100
0001
1000
0000
1000
0000
0010
,
0000
0010
0110
0000
0000
0010
1001
0000
,
2002
0000
0000
0000
,
0000
0000
0000
3003
1001
0000
0000
0000
;
