#TITLE:D.J. Goof;
#SUBTITLE:;
#ARTIST:Disney Grooves;
#TITLETRANSLIT:;
#SUBTITLETRANSLIT:;
#ARTISTTRANSLIT:;
#CREDIT:;
#BANNER:;
#BACKGROUND:;
#LYRICSPATH:;
#CDTITLE:./CDTITLES/DanceDanceRevolution Disney Grooves.png;
#MUSIC:D.J. Goof.mp3;
#OFFSET:-0.056;
#SAMPLESTART:33.900;
#SAMPLELENGTH:15.000;
#SELECTABLE:YES;
#BPMS:0.000=91.900;
#STOPS:;
#BGCHANGES:;

//---------------dance-single - ----------------
#NOTES:
     dance-single:
     :
     Beginner:
     1:
     0.086,0.106,0.110,0.000,0.000:
0000
0000
0000
0000
,
1000
0000
0000
0000
,
0001
0000
0000
0000
,
1000
0000
0000
0000
,
0100
0000
0000
0000
,
1000
0000
0001
0000
,
1000
0000
0001
0000
,
0100
0000
0010
0000
,
1001
0000
0000
0000
,
0001
0000
1000
0000
,
0001
0000
1000
0000
,
0010
0000
0100
0000
,
1001
0000
0000
0000
,
0100
0000
1001
0000
,
0000
0000
0000
0000
,
0100
0000
1001
0000
,
0000
0000
0000
0000
,
1000
0000
0110
0000
,
0000
0000
0000
0000
,
0001
0000
0110
0000
,
0000
0000
0100
0000
,
0000
0000
1000
0000
,
0000
0000
0001
0000
,
1000
0000
0001
0000
,
1000
0000
0001
0000
,
0100
0000
0010
0000
,
1001
0000
0000
0000
,
0001
0000
1000
0000
,
0001
0000
1000
0000
,
0010
0000
0100
0000
,
1001
0000
0000
0000
,
0100
0000
1001
0000
,
0000
0000
0000
0000
,
0100
0000
1001
0000
,
0000
0000
0000
0000
,
0001
0000
0110
0000
;

//---------------dance-single - ----------------
#NOTES:
     dance-single:
     :
     Easy:
     2:
     0.131,0.124,0.110,0.000,0.000:
0000
0000
0000
0000
,
1000
0001
0000
0100
,
0001
0100
0000
0001
,
0001
1000
0000
0010
,
1000
0010
0000
0000
,
1000
0001
0000
1000
,
0001
1000
0001
0000
,
0010
0000
0100
0000
,
0001
0000
1001
0000
,
0001
1000
0000
0001
,
1000
0001
1000
0000
,
0100
0000
0010
0000
,
1000
0000
1001
0000
,
0010
0000
1001
0000
,
0100
0000
0100
0000
,
0010
0000
1001
0000
,
1000
0000
0001
0000
,
0001
0000
0110
0000
,
0010
0000
0100
0000
,
1000
0000
0110
0000
,
0001
0000
0100
0000
,
0000
0000
1000
1000
,
0000
0000
0001
0001
,
1000
0001
0000
1000
,
0001
1000
0001
0000
,
0010
0000
0100
0000
,
0001
0000
1001
0000
,
0001
1000
0000
0001
,
1000
0001
1000
0000
,
0100
0000
0010
0000
,
1000
0000
1001
0000
,
0010
0000
1001
0000
,
0100
0000
0100
0000
,
0010
0000
1001
0000
,
1000
0000
0001
0000
,
0001
0000
0110
0000
;

//---------------dance-single - ----------------
#NOTES:
     dance-single:
     :
     Medium:
     4:
     0.201,0.177,0.130,0.110,0.000:
0000
0000
0000
0000
,
0001
0100
1000
0100
,
0001
0100
1000
0010
,
1000
0010
0001
0010
,
1000
0100
0010
0000
,
0100
0020
0030
0100
,
0001
1000
0010
0100
,
0001
0010
0001
0010
,
0100
1000
1001
0000
,
0010
0200
0300
0010
,
1000
0001
0100
0010
,
1000
0100
1000
0100
,
0010
0001
1001
0000
,
2000
3001
1001
0000
,
0001
1000
0001
1000
,
0002
1003
1001
0000
,
1000
0001
1001
0000
,
0020
0130
0110
0000
,
0100
0010
0100
0010
,
0200
0310
0110
0000
,
0001
1000
0100
0000
,
0000
0000
1000
1000
,
0000
0000
0001
0001
,
0100
0020
0030
0100
,
0001
1000
0010
0100
,
0001
0010
0001
0010
,
0100
1000
1001
0000
,
0010
0200
0300
0010
,
1000
0001
0100
0010
,
1000
0100
1000
0100
,
0010
0001
1001
0000
,
2000
3001
1001
0000
,
0001
1000
0001
1000
,
0002
1003
1001
0000
,
1000
0001
1001
0000
,
0020
0130
0110
0000
;

//---------------dance-single - ----------------
#NOTES:
     dance-single:
     :
     Hard:
     6:
     0.254,0.248,0.210,0.100,0.000:
0000
0000
0000
0000
,
0010
0000
1000
0000
0000
0100
0010
0000
,
0001
0000
0100
0000
0001
0100
0010
0000
,
0100
0000
0001
0000
0000
0010
0100
0000
,
1000
0100
0110
0000
,
0010
0000
2000
0000
3000
0000
1000
0001
,
1000
0000
0100
0000
0010
0100
0100
0000
,
1000
0000
0100
0000
1000
0000
0100
0001
,
0100
0010
1001
0100
,
0010
0000
0002
0000
0003
0000
0001
1000
,
0001
0000
0100
0000
0010
0100
0100
0000
,
0001
0000
0100
0000
0001
0000
0100
1000
,
0100
0011
1100
0011
,
0200
0310
1010
0100
,
0010
0000
0001
0000
1000
0100
0100
0000
,
0200
0310
0011
0100
,
1000
0010
0110
0001
,
0200
0310
1010
0100
,
0010
0000
0001
0000
1000
0100
0100
0000
,
0200
0310
0011
0100
,
1000
0110
0001
0000
,
0000
0000
0000
0000
0100
0100
1100
0000
,
0000
0000
0000
0000
0100
0100
0101
0000
,
0010
0000
0002
0000
0003
0000
0001
1000
,
0001
0000
0100
0000
0010
0100
0100
0000
,
0001
0000
0100
0000
0001
0000
0100
1000
,
0100
0010
1001
0100
,
0010
0000
2000
0000
3000
0000
1000
0001
,
1000
0000
0100
0000
0010
0100
0100
0000
,
1000
0000
0100
0000
1000
0000
0100
0001
,
0100
1010
0101
1010
,
0200
0310
0011
0100
,
0010
0000
1000
0000
0001
0100
0100
0000
,
0100
0010
1010
0100
,
0001
0010
0110
1000
,
0200
0310
0011
0000
;
