#TITLE:Can You Feel The Love Tonight;
#SUBTITLE:;
#ARTIST:Disney Grooves;
#TITLETRANSLIT:;
#SUBTITLETRANSLIT:;
#ARTISTTRANSLIT:;
#CREDIT:;
#BANNER:;
#BACKGROUND:;
#LYRICSPATH:;
#CDTITLE:./CDTITLES/DanceDanceRevolution Disney Grooves.png;
#MUSIC:Can You Feel The Love Tonight.mp3;
#OFFSET:-0.216;
#SAMPLESTART:50.160;
#SAMPLELENGTH:15.000;
#SELECTABLE:YES;
#DISPLAYBPM:170.000;
#BPMS:0.000=172.000;
#STOPS:;
#BGCHANGES:;

//---------------dance-single - ----------------
#NOTES:
     dance-single:
     :
     Beginner:
     3:
     0.139,0.209,0.000,0.000,0.000:
0000
0000
0000
0000
,
0000
0000
0000
0000
,
0000
0000
0000
0000
,
0000
0000
0000
0000
,
0000
0000
0000
0000
,
0000
0000
0000
0000
,
0000
0000
0000
0000
,
0000
0000
0000
0000
,
0000
1000
0000
1000
,
0000
0001
0000
0001
,
0000
1000
0000
1000
,
0000
0001
0001
0000
,
1000
0000
0010
0000
,
1000
0000
0000
0000
,
0001
0000
0010
0000
,
0001
0000
0000
0000
,
1000
0000
0010
0000
,
1000
0000
0000
0000
,
0001
0000
1000
0000
,
0001
0000
0000
0000
,
0001
0000
0000
0000
,
0100
0000
0000
0000
,
1000
0000
0000
0000
,
0100
0000
0000
0000
,
0001
0000
0000
0000
,
0100
0000
0000
0000
,
0100
0000
0000
0000
,
0001
0000
0000
0000
,
1000
0000
1000
0000
,
0001
0000
0000
0000
,
0001
0000
0001
0000
,
0100
0000
0000
0000
,
1000
0000
1000
0000
,
0001
0000
0001
0000
,
1000
0000
0001
0000
,
1000
0000
0000
0000
,
0001
0000
0001
0000
,
1000
0000
1000
0000
,
0100
0000
0100
0000
,
0010
0000
0010
0000
,
0001
0000
0000
0000
,
1000
0000
0000
0000
,
0001
0000
0000
0000
,
1000
1000
1000
0000
,
0010
0000
0000
0000
,
0100
0000
0000
0000
,
0001
0000
1000
0000
,
0001
0000
0000
0000
,
1000
0000
0010
0000
,
1000
0000
0001
0000
,
0100
0000
0000
0000
,
1000
0000
0000
0000
,
1000
0000
0001
0000
,
1000
0000
0001
0000
,
0100
0000
0000
0000
,
0001
0000
0000
0000
,
0010
0000
1000
0000
,
0010
0000
0001
0000
,
1000
0000
0001
0000
,
1000
1000
1000
0000
,
0010
0000
0000
0000
,
0100
0000
0000
0000
,
1000
0000
0001
0000
,
1000
0000
0000
0000
,
0001
0000
1000
0000
,
0001
0000
0010
0000
,
0001
0000
0010
0000
,
0001
0000
0000
0000
,
1000
0000
0010
0000
,
1000
0000
0000
0000
,
0001
0000
0010
0000
,
0001
0000
0000
0000
,
0100
0000
0001
0000
,
1000
0000
0000
0000
;

//---------------dance-single - ----------------
#NOTES:
     dance-single:
     :
     Easy:
     4:
     0.197,0.244,0.019,0.000,0.000:
0000
0000
0000
0000
,
0000
0000
0000
0000
,
0000
0000
0000
0000
,
0000
0000
0000
0000
,
0000
0000
0000
0000
,
0000
0000
0000
0000
,
0000
0000
0000
0000
,
0000
0000
0000
0000
,
0000
1000
0001
1000
,
0000
0001
1000
0001
,
0000
1000
0001
1000
,
0001
0001
0001
0000
,
1000
0000
0010
0001
,
1000
0000
0000
0000
,
0001
0000
0010
1000
,
0001
0000
0000
0000
,
1000
0000
0010
0001
,
1000
0000
0000
0000
,
0001
0000
1000
0000
,
0001
0001
0001
0001
,
0001
0000
0001
0000
,
0100
0000
0010
0000
,
1000
0000
1000
0000
,
0100
0000
0010
0000
,
0001
0000
0001
0000
,
0100
0000
0010
0000
,
0100
0000
0010
0000
,
0001
0001
0001
0001
,
1000
0000
1000
0000
,
0001
0000
1000
0000
,
0001
0000
0001
0000
,
0100
0000
0010
0000
,
1000
0000
1000
0000
,
0001
0000
0001
0000
,
1000
0000
0001
0000
,
1000
0000
1001
0000
,
0001
0001
0001
0000
,
1000
1000
1000
0000
,
0100
0100
0100
0000
,
0010
0010
0010
0000
,
0001
0000
1000
0000
,
1001
0000
0000
0000
,
0001
0000
1000
0000
,
1000
1000
1000
0000
,
0010
0000
0001
0000
,
0100
0000
1000
0000
,
0001
0000
1000
0000
,
0001
0000
0000
0000
,
1000
0000
0010
0000
,
1000
0000
0001
0000
,
0100
0000
1000
0000
,
1000
0000
0000
0000
,
1000
0000
0001
0000
,
1000
0000
0001
0000
,
0100
0000
0010
0000
,
0001
0000
0001
0000
,
0010
0000
1000
0000
,
0010
0000
0001
0000
,
1000
0000
0001
0000
,
1000
1000
1000
0000
,
0010
0000
0001
0000
,
0100
0000
1000
0000
,
1000
0000
0001
0000
,
1000
0000
0000
0000
,
0001
0000
1000
0000
,
0001
0000
0010
0000
,
0001
0000
0010
1000
,
0001
0000
0000
0000
,
1000
0000
0010
0001
,
1000
0000
0000
0000
,
0001
0000
0010
1000
,
0001
0000
0000
0000
,
0100
1000
0001
0000
,
1000
0000
0000
0000
;

//---------------dance-single - ----------------
#NOTES:
     dance-single:
     :
     Medium:
     6:
     0.314,0.388,0.134,0.230,0.000:
0000
0000
0000
0000
,
0000
0000
0000
0000
,
0000
0000
0000
0000
,
0000
0000
0000
0000
,
0000
0000
0000
0000
,
0000
0000
0000
0000
,
0000
0000
0000
0000
,
0000
0000
0000
0000
,
0000
1000
0000
0100
,
0000
0001
0000
0100
,
1000
0010
0001
0100
,
1000
0001
1001
0000
,
1000
0000
0000
0000
0010
0000
0000
0001
,
2000
0000
0000
3000
,
0001
0000
0000
0000
0010
0000
0000
1000
,
0002
0000
0000
0003
,
1000
0000
0000
0000
0010
0000
0000
0001
,
2000
0000
0000
3000
,
0100
0000
0010
0100
,
0100
0001
1000
0000
,
0001
0010
1000
0001
,
0100
0001
1000
0000
,
1000
0010
0001
1000
,
0100
1000
0010
0000
,
0001
0010
1000
0001
,
0100
1000
0001
0000
,
0100
0001
0010
0100
,
0001
1000
1001
0000
,
1000
0010
0001
1000
,
0100
1000
0001
0000
,
0001
0010
1000
0001
,
0100
0001
0010
0000
,
1000
0010
0001
1000
,
0001
0001
1000
1000
,
0100
0100
0010
0010
,
0001
1000
0220
0330
,
0001
0010
1000
0010
,
0001
0100
1000
0010
,
0200
0300
0002
0003
,
2000
0000
0001
3001
,
0100
1000
0001
0000
,
0100
0001
1000
0000
,
0001
0010
1000
0100
,
0001
1000
1001
1001
,
0010
0000
1000
0010
,
0100
0000
0001
0010
,
1001
0000
0110
0000
,
1001
0000
0010
0010
,
2000
0000
0200
3000
,
2000
0300
0002
3003
,
0100
0000
0010
0000
,
1000
0010
0100
0001
,
1000
0010
0001
0010
,
1000
0100
0001
0010
,
0200
0300
2000
3000
,
0002
0000
1000
1003
,
0010
0001
1000
0000
,
0010
1000
0001
0000
,
1000
0010
0001
0100
,
1000
0001
1001
1001
,
0010
0000
0001
0010
,
0100
0000
1000
0010
,
1001
0000
0110
0000
,
1001
0000
0010
0010
,
0002
0000
0200
0003
,
0020
0300
2000
3030
,
0001
0000
0010
1000
,
0002
0000
0000
0003
,
1000
0000
0010
0001
,
2000
0000
0000
3000
,
0001
0000
0010
1000
,
0002
0000
0000
0003
,
0100
0000
0001
1000
,
2002
0000
0000
0000
0000
0000
0000
0000
0000
0000
0000
0000
0000
0000
0000
0000
0000
0000
0000
0000
0000
0000
0000
0000
0000
0000
0000
0000
0000
0000
0000
0000
0000
0000
0000
0000
0000
0000
0000
0000
0000
0000
0000
0000
0000
0000
0000
0000
0000
0000
0000
0000
0000
0000
0000
0000
0000
0000
0000
0000
0000
0000
0000
0000
0000
0000
0000
0000
0000
0000
0000
0000
0000
0000
0000
0000
0000
0000
0000
0000
0000
0000
0000
0000
0000
0000
0000
0000
0000
0000
0000
0000
0000
0000
0000
0000
0000
0000
0000
0000
0000
0000
0000
0000
0000
0000
0000
0000
0000
0000
0000
0000
0000
0000
0000
0000
0000
0000
0000
0000
0000
0000
0000
0000
0000
0000
0000
0000
0000
0000
0000
0000
0000
0000
0000
0000
0000
0000
0000
0000
0000
0000
0000
0000
3000
0003
0000
0000
0000
0000
0000
0000
0000
0000
0000
0000
0000
0000
0000
0000
0000
0000
0000
0000
0000
0000
0000
0000
0000
0000
0000
0000
0000
0000
0000
0000
0000
0000
0000
0000
0000
0000
0000
0000
0000
0000
0000
0000
0000
0000
0000
0000
;

//---------------dance-single - ----------------
#NOTES:
     dance-single:
     :
     Hard:
     8:
     0.454,0.597,0.411,0.344,0.000:
0000
0000
0000
0000
,
0000
0000
0000
0000
,
0000
0000
0000
0000
,
0000
0000
0000
0000
,
0000
0000
0000
0000
,
0000
0000
0000
0000
,
0000
0000
0000
0000
,
0000
0000
0000
0000
,
0000
0001
0000
0010
,
0000
1000
0000
0010
,
0001
0100
1000
0010
,
1001
0110
1001
0010
,
0001
0001
0000
0010
0000
0100
0000
1000
,
2000
0000
0100
3100
,
1000
1000
0000
0010
0000
0100
0000
0001
,
0002
0000
0100
0103
,
0001
0001
0000
0010
0000
0100
0000
1000
,
2000
0000
0100
3100
,
0010
0010
0000
0100
0000
0010
0000
0010
,
0010
1000
0001
0110
,
1000
0000
0100
0000
0001
0100
1000
0000
,
0010
1000
0001
0000
,
0001
0000
0100
0000
1000
0100
0001
0000
,
0011
1001
1100
0000
,
1000
0000
0100
0000
0001
0100
1000
0000
,
0010
0001
1000
0000
,
0010
1001
0100
1001
,
0010
0001
1100
0000
,
0001
0000
0100
0000
1000
0100
0001
0000
,
0010
0001
1000
0000
,
1000
0000
0100
0000
0001
0100
1000
0000
,
1010
1001
0101
0000
,
0001
0000
0100
0000
1000
0100
0001
0000
,
0010
1100
0010
0101
,
0010
0000
1000
0000
0100
1000
0001
0000
,
1000
0001
0220
0330
,
1000
0000
0100
0000
0001
0010
0100
0000
,
1000
0000
0010
0000
0001
0010
0100
0000
,
0020
0031
2000
3010
,
0202
0303
1000
1000
,
0010
0001
0010
0000
1100
0000
0000
0000
,
0010
1000
0010
0000
0101
0000
0000
0000
,
1000
0100
0001
0010
,
1001
0110
1001
0010
,
0100
0000
0000
0000
0001
1000
0100
0000
,
0010
0000
0000
0000
1000
0001
0100
0000
,
1010
0100
0011
0100
,
1001
0010
0100
1000
,
0202
0303
0022
0033
,
0220
0330
2200
3300
,
0010
1000
0100
1000
,
0001
0100
0010
1001
,
0001
0000
0100
0000
1000
0010
0100
0000
,
0001
0000
0010
0000
1000
0010
0100
0000
,
0020
1030
0002
0013
,
2200
3300
0001
0001
,
0010
1000
0010
0000
0202
0000
0303
0000
,
0010
0001
0010
0000
1100
0000
0000
0000
,
0001
0100
1000
0010
,
1001
0110
1001
0010
,
0100
0000
0000
0000
1000
0001
0100
0000
,
0010
0000
0000
0000
0001
1000
0100
0000
,
0011
0100
1010
0100
,
1001
0010
0100
0001
,
2200
3300
2020
3030
,
0220
0330
0202
0303
,
1000
1000
0000
0010
0000
0100
0000
0001
,
0002
0000
0100
0103
,
0001
0001
0000
0010
0000
0100
0000
1000
,
2000
0000
0100
3100
,
1000
1000
0000
0010
0000
0100
0000
0001
,
0002
0000
0100
0103
,
0010
1000
0000
0001
0000
0010
0000
0002
,
2000
0000
3003
0000
;
