#TITLE:We Found Love;
#SUBTITLE:;
#ARTIST:Rihanna ft. Calvin Harris;
#TITLETRANSLIT:;
#SUBTITLETRANSLIT:;
#ARTISTTRANSLIT:;
#GENRE:;
#CREDIT:;
#BANNER:We Found Love-bn.png;
#BACKGROUND:We Found Love-bg.png;
#LYRICSPATH:;
#CDTITLE:;
#MUSIC:We Found Love.mp3;
#OFFSET:-0.260;
#SAMPLESTART:82.720;
#SAMPLELENGTH:14.360;
#SELECTABLE:YES;
#BPMS:0.000=128.000
;
#STOPS:
;
#BGCHANGES:0.000=We Found Love.avi=1.000=1=0=0=StretchNoLoop==CrossFade==,
99999=-nosongbg-=1.000=0=0=0 // don't automatically add -songbackground-
;
#KEYSOUNDS:;
#ATTACKS:;

//---------------dance-single - ----------------
#NOTES:
     dance-single:
     :
     Beginner:
     1:
     0.094,0.127,0.029,0.000,0.000,64.000,3.000,0.000,0.000,0.000,0.000,0.094,0.127,0.029,0.000,0.000,64.000,3.000,0.000,0.000,0.000,0.000:
0000
0000
0000
0000
,
0000
0000
0000
0000
,
0000
0000
0000
0000
,
0000
0000
0000
0000
,
0010
0000
0000
0000
,
0010
0000
0000
0000
,
0100
0000
0000
0000
,
0100
0000
0000
0000
,
0001
0000
0000
0000
,
0001
0000
0000
0000
,
0100
0000
0000
0000
,
0100
0000
0000
0000
,
0010
0000
0000
0000
,
1000
0000
0000
0000
,
0100
0000
0000
0000
,
1000
0000
0000
0000
,
0001
0000
0000
0000
,
0010
0000
0000
0000
,
0001
0000
0000
0000
,
0100
0000
0000
0000
,
0010
0000
0010
0000
,
0010
0000
0000
0000
,
1000
0000
1000
0000
,
1000
0000
0000
0000
,
0100
0000
0100
0000
,
0100
0000
0000
0000
,
0001
0000
0001
0000
,
0001
0000
0000
0000
,
1001
0000
0000
0000
,
0000
0000
0000
0000
,
0110
0000
0000
0000
,
0000
0000
0000
0000
,
1000
0000
1000
0000
,
1000
0000
0000
0000
,
0001
0000
0001
0000
,
0001
0000
0000
0100
,
0100
0000
0100
0000
,
0100
0000
0100
0000
,
0100
0000
0100
0000
,
0100
0000
0000
0000
,
0010
0000
0010
0000
,
0010
0000
0010
0000
,
0010
0000
0010
0000
,
0010
0000
0000
0000
,
1001
0000
0000
0000
,
0100
0000
0000
0000
,
0010
0000
0000
0000
,
1000
1000
1000
0000
,
0000
0000
0000
0000
,
0010
0000
0010
0000
,
0010
0000
0000
0000
,
0100
0100
0100
0100
;

//---------------dance-single - ----------------
#NOTES:
     dance-single:
     :
     Easy:
     2:
     0.173,0.203,0.088,0.078,0.000,107.000,9.000,8.000,0.000,0.000,0.000,0.173,0.203,0.088,0.078,0.000,107.000,9.000,8.000,0.000,0.000,0.000:
0000
0000
0000
0000
,
0000
0000
0000
0000
,
0000
0000
0000
0000
,
0000
0000
0000
0000
,
0010
0000
0010
0000
,
0100
0000
0100
0000
,
0001
0000
0001
0000
,
1000
0000
1000
0000
,
0100
0000
0100
0000
,
1000
0000
1000
0000
,
0001
0000
0001
0000
,
0010
0000
0010
0000
,
0110
0000
0001
0000
,
0100
0000
0010
0000
,
1000
0000
0100
0000
,
0010
0000
0001
0000
,
0100
0000
0001
0000
,
1000
0000
0010
0000
,
1000
0000
0100
0000
,
0010
0000
0001
0000
,
1001
0000
0100
0000
,
1000
1000
1000
0000
,
0010
0000
1000
0000
,
0001
0001
0001
0000
,
0100
0000
0001
0000
,
0010
0010
0010
0000
,
0001
0000
1000
0000
,
0100
0100
0100
0000
,
2002
0000
0000
3003
,
0220
0000
0000
0330
,
2002
0000
0000
3003
,
0220
0000
0000
0330
,
1000
1000
1000
0000
,
0001
0001
0001
0000
,
0100
0100
0100
0000
,
0010
0010
0010
0110
,
1001
0000
0100
0000
,
1000
0000
0001
0001
,
0001
0000
0100
0000
,
0001
0000
1000
1000
,
1000
0000
0010
0000
,
1000
0000
0010
0010
,
0010
0000
0100
0000
,
0001
0000
1000
1000
,
1001
0000
0100
0000
,
1000
0100
0000
0000
,
1000
0000
0001
0000
,
0100
0001
0000
0000
,
0100
0000
0001
0000
,
0010
0100
0000
0000
,
0010
0000
0001
0000
,
1000
0100
1000
0100
;

//---------------dance-single - ----------------
#NOTES:
     dance-single:
     :
     Hard:
     8:
     0.371,0.360,0.098,0.333,0.078,221.000,10.000,34.000,0.000,0.000,0.000,0.371,0.360,0.098,0.333,0.078,221.000,10.000,34.000,0.000,0.000,0.000:
0000
0000
0000
0000
,
0000
0000
0000
0000
,
0000
0000
0000
0000
,
0000
0000
0000
0000
,
0001
0000
1000
0010
0100
0000
0001
0000
,
2000
0000
3001
0200
0000
0000
0300
0000
,
0010
0000
1000
0001
1000
0000
0100
0000
,
0020
0000
0000
0032
0000
0000
0203
0000
,
0300
0000
0010
0100
0001
0000
0010
0000
,
0200
0000
1300
0020
0000
0000
0030
0000
,
0100
0000
0001
0100
0010
0000
1000
0000
,
0200
0000
0000
2300
0000
0000
3002
0000
,
0103
0000
0001
0000
1000
0001
1000
0000
,
0100
0000
0010
0000
0001
0100
0001
0000
,
0010
0000
0001
0000
1000
0010
1000
0000
,
0010
0000
0100
0000
0001
1000
0001
0000
,
0100
0000
0010
0000
1000
0100
0001
0000
,
1000
0000
0010
0000
0100
0001
0010
0000
,
0001
0000
1000
0000
0001
0010
0100
0000
,
1000
0000
0001
0000
1000
0010
0100
0000
,
0110
0001
0100
1000
,
2010
0000
0100
3100
0000
0000
0000
0000
,
1000
0010
0100
0001
,
2001
0000
0000
3020
0000
0000
0230
0000
,
0310
0100
0001
0000
0100
0000
0001
0000
,
1002
0000
0100
0103
0000
0000
0000
0000
,
0010
0100
0001
1000
,
1020
0000
0000
0230
0000
0000
0302
0000
,
1003
0000
0000
1000
0000
0000
1000
0000
0001
0000
0000
0001
0000
0000
0001
0000
,
0100
0000
0000
0100
0000
0000
0100
0000
0010
0000
0000
0010
0000
0000
0010
0000
,
0100
0000
0000
0100
0000
0000
0100
0000
0001
0000
0000
0001
0000
0000
0001
0000
,
1000
0000
0000
1000
0000
0000
1000
0000
0100
0000
0000
0100
0000
0000
0100
0000
,
1000
0000
0000
0010
0000
0000
0100
0000
0001
0000
0000
0010
0000
0000
0001
0000
,
1000
0000
0000
0100
0000
0000
1000
0000
0010
0000
0000
0100
0000
0000
0010
0000
,
1000
0000
0000
0100
0000
0000
0010
0000
0001
0000
0000
1000
0000
0000
0010
0000
,
0100
0000
0000
0001
0000
0000
1000
0000
0000
0100
0000
0000
0010
0000
0001
0000
,
0200
0000
0310
0000
0001
0100
1000
0000
,
0020
0000
1030
0000
0100
1000
0001
0000
,
2000
0000
3100
0000
0010
0001
0100
0000
,
0002
0000
0103
0000
0010
0100
0001
0000
,
2000
0000
0010
0000
3100
1000
0010
0100
,
0020
0000
0100
0000
1030
0001
1000
0100
,
0020
0000
0001
0000
0130
0010
0001
1000
,
0002
0000
0100
0000
1003
0100
1000
0010
,
0110
1000
0010
0001
,
0102
0000
0010
0013
0000
0000
0000
0000
,
0001
0100
0010
1000
,
1002
0000
0000
0203
0000
0000
0320
0000
,
0130
0010
1000
0000
0010
0000
1000
0000
,
2001
0000
0010
3010
0000
0000
0000
0000
,
0100
0010
1000
0001
,
0201
0000
0000
0320
0000
0000
2030
0000
,
0000
0000
3000
0000
;

//---------------dance-single - ----------------
#NOTES:
     dance-single:
     :
     Medium:
     5:
     0.254,0.280,0.029,0.196,0.000,159.000,3.000,20.000,0.000,0.000,0.000,0.254,0.280,0.029,0.196,0.000,159.000,3.000,20.000,0.000,0.000,0.000: // measure 0
0000
0000
0000
0000
,  // measure 1
0000
0000
0000
0000
,  // measure 2
0000
0000
0000
0000
,  // measure 3
0000
0000
0000
0000
,  // measure 4
0000
0100
0001
1000
,  // measure 5
0200
0000
0300
0000
,  // measure 6
0000
0001
0100
0010
,  // measure 7
2000
0000
0000
3020
0000
0000
0230
0000
,  // measure 8
0300
0001
0100
0010
,  // measure 9
2000
0000
3000
0000
,  // measure 10
0000
0010
0100
0001
,  // measure 11
0020
0000
0000
0032
0000
0000
0203
0000
,  // measure 12
0310
1000
0100
0000
,  // measure 13
1000
0001
0100
0000
,  // measure 14
0010
0100
0001
0000
,  // measure 15
0010
0100
1000
0000
,  // measure 16
0010
1000
0001
0000
,  // measure 17
0100
0001
1000
0000
,  // measure 18
0100
0010
0001
0000
,  // measure 19
0100
0010
1000
0000
,  // measure 20
1001
1000
0100
0010
,  // measure 21
0002
0003
0000
0000
,  // measure 22
0001
0100
0010
1000
,  // measure 23
0200
0000
2300
0000
,  // measure 24
3010
1000
0001
0100
,  // measure 25
0020
0030
0000
0000
,  // measure 26
0100
0001
1000
0010
,  // measure 27
2000
0000
3002
0000
,  // measure 28
0103
0100
0100
0100
,  // measure 29
0010
0010
0010
0010
,  // measure 30
1000
1000
1000
1000
,  // measure 31
0001
0001
0001
0001
,  // measure 32
0010
0010
0001
0001
,  // measure 33
0100
0100
0010
0010
,  // measure 34
1000
1000
0100
0100
,  // measure 35
1000
0001
1000
0001
1000
0001
1000
0000
,  // measure 36
1010
0100
0001
1000
,  // measure 37
0001
0000
0010
0000
0100
1000
0001
0000
,  // measure 38
1000
0010
0100
0010
,  // measure 39
1000
0000
0001
0000
0010
0001
0100
0000
,  // measure 40
0010
0100
0001
1000
,  // measure 41
0010
0000
0100
0000
0010
1000
0100
0000
,  // measure 42
1000
0001
0010
0001
,  // measure 43
1000
0000
0010
0000
0100
0001
1000
0000
,  // measure 44
1001
0100
1000
0010
,  // measure 45
0200
0300
0000
0000
,  // measure 46
0010
1000
0001
0010
,  // measure 47
0002
0000
2003
0000
,  // measure 48
3010
1000
0001
0100
,  // measure 49
0020
0030
0000
0000
,  // measure 50
0100
0001
1000
0100
,  // measure 51
2000
0000
0000
3000
0020
0000
0000
0000
,  // measure 52
0030
0000
0000
0000
;

//---------------dance-single - ----------------
#NOTES:
     dance-single:
     :
     Challenge:
     13:
     0.557,0.635,0.186,0.078,0.514,371.000,19.000,8.000,0.000,0.000,0.000,0.557,0.635,0.186,0.078,0.514,371.000,19.000,8.000,0.000,0.000,0.000:
0000
0000
0000
0000
,
0000
0000
0000
0000
,
0000
0000
0000
0000
,
0000
0000
0000
0000
,
0010
0000
0000
0010
0000
0000
0010
0000
0000
1000
0000
0000
0001
0000
0100
0000
,
0010
0000
0000
0010
0000
0000
0010
0000
0000
0100
0000
0000
0001
0000
1000
0000
,
0100
0000
0000
0100
0000
0000
0100
0000
0000
1000
0000
0000
0001
0000
0010
0000
,
0100
0000
0000
0100
0000
0000
0100
0000
0000
0010
0000
0000
0001
0000
1000
0000
,
0001
0000
0000
0001
0000
0000
0001
0000
0000
1000
0000
0000
0010
0000
0100
0000
,
0001
0000
0000
0001
0000
0000
0001
0000
0000
0100
0000
0000
0001
0000
0010
0000
,
0100
0000
0000
0100
0000
0000
0100
0000
0000
0010
0000
0000
0001
0000
1000
0000
,
0100
0000
0000
0100
0000
0000
0100
0000
0000
1000
0000
0000
0010
0000
0100
0000
,
0110
0000
0000
0001
0000
0000
1000
0000
0000
0010
0100
0000
0010
0000
1000
0000
,
1100
0000
0000
1000
0000
0000
0010
0000
0000
0100
0010
0000
0100
0000
0001
0000
,
0101
0000
0000
0010
0000
0000
0001
0000
0000
1000
0100
0000
1000
0000
0010
0000
,
1010
0000
0000
0100
0000
0000
0010
0000
0000
1000
0100
0000
1000
0000
0001
0000
,
1001
0000
0000
0100
0000
0000
0010
0000
0000
0100
0001
0000
0100
0000
0010
0000
,
0110
0000
0000
0100
0000
0000
0001
0000
0000
1000
0100
0000
1000
0000
0001
0000
,
1100
0000
0000
1000
0000
0000
0010
0000
0000
0100
0010
0000
0100
0000
0001
0000
,
0101
0000
0000
1000
0000
0000
0100
0000
0000
1000
0010
0000
1000
0000
0100
0000
,
1100
1000
0010
0000
1000
0000
0001
0100
,
0002
0000
0000
0000
0100
0000
0103
0000
0000
0100
0000
0000
0010
0000
1000
0000
,
0100
1000
0001
0100
0010
0000
1000
0010
,
2010
0000
3100
0200
0000
0310
0020
0000
,
0031
0100
0001
0000
1000
0001
1000
0100
,
0020
0000
0000
0000
0001
0000
0031
0000
0000
0001
0000
0000
0100
0000
0010
0000
,
1000
0010
0100
0001
1000
0000
0010
0100
,
0210
0000
0301
0002
0000
1003
2000
0000
,
3010
0000
0000
0100
0000
0000
0001
0000
1000
0000
0000
0100
0000
0000
1000
0000
,
0010
0000
0000
0100
0000
0000
0001
0000
0010
0000
0000
1000
0000
0000
0010
0000
,
0001
0000
0000
0100
0000
0000
0010
0000
1000
0000
0000
0100
0000
0000
0001
0000
,
0100
0000
0000
1000
0000
0000
0010
0000
0100
0000
0000
0010
0000
0000
1000
0000
,
1100
0000
0000
1000
0000
0000
0001
0000
0100
0000
0000
0010
0000
0000
1000
0000
,
1010
0000
0000
1000
0000
0000
0001
0000
0010
0000
0000
0100
0000
0000
0010
0000
,
0011
0000
0000
0100
0000
0000
0001
0000
1000
0000
0000
0010
0000
0000
0100
0000
,
0001
1000
0001
1000
0001
1000
0001
1000
0001
1000
0001
1000
0001
0000
0000
0000
,
0100
0010
0000
0010
1000
0000
1000
0100
0000
0100
1000
0000
0010
0000
0100
0000
,
0001
0010
0000
0010
0001
0000
0001
1000
0000
1000
0010
0000
0100
0000
0001
0000
,
1000
0010
0000
0010
0100
0000
0100
0001
0000
0001
0010
0000
0100
0000
1000
0000
,
0010
0100
0000
0100
0001
0000
0001
0010
0000
0010
1000
0000
0010
0000
0001
0000
,
0100
0001
0000
1000
0100
0000
1000
0010
0000
0100
0010
0000
1000
0000
0100
0000
,
0010
0001
0000
1000
0100
0000
1000
0001
0000
0100
0010
0000
0100
0000
0001
0000
,
1000
0100
0000
0010
0001
0000
0100
0010
0000
0100
0001
0000
1000
0000
0100
0000
,
0010
0001
0000
0100
0010
0000
1000
0100
0000
1000
0010
0000
0100
0000
0010
0000
,
1010
0000
0100
0001
0100
0000
0010
0000
1000
0000
0001
1000
0001
0000
0010
0000
,
0100
0000
1000
0100
1000
0000
0010
0000
0100
0000
0001
1000
0001
0000
0100
0000
,
0010
0000
1000
0100
1000
0000
0010
0000
0100
0000
0010
1000
0010
0000
0100
0000
,
0001
0000
1000
0100
1000
0000
0001
0000
0010
0000
0100
0010
0100
0000
0010
0000
,
0011
0000
0100
0001
0100
0000
0010
0000
1000
0000
0001
0100
0001
0000
1000
0000
,
1010
0000
1000
0100
1000
0000
0010
0000
0100
0000
0010
1000
0010
0000
0100
0000
,
0101
0000
1000
0100
1000
0000
0010
0000
0100
0000
0001
1000
0001
0000
0010
0000
,
0110
0000
1000
0001
1000
0000
0010
0000
0100
0001
0100
0001
1000
0010
1000
0010
;
