#TITLE:MY BOY;
#ARTIST:Buono!;
#FILE:MY BOY.mp3;
#BPM:412.000;
#GAP:60;
#SAMPLESTART:91.540;
#SAMPLELENGTH:14.300;
#FREEZE:1144.000=140.000,1664.000=160.000,1668.000=160.000,1672.000=140.000,1676.000=140.000,1680.000=720.000,2300.000=440.000,2304.000=140.000,2308.000=460.000,2320.000=440.000,2324.000=140.000,2328.000=1020.000,3104.000=160.000,3108.000=160.000,3112.000=140.000,3116.000=140.000,3120.000=860.000;
#CHANGEBPM:1680.000=206.000,1748.000=412.000;
#SINGLE:MANIAC:13:
00000000
00000000
00000000
00000000
00000000
00000000
00000000
00000000
A0000030
00001000
B0000010
00009000
100000B0
0000A000
3000B!B000
0000B000
80402080
60004080
20604000
10003000
80206040
20008060
40208000
90001000
60204020
60008040
80604000
10003000
40608020
40802000
60804080
60402000
40004000
40004000
8020A!A000
0000A000
80004000
20008000
60802040
80206000
40008000
40006000
80204000
60208000
20006000
40008000
40208060
40802000
80004000
20008000
60809000
2820A000
60004000
80002000
60802080
60408000
40006000
40208000
60208000
40802000
60004000
80002000
60204020
80206000
40008000
40208000
60408000
46406460
20804020
40602080
20608020
40802080
40204060
80204080
20A!A0A062
60300070
00B00000
20A00060
00300000
40100080
00700000
20300080
00B00000
20100080
40204!4000
6!60406080
20408!8000
4!40804080
40602!2000
8!80208040
20100080
20A000B0
00300000
80700020
00100000
60300040
00B00000
80A00040
00100000
60300070
0000B000
00A00030
00001000
00900020
40802060
20842046
20826082
40648026
40846284
82604020
00408020
00608020
00406020
00804020
00406020
00802060
00802040
00602040
00402060
00608040
00408060
00402080
9000B000
00804060
3000A000
00408020
60802080
60408020
60402080
00608020
40802080
40208060
40802060
00408020
60802080
60408020
60408020
00804020
1000A000
00608020
1000B000
00804060
30001000
464000A0
B0B08040
70909040
80206040
20406020
80406040
80200080
40204060
80204000
00800040
00200040
00802080
20800040
00200040
60200080
20600080
20400060
40201000
60402820
40802060
40204080
20604020
40600080
60208020
60408000
00400060
00200080
00402040
20400080
00400060
40800040
60200080
20600040
60203000
80402420
00408020
60400080
002000A0
00B00040
00608020
40600020
00300030
00B00020
40804060
20800020
60B00010
0030007!40
00800080
00800080
00700020
60402040
6020A070
B0806020
80402040
80208040
208!80009!60
00308040
20406080
20408020
804!40001!20
00A06020
80206080
20406020
804!4000B!60
00902040
80206040
20408020
60804080
00600060
00600060
002080B!B0
00000000
B0000000
;
#SINGLE:BASIC:7:
00000000
00000000
00000000
00000000
00000000
00000000
00000000
00000000
80000080
00008000
40000040
00004000
20000020
00002000
80008000
00000000
60000000
40000000
80000000
40004000
20000000
80000000
60000000
20002000
60000000
80000000
20000000
80008000
60000000
40000000
60006000
40004000
20002000
20002000
0000B000
00000000
80000000
40000000
60000000
40000000
20000000
40000000
80008000
40004000
20000000
40000000
60000000
80000000
60000000
20000000
60006000
00000000
20000000
80000000
20000000
60000000
80000000
20000000
40004000
20002000
40000000
80000000
40000000
20000000
80000000
60000000
20002000
60006000
80000000
80000000
80000000
80000020
00000020
00000000
00B00000
00000020
00000040
00000080
00800080
00000040
00000020
00000080
00800080
00000060
00000060
00000040
00000040
00000020
00000020
00000040
00000040
00000080
00000040
00000020
00200020
00000040
00000060
00000080
00800080
00000060
00006000
00600040
00004000
004000A!A0
000000A0
00204040
80406060
80602020
80402020
00400000
00600000
00200080
00400000
00600000
00400000
00200080
00600000
00200000
00600000
00800020
00400000
00800000
00200000
00600080
00200000
00400000
00800000
00400060
00200000
00800000
00200000
00600080
00200000
00800000
00600000
00400080
00200000
00800000
00400000
00200040
00800000
00400000
00600000
00800060
00000000
B!B000B020
00200020
00200080
00800080
00800040
00400040
00400060
00600060
00600040
00000020
00000040
00800020
00600060
00000080
00000060
00000040
00000080
00800080
00800040
00400040
00400060
00600060
00600080
00800080
00800080
00000060
00000020
00800040
00200020
00000040
00000080
00400060
00000020
00000080
00000040
00600040
00600040
00000020
00000040
00600040
00600020
00000080
00000040
00600040
00600040
00000020
00000080
00000060
0000002!20
00000000
20800000
00400000
00200020
00200020
00400000
00800000
00400040
00400040
00600000
00200000
00800080
00800080
00400000
00200000
00400020
00800060
00200000
00000000
000000B!B0
00000000
B0000000
;
#SINGLE:BEGINNER:3:
00000000
00000000
00000000
00000000
00000000
00000000
00000000
00000000
80000000
00000000
80000000
00000000
20000000
00000000
20000000
00000000
60000000
00000000
40000000
00000000
20000000
00000000
40000000
00000000
80000000
00000000
40000000
00000000
60000000
00000000
40000000
00000000
20000000
00000000
0000B000
00000000
80000000
00000000
40000000
00000000
60000000
00000000
40000000
40000000
40000000
00000000
20000000
00000000
40000000
00000000
80008000
00000000
40000000
00000000
60000000
00000000
80000000
00000000
60000000
60000000
60000000
00000000
40000000
00000000
80000000
00000000
20000000
20000000
20000000
00000000
80000000
00000040
00000000
00000060
00600000
00000040
00000000
00000020
00000000
00000040
00000000
00000080
00000000
00000040
00000040
00000040
00000040
00000040
00000000
00000000
00000000
00000060
00000000
00000040
00000000
00000020
00000000
00000040
00000000
00000080
00000000
00000080
00000000
00000040
00000000
00800000
00400000
00600060
00202020
20200000
00000000
00800000
00000000
00400000
00000000
00600000
00000000
00400000
00000000
00200000
00000000
00400000
00000000
00800000
00000000
00400000
00000000
00600000
00000000
00800000
00000000
00600000
00000000
00200000
00000000
00800000
00000000
00200000
00000000
00200000
00000000
00600000
00000000
00600000
00000000
00000020
00000000
00000020
00000000
00000080
00000000
00000080
00000000
00000040
00000000
00000040
00000000
00000060
00000000
00000060
00000000
00000020
00000000
00000020
00000000
00000060
00000000
00000060
00000000
00000080
00000000
00000080
00000000
00000020
00000000
00000020
00000000
00000040
00000040
00000040
00000040
00000060
00000060
00000060
00000060
00000020
00000020
00000020
00000020
00000080
00000080
00000080
00000080
00000040
00000000
00800000
00000000
00400000
00000000
00200000
00000000
00400000
00000000
00600000
00000000
00800000
00000000
00600060
00600060
00600060
00600060
00600000
00000000
000000B0
;
#SINGLE:ANOTHER:11:
00000000
00000000
00000000
00000000
00000000
00000000
00000000
00000000
80000040
00002000
80000060
00004000
80000020
00008000
2000A!A000
0000A000
80004000
20008000
60802000
B000B000
80004000
20008000
60402000
B000B000
20004000
60002000
80402000
B000B000
20006000
40002000
80608060
20604000
20002000
20002000
8000B!B000
0000B000
80004000
20008000
60004000
20002000
40006000
20008000
40008000
20008000
40006000
80002000
40006000
20002000
60004000
20008000
6000B000
20202000
40006000
20008000
40006000
80008000
60004000
80002000
80004000
20008000
60004000
60002000
80004000
20002000
40006000
20008000
40002000
40604060
20008000
40006000
40208000
60402040
00800020
00600040
00B!B000B0
00200040
00600000
20600040
00200000
40200080
00600000
40800020
00800000
40200040
00800020
00800040
00200080
00600040
00800020
00600040
60400060
40600020
00800000
20600080
00200000
80600040
00200000
40800020
00800000
40200040
00006000
00200080
00002000
00600080
80204080
20804068
20406042
80604082
60282828
20600020
00800040
00200040
00100010
00400080
00200060
00400080
00700070
00400060
00800060
00200080
00300030
00800000
A000A000
00800000
B000B000
00200040
00800020
00600040
00B000B0
00200040
00800020
00800040
00700070
00200040
00600020
00800020
00300030
00800000
30003000
00800000
30003000
00800000
10001000
00800040
60400000
60406020
00800040
00600040
20402000
40200040
00600020
00800020
00600040
00200080
00604060
40600020
00800040
00200040
00800020
00600040
60406000
00000080
00600020
00800040
60406000
40600020
00800040
00200080
00600040
00800020
00604060
40600020
00800040
00200040
00800020
00600040
80408000
00000020
00800040
00200080
00600060
00600020
00800040
00600080
00200020
00200080
00600040
00800020
00800080
00800040
00200040
00600040
00800020
00600080
20408020
60200060
00800020
00402080
00B000B0
00200060
00800020
00406080
00B000B0
00800060
00400080
00206080
00B000B0
00800040
00600080
00204080
20804060
00800080
00800080
002000B!B0
000000B0
;
#SINGLE:SMANIAC:18:
00000000
00000000
00000000
00000000
00000000
00000000
00000000
00000000
700000B0
0000A000
30000010
00009000
10000030
00007000
3000B!B000
0000B000
80402040
60802040
80206040
B0001000
40802060
80208060
40802080
A0003000
80402080
60204020
80402080
90001000
80406080
20408060
80402080
62606460
40206020
40206020
80603!3000
00003000
80402040
60208040
60282080
40602080
40204060
40208060
40802080
40208060
20402080
40208060
40282040
60208040
20408020
80402080
60203!3030
4640B!B0B0
A0206080
60402080
60264080
40204060
80408060
40802080
40208060
20804020
80602040
20804020
80642080
60208020
60804080
60402080
60208020
62604840
62802064
20408420
40826080
60208026
40804280
60284020
80B!B0B048
407!707030
20804020
80604080
20604020
80602040
20804020
80604080
60804020
80600040
2040B!B0B0
10408020
60809!9090
30208020
6040B!B0B0
10408020
609!909040
603!303070
40204060
80204080
20608020
40602040
20804020
80604080
60804020
40602082
80206260
40848026
20804640
208680A0
A0903070
(B000806020842860)
(2080402080642480)
(2080402080624280)
(4020862842482842)
(8628400020004000)
80206080
20462082
60824062
84604080
20608020
40842046
80246026
82408020
80402080
60264024
80462084
28602080
7020B040
20806040
70203060
40848020
60424080
20868020
80464020
40842040
80428060
40682080
60462080
40248020
80428060
80642040
20482060
20802080
7020B040
20806040
70201040
80206020
A0203080
282000B0
10306824
6030A082
80484064
60262080
40204080
20600020
60208040
20406020
008000A0
00300080
00402060
20400080
00400010
00300070
00604020
40600040
20809000
40602820
62604240
82804240
80402040
60200080
20604020
60204080
002000A0
00B00020
00408060
80400020
00400070
003000B0
00804020
40600080
60203000
80402420
40802060
80204080
20A00030
00100040
80206080
20408020
60300010
00B00080
40204060
80204080
20A00030
001000B0
40204060
80204080
40208062
84248260
4080A0A0
B0802060
40204080
20628424
628000B0
00406020
80402060
20862642
862000A0
00604020
40802080
40248284
64200010
00406020
80402080
60284246
28462826
40806080
40806080
402080B!B0
000000B0
;
