#VERSION:0.83;
#TITLE:The Disappearance of Hatsune Miku;
#SUBTITLE:;
#ARTIST:cosMo@bousouP ft. Hatsune Miku;
#TITLETRANSLIT:;
#SUBTITLETRANSLIT:;
#ARTISTTRANSLIT:;
#GENRE:Vocaloid;
#ORIGIN:;
#CREDIT:;
#BANNER:;
#BACKGROUND:;
#PREVIEWVID:;
#JACKET:;
#CDIMAGE:;
#DISCIMAGE:;
#LYRICSPATH:;
#CDTITLE:;
#MUSIC:The Disappearance of Hatsune Miku.ogg;
#OFFSET:0.000000;
#SAMPLESTART:63.960167;
#SAMPLELENGTH:13.714000;
#SELECTABLE:YES;
#BPMS:0.000=240.000;
#STOPS:;
#DELAYS:;
#WARPS:;
#TIMESIGNATURES:0.000=4=4;
#TICKCOUNTS:0.000=4;
#COMBOS:0.000=1;
#SPEEDS:0.000=1.000=0.000=0;
#SCROLLS:0.000=1.000;
#FAKES:;
#LABELS:0.000=Song Start;
#BGCHANGES:8.000=The Disappearace of Hatsune Miku.avi=1.000=0=0=1=====,
99999=-nosongbg-=1.000=0=0=0 // don't automatically add -songbackground-
;
#KEYSOUNDS:;
#ATTACKS:
;

//---------------dance-single - ----------------
#NOTEDATA:;
#CHARTNAME:;
#STEPSTYPE:dance-single;
#DESCRIPTION:;
#CHARTSTYLE:;
#DIFFICULTY:Hard;
#METER:10;
#RADARVALUES:0.874868,1.122931,0.125282,0.147390,0.257933,831.000000,814.000000,17.000000,20.000000,0.000000,0.000000,0.000000,0.000000,0.000000,0.874868,1.122931,0.125282,0.147390,0.257933,831.000000,814.000000,17.000000,20.000000,0.000000,0.000000,0.000000,0.000000,0.000000;
#CREDIT:;
#NOTES:
0000
0000
0000
0000
,
0000
0000
0000
0000
,
0000
0000
0000
0000
,
0000
0000
0000
0000
,
0000
0000
0000
0000
,
0000
0000
0000
0000
,
0000
0000
0000
0000
,
0000
0000
0000
0000
,
0001
0010
0100
1000
0010
0100
0001
0000
,
1000
0100
0010
0001
0100
0010
1000
0000
,
0001
0010
0100
0010
0001
1000
0010
0000
,
1000
0100
0010
0100
1000
0010
0100
0000
,
0001
0100
0010
1000
0100
0010
0001
1000
,
0010
0100
0001
0010
0100
1000
0010
0100
,
0001
0010
0100
0010
0001
0100
0010
0100
,
0001
0010
0100
1000
0010
0100
0001
1000
,
0020
0000
0000
1030
0000
0000
0010
1000
,
0100
0000
1100
0000
0101
0000
0010
0001
,
0100
0000
0001
1000
0000
1000
0001
0000
,
2000
3200
0320
0032
,
1003
0000
0001
1000
0010
0000
0100
0000
,
0001
1000
0000
1000
0000
0100
1000
0000
,
0001
0010
0100
0010
0001
1000
0010
0100
,
0001
1000
0100
0010
0000
0001
1000
0010
,
0200
0000
0000
0301
0000
0000
1000
0000
,
0020
0000
0000
1030
0000
0000
0001
0010
,
0002
0000
2003
0000
,
3020
0000
0230
0000
,
0301
0100
0010
1000
0100
0010
0001
0100
,
0010
1000
0100
0010
0001
1000
0010
0000
,
1000
0100
1001
0000
,
0001
1000
0000
0010
0000
1000
0100
0010
,
0001
0000
1000
0020
0000
0000
0100
0000
,
0130
0000
0010
0100
0010
0000
0100
0000
,
0001
0100
0010
0000
1000
0100
0010
0000
,
0001
1000
0010
0000
1000
0100
0010
0000
,
0001
0001
0100
0000
0001
0000
1000
0010
,
1000
0001
0010
0001
,
1000
0000
0010
0100
0000
0100
0001
0000
,
1000
0100
0010
0000
0001
1000
0010
0100
,
0001
0000
0100
0020
0000
0000
1000
0000
,
1030
0000
0010
1000
0100
1000
0001
0100
,
0010
0000
0100
0001
0000
0001
1000
0000
,
0010
0000
1000
0000
0100
0010
0001
0000
,
1000
0000
1000
0000
0100
1000
0010
0000
,
0100
0001
0100
0000
0010
1000
0010
0000
,
1000
0100
0010
0001
0100
0010
1000
0000
,
0001
0010
0001
1000
0100
1000
0010
0100
,
0000
0000
1001
0000
0110
0000
1000
0100
,
0000
0000
1000
0100
0010
0001
0100
0010
,
1000
0000
0001
0000
1000
0010
1000
0000
,
0001
0010
0001
0000
1000
0001
1000
0000
,
0001
0000
1000
0000
0010
0100
0001
0000
,
0010
0100
1000
0000
0010
0100
0001
0000
,
1000
0100
1000
0010
0100
0001
1000
0001
,
0010
0100
0010
0001
1000
0010
0100
0000
,
0001
0100
0001
0100
0010
0000
1000
0000
,
0100
1000
0100
1000
0010
0000
0100
0000
,
1001
0000
1000
0100
0010
0001
1000
0010
,
1000
0001
0101
0000
0110
0000
1010
0000
,
0001
1000
0010
0100
0001
1000
0100
0000
,
1000
0100
1000
0100
0010
0001
1000
0000
,
1010
0000
0000
0001
0000
0000
0010
0000
,
0100
0110
0000
0000
1000
0100
0010
0001
,
0012
0000
0000
1003
0000
0000
0001
1000
,
0010
0000
1100
0000
0101
0000
1000
0001
,
0100
0000
0010
1000
0000
1000
0001
0000
,
2000
3200
0320
0032
,
0103
0000
0001
0000
1000
0010
0100
0000
,
0001
0010
0100
1000
0000
1000
0001
0000
,
1000
0000
0100
0010
0000
0010
0001
0000
,
1000
0010
0100
0001
1000
0010
1000
0000
,
0001
0100
0010
1000
0100
0010
0001
1000
,
0010
0100
0001
0010
0100
1000
0010
0100
,
0010
1000
0100
1000
0010
0100
0001
0010
,
0100
0010
0001
1000
0010
0100
0001
1000
,
0100
0010
0001
1000
0010
0100
0001
1000
,
0100
0010
0001
1000
0010
1000
0100
0010
,
0001
0000
1000
0100
1000
0100
1000
0000
,
0001
0100
0010
0000
1000
0100
0010
0000
,
0001
0010
0100
0010
0001
0010
0100
0010
,
0001
0010
0100
0010
0001
0010
0100
0010
,
0001
0100
1000
0100
0001
0100
1000
0100
,
0001
0100
1000
0100
0001
0100
1000
0100
,
0010
1000
0100
1000
0010
1000
0100
1000
,
0010
1000
0100
1000
0010
1000
0100
1000
,
0001
0010
1000
0010
0001
0010
1000
0010
,
0001
0010
1000
0010
0001
0010
1000
0010
,
0001
0100
0010
1000
0100
0010
0001
1000
,
0010
0100
0001
1000
0010
0100
0010
0100
,
0001
0010
0100
1000
0010
0100
0001
0010
,
0100
1000
0001
0100
0010
1000
0010
1000
,
0001
0100
0010
0100
0001
0010
0100
1000
,
0010
0100
0001
0010
0100
1000
0100
1000
,
0001
0100
0010
0100
0001
1000
0100
0010
,
0001
1000
0010
0100
0001
1000
0001
1000
,
0010
0010
0100
0001
1000
0100
0010
0001
,
1000
0000
0000
0010
0000
0000
0100
0000
0000
0001
0000
0000
1000
0000
0100
0000
1000
0000
0001
0000
0100
0000
0001
0000
,
1000
1000
0100
1000
0010
0100
0001
1000
,
0100
0000
0000
0010
0000
0000
0001
0000
0000
1000
0000
0000
0010
0000
0100
0000
0010
0000
1000
0000
0100
0000
1000
0000
,
0001
0001
0010
0100
0010
0001
1000
0010
,
0100
0000
0000
0001
0000
0000
1000
0000
0000
0010
0000
0000
0100
0000
0001
0000
0100
0000
0010
0000
1000
0000
0010
0000
,
0100
0100
0001
0010
0100
1000
0010
0100
,
0010
0000
0000
1000
0000
0000
0001
0000
0000
1000
0000
0000
0001
0000
0010
0000
0001
0000
1000
0000
0100
0000
1000
0000
,
0010
0000
0000
1000
0100
1000
0100
0000
0000
0010
0001
0010
,
0001
0000
0000
1000
0010
1000
0010
0000
0000
1000
0001
1000
,
0001
0000
0000
0001
0100
0001
0100
0000
0000
0010
1000
0010
,
1000
0000
0000
0001
0010
0001
0010
0000
0000
0100
1000
0001
,
0100
0000
0000
0010
1000
0100
0010
0000
0000
0001
1000
0010
,
0100
0000
0000
0001
1000
0100
0010
0000
0000
0001
0100
0010
,
1000
0000
0000
0001
0010
0100
1000
0000
0000
0001
0100
0010
,
1000
0000
0000
0001
1000
0100
0010
0001
0100
0010
1000
0001
,
0100
0000
0110
0100
,
0001
1000
0010
0000
1000
0000
0001
0000
,
0010
0011
0011
0100
,
0010
0001
1000
0000
0010
1000
0001
0000
,
1000
0100
0010
0001
0100
0010
1000
0100
,
0010
0001
0100
0010
0100
0001
0010
0100
,
1000
0001
0100
0010
1000
0100
0010
0001
,
0100
0010
0100
0010
0100
0010
0100
0010
,
1000
1000
0100
1000
0010
0100
0001
1000
,
0001
0001
0010
0001
0100
0010
1000
0001
,
0100
0100
0010
0100
0001
1000
0100
1000
,
0010
0010
0100
0001
1000
0100
0010
0001
,
1000
0000
0100
0000
1000
0000
0100
0000
1000
0000
0100
0000
0010
0000
0000
0001
0000
0000
1000
0000
0000
0010
0000
0000
,
0100
0000
0001
0000
0100
0000
0001
0000
0100
0000
0001
0000
1000
0000
0000
0010
0000
0000
1000
0000
0000
0001
0000
0000
,
0100
0000
0010
0000
0100
0000
0010
0000
0100
0000
0010
0000
1000
0000
0000
0100
0000
0000
0010
0000
0000
0001
0000
0000
,
1000
0100
1000
0100
1000
0100
0010
0001
0010
0001
0010
0002
,
2000
0000
0000
0000
,
0000
0000
0000
0000
,
0000
0000
0000
0000
,
0000
0000
0000
0000
0000
0000
0000
0000
0000
0000
0000
0003
0000
0000
0000
0000
0000
0000
0000
0000
0000
0000
0000
0000
,
0000
0000
3000
0000
;

//---------------dance-single - ----------------
#NOTEDATA:;
#CHARTNAME:;
#STEPSTYPE:dance-single;
#DESCRIPTION:;
#CHARTSTYLE:;
#DIFFICULTY:Challenge;
#METER:15;
#RADARVALUES:1.159121,1.611162,0.221086,0.051587,1.164385,1101.000000,1071.000000,30.000000,7.000000,0.000000,0.000000,0.000000,0.000000,0.000000,1.159121,1.611162,0.221086,0.051587,1.164385,1101.000000,1071.000000,30.000000,7.000000,0.000000,0.000000,0.000000,0.000000,0.000000;
#CREDIT:Ben Speirs;
#NOTES:
0000
0000
0000
0000
,
0000
0000
0000
0000
,
0000
0000
0000
0000
,
0000
0000
0000
0000
,
0000
0000
0000
0000
,
0000
0000
0000
0000
,
0000
0000
0000
0000
,
0000
0000
0000
0000
,
1000
0100
1000
0001
0100
0001
1000
0100
1000
0001
0100
0001
,
1000
0100
1000
0100
0010
0100
0010
0001
0010
0001
0100
0001
,
1000
0010
1000
0001
0010
0001
1000
0010
1000
0001
0010
0001
,
1000
0010
1000
0010
0100
0010
0100
0001
0100
0001
1000
0001
,
1000
0100
0010
0001
0100
0010
1000
0100
0010
0001
0100
0010
,
1000
0100
0010
0100
0010
0001
0010
0001
1000
0001
1000
0010
,
2000
0000
0000
3001
0010
0100
1000
0010
0100
0001
0010
0100
,
1000
0010
0100
0001
0010
0100
1000
0010
0100
0001
0000
0000
,
1000
0000
1010
0000
0010
1000
0100
0010
,
0001
0000
0010
0000
0100
0010
0001
0000
,
0100
0001
0100
0010
1000
0001
0100
0000
,
0001
1000
0010
0000
1000
0001
0010
0100
,
1000
0001
0011
0110
,
0100
0010
0001
1000
0010
1000
0001
0000
,
1000
0100
0010
0001
0100
0010
0100
0001
,
0010
0100
1000
0001
1000
0010
0100
0001
,
1000
0000
1010
0000
0010
1000
0100
0010
,
0001
0000
0011
0000
0010
0001
0100
0010
,
1000
0100
0010
0001
0100
0010
1000
0001
,
1000
0001
0100
0010
1000
0001
1000
0001
,
0100
0000
0101
0000
0010
0100
0001
0000
,
0010
0000
0011
0000
0001
0010
0100
1000
,
1001
0100
1001
0000
,
0101
0000
0000
0000
1100
0000
0000
0000
1000
0000
0100
0010
0100
0000
0010
0000
,
0001
0000
1000
0100
0000
0000
1000
0010
,
0100
0001
1000
0100
0010
0001
1000
0000
,
0001
0100
0010
1000
0100
0010
0001
0010
,
0100
1000
0001
0100
0010
1000
0001
0000
,
0100
0010
1000
0100
0010
0001
0100
0010
,
1000
0100
1000
0010
0100
0001
0010
0100
,
0010
0001
0100
0010
1000
0100
0010
0001
,
1000
0010
0100
0001
1000
0010
0100
0000
,
0001
0010
0100
1000
0001
0100
0010
1000
,
0001
1000
0010
0100
0001
1000
0100
0010
,
0001
1000
0010
0100
0001
1000
0100
1000
,
0010
0100
0001
1000
0010
0100
0001
0000
,
0100
0010
0100
0001
0010
0100
0010
0001
,
1000
0010
0100
0001
1000
0010
0100
0001
,
1000
0100
1000
0010
0100
0001
1000
0100
,
0010
0001
1000
0010
0100
0001
1000
0001
,
0000
0000
1010
0000
0011
0000
1000
0100
,
0010
0001
1000
0010
0100
0000
0001
0000
,
0100
0010
0100
0000
0001
1000
0001
0000
,
1000
0100
0010
0000
0001
1000
0010
0000
,
0100
0001
0100
0010
1000
0100
0010
0001
,
0100
0010
1000
0100
0010
0001
0100
0000
,
0110
0010
1010
1000
,
1100
0100
0110
0010
,
0001
0010
0100
0000
0010
0001
1000
0000
,
0010
1000
0001
0100
0010
1000
0001
0000
,
1001
0000
1000
0100
0010
0001
1000
0010
,
0100
0001
0101
0000
1010
0000
1001
0000
,
1000
0100
0010
0001
0100
0010
1000
0001
,
1000
0010
0100
0001
1000
0010
0100
0000
,
0001
0000
0100
0010
0100
0000
0001
0000
1000
0100
1000
0100
1000
0100
1000
0100
,
1000
0100
1000
0100
1000
0000
0001
0000
1000
0000
0000
0000
0001
0000
0000
0000
,
2100
0000
0100
3001
0000
0001
1000
0001
,
0100
0000
0011
0000
1010
0000
0001
1000
,
0010
0000
0100
0001
0100
0001
1000
0000
,
1002
0023
0230
2300
,
3010
0000
1000
0000
0001
0100
0010
0010
,
1000
0100
0010
0001
0100
0001
1000
0000
,
0001
0000
1000
0100
0010
0001
1000
0000
,
0010
0100
0001
0100
0010
1000
0001
0000
,
1000
0000
0100
1000
0010
0000
0100
0000
0001
0000
1000
0000
0100
0000
0010
0000
,
0001
0000
0100
0001
1000
0000
0010
0000
1000
0000
0100
0000
0010
0000
0001
0000
,
0100
0000
0010
0100
0001
0000
1000
0000
0100
0000
0010
0000
0001
0000
1000
0000
,
0010
0000
1000
0100
0010
0000
0001
0000
0100
0000
0010
0000
1000
0000
0001
0000
,
0100
0000
0010
1000
0100
0000
0010
0001
0100
0000
0010
1000
0100
0000
0010
0001
,
0100
0001
1000
1000
0100
0010
0001
1000
,
1001
0000
1000
0100
0010
0001
1001
0000
,
0001
0000
0100
0000
0010
0000
0000
0000
1000
0100
1000
0100
0010
0001
0010
0001
,
1000
0100
1000
0100
1000
0100
1000
0100
1000
0100
1000
0100
,
0010
0001
1000
0010
0100
0001
1000
0100
0010
0001
1000
0001
,
0100
0010
0100
0010
0100
0010
0100
0010
0100
0010
0100
0010
,
1000
0100
1000
0010
0100
0001
1000
0100
0010
0001
0010
0100
,
1000
0001
1000
0001
1000
0001
1000
0001
1000
0001
1000
0001
,
0100
0010
1000
0100
0010
0001
0100
0001
1000
0010
1000
0100
,
0010
0001
0010
0001
0010
0001
0010
0001
0010
0001
0010
0001
,
1000
0010
0100
0010
1000
0100
1000
0001
0010
0100
1000
0001
,
0100
0010
0100
0001
1000
0100
0010
0001
1000
0010
0100
0001
,
1000
0100
1000
0010
0100
0001
1000
0100
0010
0001
1000
0010
,
0100
0001
0100
0010
1000
0100
0010
0001
0100
0010
1000
0001
,
0010
0100
0010
0001
0100
0010
1000
0010
0100
0001
1000
0010
,
0100
0001
0100
0010
1000
0100
0010
0001
0100
0010
1000
0001
,
0010
0100
0010
0001
1000
0010
0100
0001
1000
0100
0010
0001
,
1000
0100
1000
0001
0100
0010
1000
0100
0010
0001
1000
0010
,
0100
0001
0100
0010
1000
0100
0010
0001
1000
0010
0100
0001
,
1000
0100
0010
0000
0001
0000
1000
0000
0010
0000
0100
0000
0001
0000
1000
0000
,
0100
0010
0001
0000
1000
0000
0010
0000
0100
0000
0010
0000
1000
0000
0100
0000
,
0010
0001
0100
0000
0001
0000
1000
0000
0100
1000
0001
0000
0100
0000
0010
0000
,
1000
0100
0010
0000
0001
0000
0100
0000
0010
0000
1000
0000
0100
0000
0010
0000
,
0100
0000
0000
1000
0000
0000
0010
0000
0000
0000
0000
0000
1000
0000
0000
0000
0100
0000
0000
0000
0010
0000
0000
0000
0001
0000
0000
0000
0100
0000
0000
0000
0010
0000
0000
0000
1000
0000
0000
0000
0100
0000
0000
0000
0010
0000
0000
0000
,
0001
0000
0000
1000
0000
0000
0010
0000
0000
0000
0000
0000
1000
0000
0000
0000
0001
0000
0000
0000
0010
0000
0000
0000
0100
0000
0000
0000
1000
0000
0000
0000
0010
0000
0000
0000
0100
0000
0000
0000
0001
0000
0000
0000
1000
0000
0000
0000
,
0010
0000
0000
0100
0000
0000
0001
0000
0000
0000
0000
0000
1000
0000
0000
0000
0100
0000
0000
0000
0010
0000
0000
0000
0001
0000
0000
1000
0000
0000
0100
0000
0000
0000
0000
0000
1000
0000
0000
0000
0010
0000
0000
0000
0100
0000
0000
0000
,
0001
0000
0010
0000
0100
0000
1000
0000
0010
0100
0010
0100
0001
1000
0001
1000
,
0010
0000
1000
0000
0100
1000
0100
1000
0001
0000
1000
0000
0010
0100
0010
0100
,
0001
0000
1000
0000
0001
0100
0001
0100
0010
0000
1000
0000
0001
0010
0001
0010
,
0100
0000
1000
0000
0010
1000
0010
1000
0100
0000
0010
0000
0001
1000
0001
1000
,
0100
0000
1000
0000
0001
0010
0001
0010
0100
0000
1000
0000
0010
0100
0001
1000
,
0010
0000
0100
0000
0001
0010
0100
1000
0010
0000
1000
0000
0001
1000
0100
0010
,
0001
0000
1000
0000
0010
1000
0010
0100
0001
0000
1000
0000
0001
0010
0001
1000
,
0100
0000
1000
0000
0001
0100
0010
1000
0100
0000
1000
0000
0001
0010
0001
1000
,
0100
0000
1000
0000
0010
0100
0001
1000
0100
0000
1000
0000
0001
0100
0010
1000
,
0100
0000
1100
0000
,
0001
1000
0000
0001
0100
0010
0000
0000
,
0100
0101
1001
0010
,
1000
0100
0010
0000
0001
1000
0010
0000
,
1000
0100
0010
0001
0100
0010
1000
0100
,
0010
0001
0100
0010
1000
0001
0100
0000
,
0001
0010
0100
1000
0010
0100
0001
1000
,
0100
0000
0010
0000
0001
0000
1000
0000
0010
0100
0010
0100
0001
0010
0001
0010
,
0100
0000
1000
0100
1000
0000
0100
1000
0100
0000
1000
0100
1000
0000
0100
1000
,
0001
0000
0100
0001
0100
0000
0001
0100
0001
0000
0100
0001
0100
0000
0001
0100
,
0010
0000
1000
0010
1000
0000
0010
1000
0010
0000
1000
0010
1000
0000
0010
1000
,
0001
0000
0010
0001
0010
0000
0001
0010
0001
0000
0010
0001
0010
0000
0001
0000
,
1000
0100
0010
0100
1000
0100
0010
0100
1000
0100
0010
0100
1000
0000
0000
0000
,
0001
0010
0100
0010
0001
0010
0100
0010
0001
0010
0100
0010
0001
0000
0000
0000
,
1000
0100
1000
0100
0010
0001
0010
0001
0100
0010
0100
0010
1000
0001
1000
0001
,
1000
0100
0010
0001
0100
0010
1000
0100
0010
0001
0100
0010
1000
0100
0010
0001
,
2000
0000
0000
0000
,
0000
0000
0000
0000
,
0000
0000
0000
0000
,
0000
0000
0000
0000
,
0000
0000
3000
0000
;

//---------------dance-double - ----------------
#NOTEDATA:;
#CHARTNAME:;
#STEPSTYPE:dance-double;
#DESCRIPTION:;
#CHARTSTYLE:;
#DIFFICULTY:Challenge;
#METER:15;
#RADARVALUES:1.112798,1.599002,0.257933,0.103173,0.998570,1057.000000,1022.000000,35.000000,14.000000,0.000000,0.000000,0.000000,0.000000,0.000000,1.112798,1.599002,0.257933,0.103173,0.998570,1057.000000,1022.000000,35.000000,14.000000,0.000000,0.000000,0.000000,0.000000,0.000000;
#CREDIT:Ben Speirs;
#NOTES:
00000000
00000000
00000000
00000000
,
00000000
00000000
00000000
00000000
,
00000000
00000000
00000000
00000000
,
00000000
00000000
00000000
00000000
,
00000000
00000000
00000000
00000000
,
00000000
00000000
00000000
00000000
,
00000000
00000000
00000000
00000000
,
00000000
00000000
00000000
00000000
,
00010000
00001000
00010000
00000100
00001000
00000100
00010000
00001000
00010000
00000100
00001000
00000100
,
00010000
00001000
00100000
00010000
01000000
00100000
10000000
01000000
,
10000000
00100000
10000000
00010000
00100000
00010000
10000000
00100000
10000000
00010000
00100000
00010000
,
10000000
01000000
00010000
01000000
00100000
00001000
00010000
00000100
,
00001000
00000010
00001000
00000001
00000100
00000001
00001000
00000010
00001000
00000001
00000100
00000001
,
00000010
00000100
00000100
00010000
00001000
00010000
00001000
01000000
,
00020000
00000000
00000000
10030000
01000000
00100000
00010000
01000000
00100000
10000000
00100000
01000000
,
00010000
00000000
00100000
00000000
00001000
00000000
00010000
00000000
00000100
00000000
00001000
00000000
00000010
00000000
00000000
00000010
00000000
00000000
00000100
00000000
00000000
00000000
00000000
00000000
,
00000101
00000000
00000001
00000100
00000010
00001000
00000100
00000010
,
00000002
00000000
00002003
00000000
00003020
00000000
00000130
00000001
,
00001000
00000000
00000010
00001000
00000000
00001000
00000100
00010000
,
00001000
00010000
00011000
00001000
,
00110000
00000000
00100000
00010000
01000000
00000000
00100000
00000000
,
10000000
00100000
00000000
00100000
00000000
01000000
00010000
00000000
,
10000000
00100000
01000000
00010000
00100000
01000000
10000000
00010000
,
01000000
00100000
10000000
01000000
00100000
00010000
10000000
00000000
,
10100000
00000000
10000000
00100000
01000000
00010000
00100000
01000000
,
20000000
00000000
30020000
00000000
02030000
00000000
03100000
10000000
,
00010000
00000000
01000000
00010000
00000000
00010000
00100000
00001000
,
00010000
00001000
00011000
00010000
,
00001100
00000000
00000100
00001000
00000010
00000000
00000200
00000000
,
00000310
00000000
00001000
00000100
00000010
00000000
00000001
00000000
,
00000011
00000000
00001010
00000000
,
00000001
00000100
00000010
00001000
00000100
00010000
00001000
00100000
,
00010000
00000000
01000000
00200000
00000000
00000000
10300000
00100000
,
01000000
00010000
01000000
00100000
10000000
01000000
00100000
00000000
,
00010000
00100000
01000000
10000000
00010000
01000000
00100000
00000000
,
01000000
00010000
00100000
00001000
00010000
00000100
00001000
00000000
,
00000010
00000010
00000000
00000000
00000100
00000000
00000001
00000100
,
00000010
00000000
00001000
00000100
00000010
00000000
00000001
00000000
,
00001000
00000100
00001000
00000010
00000100
00000001
00001000
00000000
,
00000001
00000100
00000010
00000000
00001000
00000100
00000010
00000000
,
00000001
00000100
00000010
00001000
00000100
00000000
00010000
00000000
,
00001000
00000000
00010000
00001000
00100000
00001000
01000000
00000000
,
00010000
01000000
00100000
10000000
01000000
00100000
00010000
00000000
,
10000000
00000000
00100000
01000000
00100000
00000000
10000000
00000000
,
00010000
00000000
00100000
01000000
00100000
00000000
00010000
10000000
,
00100000
00000000
10000000
01000000
00100000
00000000
00010000
00000000
,
01000000
00010000
00100000
00001000
00010000
00000000
00000100
00001000
,
00000010
00000000
00000100
00000000
00000001
00001000
00000010
00001000
,
00000000
00000000
00000101
00000000
00001010
00000000
00000001
00000100
,
00000010
00001000
00000100
00000010
00000001
00000000
00001000
00000000
,
00000010
00001000
00000100
00010000
00001000
00010000
00000100
00000000
,
00001000
00000010
00000100
00000001
00001000
00000010
00000100
00000000
,
00000001
00000100
00000010
00000000
00001000
00000100
00010000
00000000
,
00001000
00010000
00001000
00100000
00010000
00000000
01000000
00000000
,
00020000
10030000
00200000
01300000
,
00020000
10030000
20000000
30100000
,
10100000
00000000
00100000
10000000
00000000
10000000
01000000
00000000
,
00100000
00000000
00010000
00100000
01000000
00000000
00100000
00000000
,
00110000
00000000
10000000
01000000
00010000
00001000
00000010
00000001
,
00000100
00000010
00000110
00000000
00000110
00000000
00001001
00000000
,
00000001
00000100
00000010
00001000
00000100
00000010
00000001
00000000
,
00001000
00000010
00001000
00000001
00000100
00000010
00001000
00000000
,
00000001
00000100
00000001
00000000
00000100
00000000
00000001
00000100
00000001
00000000
00000100
00000000
00000010
00000100
00000010
00000100
,
00000010
00000100
00000010
00000100
00000010
00000000
00001000
00000000
00000001
00000000
00000000
00000000
00001001
00000000
00000000
00000000
,
00001100
00000000
00000100
00000010
00000000
00000010
00000001
00000100
,
00000010
00000000
00001000
00000100
00001000
00000000
00000001
00000100
,
00000010
00000100
00000001
00001000
00000010
00001000
00000100
00000000
,
00001100
00010000
00010100
00001100
,
00000101
00000000
00000100
00000000
00000010
00001000
00000100
00000010
,
00000001
00000100
00000010
00001000
00000100
00001000
00000001
00000000
,
00000100
00000010
00001000
00000000
00000100
00010000
00001000
00010000
,
00001000
00101000
00101000
00110000
,
10000000
01000000
10000000
00000000
00100000
00000000
01000000
00000000
00010000
00000000
10000000
00000000
00100000
00000000
01000000
00000000
,
00010000
00100000
00010000
00000000
01000000
00000000
00100000
00000000
10000000
00000000
01000000
00000000
00100000
00000000
00010000
00000000
,
01000000
00100000
01000000
00000000
00010000
00000000
10000000
00000000
00100000
01000000
00100000
00000000
10000000
00000000
01000000
00000000
,
00100000
00010000
00100000
00000000
01000000
00000000
10000000
00000000
00100000
00000000
01000000
00000000
00010000
00000000
10000000
00000000
,
00100000
01000000
00100000
00000000
01000000
00000000
00010000
00000000
00100000
00000000
00010000
00000000
01000000
00000000
00001000
00000000
,
00010000
00001000
00010000
00000000
00000100
00000000
00010000
00000000
00000010
00000000
00001000
00000000
00000001
00000000
00001000
00000000
,
00001001
00000000
00000001
00000010
00000100
00001000
00000001
00000100
,
00000010
00001000
00001010
00000000
00001100
00000000
00000101
00000000
,
00000001
00000100
00000001
00001000
00000100
00001000
00000010
00000100
00000010
00001000
00000100
00001000
,
00000001
00000100
00000010
00001000
00000100
00000010
00000001
00000100
00000010
00001000
00000100
00010000
,
00001000
00010000
00001000
00100000
00010000
00100000
00001000
00010000
00001000
00100000
00010000
00100000
,
00010000
01000000
00100000
10000000
01000000
00100000
00010000
01000000
00100000
10000000
01000000
00100000
,
00010000
01000000
00010000
10000000
00100000
10000000
00010000
00100000
00010000
10000000
01000000
10000000
,
00010000
01000000
00100000
10000000
01000000
00100000
00010000
01000000
00001000
00010000
00000100
00001000
,
00000010
00000100
00000010
00001000
00000100
00001000
00000001
00000010
00000001
00001000
00000010
00001000
,
00000001
00000100
00000010
00001000
00000100
00010000
00001000
00100000
00010000
01000000
00100000
10000000
,
01000000
00100000
01000000
00100000
00010000
00100000
00001000
00100000
00001000
00010000
00001000
00010000
,
00000100
00001000
00000010
00000100
00000001
00000010
00000100
00001000
00000001
00000100
00000010
00001000
,
00000100
00001000
00000100
00010000
00000100
00010000
00001000
00010000
00001000
00100000
00001000
00100000
,
00010000
01000000
00100000
10000000
01000000
00100000
00010000
01000000
00100000
10000000
01000000
00100000
,
00010000
01000000
00010000
00100000
00001000
00100000
00000100
00010000
00000100
00001000
00000010
00001000
,
00000001
00000100
00000010
00001000
00000100
00000010
00000001
00000100
00000010
00001000
00000100
00010000
,
00001000
00010000
00001000
00100000
00010000
00100000
01000000
00100000
01000000
00100000
10000000
00100000
,
01000000
00100000
00010000
01000000
00100000
10000000
01000000
00100000
00010000
10000000
00100000
01000000
,
00010000
01000000
00010000
00000000
10000000
00000000
00100000
00000000
10000000
01000000
10000000
00000000
00100000
00000000
01000000
00000000
,
00010000
00100000
00010000
00000000
01000000
00000000
00001000
00000000
00010000
00001000
00010000
00000000
00000100
00000000
00001000
00000000
,
00000010
00000100
00000010
00000000
00001000
00000000
00000100
00000000
00000010
00000100
00000010
00000000
00000001
00000000
00001000
00000000
,
00000010
00001000
00000010
00000000
00001000
00000000
00000001
00000000
00000100
00000010
00000100
00000000
00000001
00000000
00001000
00000000
,
00000001
00000010
00000100
00000000
00001000
00000000
00000001
00000000
00000100
00000010
00001000
00000000
00000100
00000000
00010000
00000000
,
00001000
00100000
00010000
00000000
01000000
00000000
00001000
00000000
00010000
00001000
00100000
00000000
00010000
00000000
01000000
00000000
,
00100000
10000000
01000000
00000000
00100000
00000000
00010000
00000000
10000000
00100000
01000000
00000000
00010000
00000000
10000000
00000000
,
01000000
00100000
00010000
00000000
10000000
00000000
00100000
00000000
01000000
00010000
10000000
00000000
00100000
00000000
01000000
00000000
,
00010000
01000000
00010000
01000000
00100000
00000000
10000000
00000000
01000000
00100000
01000000
00100000
00010000
00000000
10000000
00000000
,
00100000
10000000
00100000
10000000
00010000
00000000
00100000
00000000
00001000
00010000
00001000
00010000
00000100
00000000
00001000
00000000
,
00000010
00001000
00000010
00001000
00000001
00000000
00000010
00000000
00000001
00000100
00000001
00000100
00000010
00000000
00001000
00000000
,
00000100
00001000
00000100
00001000
00000010
00000000
00000100
00000000
00000001
00001000
00000001
00001000
00000010
00000000
00000100
00000000
,
00000001
00000100
00000010
00000100
00000001
00000000
00001000
00000000
00000010
00001000
00000100
00001000
00000010
00000000
00001000
00000000
,
00000100
00010000
00001000
00010000
00000100
00000000
00001000
00000000
00000010
00000100
00000010
00000100
00000001
00000000
00000100
00000000
,
00000010
00001000
00000100
00001000
00000010
00000000
00010000
00000000
00001000
00010000
00001000
00010000
00001000
00000000
00100000
00000000
,
00010000
00100000
01000000
00100000
00010000
00000000
10000000
00000000
00100000
10000000
00100000
10000000
00010000
00000000
10000000
00000000
,
01010000
00000000
10000000
00100000
01000000
00010000
10000000
01000000
,
00100000
00010000
01000000
00100000
01000000
00010000
10000000
00100000
,
01000000
01000000
00010000
00100000
00001000
00010000
00000100
00001000
,
00000010
00000010
00001000
00000100
00000010
00000001
00000100
00000010
,
00001010
00001000
00000010
00000110
00000100
00000001
00000101
00000100
,
00000010
00000100
00000001
00000010
00000100
00000100
00001000
00000010
,
00001010
00001000
00000100
00010100
00010000
00001000
00011000
00001000
,
00100000
00000000
00010000
00000000
01000000
00000000
00100000
00000000
10000000
01000000
10000000
01000000
00100000
00010000
00100000
00010000
,
10000000
00000000
01000000
10000000
01000000
00000000
10000000
01000000
10000000
00000000
01000000
10000000
01000000
00000000
10000000
01000000
,
00100000
00000000
00010000
00100000
00010000
00000000
00100000
00010000
00100000
00000000
00010000
00100000
00010000
00000000
00100000
00001000
,
00010000
00000000
00001000
00010000
00001000
00000000
00010000
00001000
00010000
00000000
00001000
00010000
00001000
00000000
00010000
00000100
,
00001000
00000000
00000100
00001000
00000100
00000000
00001000
00000100
00001000
00000000
00000100
00001000
00000100
00000000
00001000
00000100
,
00000010
00000001
00000010
00000100
00000010
00000001
00000010
00000100
00000010
00000001
00000010
00000100
00000010
00000000
00000000
00000000
,
00000001
00000100
00000010
00000100
00000001
00000100
00000010
00000100
00000001
00000100
00000010
00000100
00000001
00000000
00000000
00000000
,
00001000
00000010
00001000
00000010
00010000
00000100
00010000
00000100
00010000
00001000
00010000
00001000
00100000
00001000
00100000
00010000
,
00100000
00010000
00100000
00010000
10000000
00010000
10000000
00010000
10000000
00100000
01000000
00010000
00100000
01000000
10000000
00010000
,
02000000
00000000
00000000
00000000
,
00000000
00000000
00000000
00000000
,
00000000
00000000
00000000
00000000
,
00000000
00000000
03100000
00000000
;

//---------------dance-single - ----------------
#NOTEDATA:;
#CHARTNAME:;
#STEPSTYPE:dance-single;
#DESCRIPTION:;
#CHARTSTYLE:;
#DIFFICULTY:Medium;
#METER:8;
#RADARVALUES:0.580087,0.775274,0.198977,0.007370,0.000000,551.000000,524.000000,27.000000,1.000000,0.000000,0.000000,0.000000,0.000000,0.000000,0.580087,0.775274,0.198977,0.007370,0.000000,551.000000,524.000000,27.000000,1.000000,0.000000,0.000000,0.000000,0.000000,0.000000;
#CREDIT:Ben Speirs;
#NOTES:
0000
0000
0000
0000
,
0000
0000
0000
0000
,
0000
0000
0000
0000
,
0000
0000
0000
0000
,
0000
0000
0000
0000
,
0000
0000
0000
0000
,
0000
0000
0000
0000
,
0000
0000
0000
0000
,
1000
0100
0010
0001
,
0100
0000
0010
0000
1000
0010
1000
0000
,
0001
1000
0010
0100
,
0001
0000
1000
0000
0001
0100
0001
0000
,
0100
0010
1000
0100
,
0010
0000
0001
0000
1000
0100
1000
0000
,
0001
1000
0010
0100
,
0001
0000
1000
0000
0010
0100
0010
0000
,
1000
0000
0000
1100
0000
0000
0100
1000
,
0100
0000
1000
0000
0010
0000
0100
0010
,
1000
0000
0001
1000
0000
1000
0100
0000
,
0010
0001
1000
0010
,
1010
0000
0001
1000
,
0010
0100
0000
0001
0000
1000
0001
0000
,
1000
0100
0010
0001
,
0100
0100
0010
0000
,
0101
0000
0000
1000
0000
0000
0010
1000
,
0100
0000
0000
1100
0000
0000
0100
0000
,
0010
0000
0110
0000
,
1001
0000
0001
0000
,
1000
0100
0010
0001
,
0000
1000
0001
1000
,
1010
0000
0101
0000
,
1000
0000
0001
0000
0100
0010
0100
0000
,
0001
0000
0010
0100
0000
0000
0000
0000
,
1000
1000
0100
1000
,
0010
0100
0001
1000
,
0010
0010
0100
0001
,
1000
0100
0000
0000
1000
0000
0001
0000
,
0010
0010
0001
0100
,
0010
0100
0001
1000
,
0010
0000
0100
0000
0001
1000
0001
0000
,
1000
0000
0001
0100
0000
0000
0000
0000
,
0001
0000
0100
0000
0010
0100
0010
0000
,
1000
0001
0010
0001
,
1000
0100
0010
0001
,
1000
0100
1000
0010
,
0100
0100
0010
1000
,
0100
0010
0001
1000
,
0010
0000
0100
0000
0001
1000
0001
1000
,
0000
1100
0101
0000
,
0010
0001
0100
0000
,
0001
1000
0010
0100
,
0001
1000
0100
0100
,
0010
0001
0010
0100
,
1000
0001
0100
0000
,
0101
0000
1010
0000
,
1100
0000
0011
0000
,
1000
0000
0000
0001
0000
0000
0100
0000
,
0100
0010
0100
0001
,
1000
0000
0001
0100
0001
0100
0001
0100
,
0001
0101
0101
1001
,
1001
0000
0000
0001
,
1000
0100
0010
0001
,
1100
0000
0000
0101
0000
0000
0010
0000
,
0010
0000
0000
0000
,
1001
0000
0000
1000
0000
0000
0100
0010
,
0100
0000
0010
0000
0001
0000
1000
0010
,
0100
0000
0001
1000
0000
1000
0001
0000
,
0100
0010
1000
0100
,
0010
0000
0100
1000
,
0001
0000
0000
0100
0000
0000
0010
0000
,
0010
0100
0001
1000
,
0010
1000
1000
0001
,
0011
0000
0000
1000
0000
0000
0001
1000
,
0001
0000
0100
0000
0010
0000
1000
0100
,
1000
0000
0001
0100
0000
0100
0010
0000
,
0100
0001
1000
0100
,
1100
0000
0001
1000
,
0010
0000
0000
0100
0000
0000
0010
0000
,
0110
0000
1001
0000
,
0001
1000
0100
0100
,
1000
0100
1000
0000
0100
1000
0100
0000
,
1000
0010
0100
0100
,
0001
0100
0001
0000
0100
0001
0100
0000
,
0001
0100
0010
0010
,
1000
0010
1000
0000
0010
1000
0010
0000
,
1000
0001
0010
0010
,
0001
0010
0001
0000
0010
0001
0010
0000
,
0001
1000
0010
0010
,
1000
0100
0010
0000
0100
0000
1000
0000
,
0010
0100
0001
1000
,
0001
0100
0010
0000
0100
0000
0001
0000
,
1000
0100
0010
0001
,
1000
0010
0100
0000
0010
0000
1000
0000
,
0100
0010
0001
1000
,
0001
0010
0100
0000
0010
0000
0001
0000
,
1000
0010
0100
0100
,
0001
0100
0001
0100
0001
0100
0001
0000
,
1000
0100
1000
0100
1000
0100
1000
0000
,
0001
1000
0001
1000
0001
1000
0001
0000
,
1000
0010
1000
0010
1000
0010
1000
0000
,
0001
0010
0001
0010
0001
0010
0001
0000
,
1000
0100
1000
0100
1000
0100
1000
0000
,
0001
0100
0001
0100
0001
0100
0001
0000
,
1000
0010
1000
0010
1000
0010
1000
0000
,
0001
0100
0001
0010
0001
0100
0001
0000
,
1000
0100
1000
0010
1000
0100
1000
0000
,
0001
0100
0001
0010
0001
0100
0001
0000
,
1000
0100
1000
0010
1000
0100
1000
0000
,
0001
0100
0001
0010
0001
0100
0001
0000
,
1000
0100
1000
0010
1000
0100
1000
0000
,
0001
0100
0001
0010
0001
0100
0001
0000
,
1000
0100
1000
0010
1000
0100
1000
0000
,
1001
0000
0000
0000
,
0000
0000
0000
0000
,
0001
1000
0010
0100
,
0001
1000
0001
1000
,
1001
0000
0000
0000
,
0000
0000
0000
0000
,
0001
1000
0010
0100
,
0001
1000
0100
0100
,
1000
0100
1000
0100
1000
0000
0000
0000
,
0001
0100
0001
0100
0001
0000
0000
0000
,
1000
0010
1000
0010
1000
0000
0000
0000
,
0001
0010
0001
0010
0001
0000
0000
0000
,
1000
0100
1000
0100
0010
0000
0000
0000
,
0001
1000
0001
1000
0010
0000
0000
0000
,
0100
0001
0100
0001
1000
0000
0000
0000
,
0010
1000
0010
1000
0001
1000
0001
1000
,
0020
0000
0000
0000
,
0000
0000
0000
0000
,
0000
0000
0000
0000
,
0000
0000
0030
0000
;

//---------------dance-single - ----------------
#NOTEDATA:;
#CHARTNAME:;
#STEPSTYPE:dance-single;
#DESCRIPTION:;
#CHARTSTYLE:;
#DIFFICULTY:Easy;
#METER:5;
#RADARVALUES:0.352684,0.484546,0.095804,0.014739,0.000000,335.000000,322.000000,13.000000,2.000000,0.000000,0.000000,0.000000,0.000000,0.000000,0.352684,0.484546,0.095804,0.014739,0.000000,335.000000,322.000000,13.000000,2.000000,0.000000,0.000000,0.000000,0.000000,0.000000;
#CREDIT:Ben Speirs;
#NOTES:
// measure 0
0000
0000
0000
0000
,  // measure 1
0000
0000
0000
0000
,  // measure 2
0000
0000
0000
0000
,  // measure 3
0000
0000
0000
0000
,  // measure 4
0000
0000
0000
0000
,  // measure 5
0000
0000
0000
0000
,  // measure 6
0000
0000
0000
0000
,  // measure 7
0000
0000
0000
0000
,  // measure 8
1000
0000
0100
0000
,  // measure 9
0010
0010
0001
0000
,  // measure 10
1000
0000
0001
0000
,  // measure 11
0100
0100
0010
0000
,  // measure 12
1000
0000
0001
0000
,  // measure 13
1000
1000
0010
0000
,  // measure 14
1000
0000
0001
0000
,  // measure 15
0010
0001
0100
0000
,  // measure 16
1001
0000
0000
0000
,  // measure 17
0001
1000
0010
0000
,  // measure 18
1000
0000
0100
0010
,  // measure 19
0001
0000
0100
0001
,  // measure 20
1000
0000
0010
0000
,  // measure 21
0010
0000
1000
0000
,  // measure 22
0001
1000
0001
0000
,  // measure 23
1000
0100
1000
0000
,  // measure 24
0001
0000
0010
0000
,  // measure 25
0001
1000
0010
0000
,  // measure 26
0100
0000
0100
0000
,  // measure 27
0010
0000
0010
0000
,  // measure 28
1000
0100
0010
0001
,  // measure 29
0000
0000
0100
0000
,  // measure 30
0001
0000
1000
0000
,  // measure 31
0010
0010
0010
0000
,  // measure 32
1000
0000
0100
0000
,  // measure 33
1000
0001
0100
0000
,  // measure 34
0001
0000
1000
0000
,  // measure 35
0010
1000
0001
0000
,  // measure 36
0010
0000
0000
0000
,  // measure 37
0001
0000
1000
0000
,  // measure 38
0001
0100
0010
1000
,  // measure 39
0001
0000
1000
0000
,  // measure 40
0100
0000
0010
0000
,  // measure 41
0001
0000
0001
1000
,  // measure 42
0010
0000
0100
0000
,  // measure 43
0001
0000
1000
1000
,  // measure 44
0100
0000
0000
0000
,  // measure 45
1000
0000
0001
0000
,  // measure 46
1000
0000
0010
0100
,  // measure 47
0010
0000
1000
0000
,  // measure 48
0000
0001
0001
1000
,  // measure 49
1000
0000
0010
0000
,  // measure 50
0000
1000
0100
0010
,  // measure 51
0001
0000
1000
0000
,  // measure 52
0000
0001
0100
0010
,  // measure 53
1000
0000
0001
0000
,  // measure 54
1000
0000
0001
0000
,  // measure 55
0100
0000
0100
0000
,  // measure 56
0001
0000
1000
0000
,  // measure 57
0100
1000
0001
0000
,  // measure 58
0000
1000
0100
0010
,  // measure 59
0001
0100
0100
0100
,  // measure 60
1001
0000
0000
0000
,  // measure 61
0001
0000
1000
0000
,  // measure 62
0010
0000
0010
1000
,  // measure 63
0001
0000
0000
0000
,  // measure 64
1000
0000
0001
0000
,  // measure 65
1000
0100
0010
0000
,  // measure 66
0001
1000
0010
0000
,  // measure 67
0100
0010
0100
0010
,  // measure 68
1000
0000
0001
1000
,  // measure 69
0100
0000
1000
0000
,  // measure 70
0001
0000
0001
0000
,  // measure 71
0010
0001
0100
0000
,  // measure 72
0001
0000
1000
0000
,  // measure 73
0010
1000
0001
0000
,  // measure 74
0010
0001
0100
0000
,  // measure 75
0010
1000
0010
1000
,  // measure 76
0100
0000
1000
0100
,  // measure 77
0010
0000
0001
0000
,  // measure 78
1000
0000
1000
0000
,  // measure 79
0001
0100
0001
0000
,  // measure 80
1000
0100
1000
0100
,  // measure 81
1000
0000
1000
0000
,  // measure 82
0001
0100
0001
0100
,  // measure 83
0001
0000
0001
0000
,  // measure 84
1000
0010
1000
0010
,  // measure 85
1000
0000
1000
0000
,  // measure 86
0001
0010
0001
0010
,  // measure 87
0001
0000
0001
0000
,  // measure 88
1000
0100
0010
0001
,  // measure 89
0100
0000
0100
0000
,  // measure 90
0001
0010
0100
1000
,  // measure 91
0010
0000
0010
0000
,  // measure 92
1000
0100
0010
0001
,  // measure 93
1000
0000
1000
0000
,  // measure 94
0001
0100
0010
1000
,  // measure 95
0001
0000
0001
0000
,  // measure 96
1000
0100
0010
0100
,  // measure 97
1000
0100
0010
0000
,  // measure 98
0001
0010
0100
0010
,  // measure 99
0001
0010
0100
0000
,  // measure 100
0010
0001
0100
0001
,  // measure 101
0010
0001
0100
0000
,  // measure 102
0001
0100
0010
0100
,  // measure 103
0001
0100
0010
0000
,  // measure 104
1000
0010
1000
0100
,  // measure 105
1000
0001
1000
0000
,  // measure 106
0001
0100
0001
0010
,  // measure 107
0001
1000
0001
0000
,  // measure 108
1100
0000
0101
0000
,  // measure 109
1010
0000
0011
0000
,  // measure 110
1001
0000
1001
0000
,  // measure 111
0110
0000
1001
0000
,  // measure 112
1001
0000
0000
0000
,  // measure 113
0000
0000
0000
0000
,  // measure 114
1000
0100
0010
0000
,  // measure 115
0001
1000
0010
0000
,  // measure 116
1001
0000
0000
0000
,  // measure 117
0000
0000
0000
0000
,  // measure 118
0001
1000
0010
0000
,  // measure 119
1000
0100
0010
0000
,  // measure 120
0100
1000
0100
1000
,  // measure 121
0100
1000
0100
1000
,  // measure 122
0001
1000
0001
1000
,  // measure 123
0001
1000
0001
1000
,  // measure 124
0100
1000
0100
1000
,  // measure 125
0100
1000
0100
1000
,  // measure 126
0001
1000
0001
1000
,  // measure 127
0001
1000
0001
0000
,  // measure 128
2002
0000
0000
0000
,  // measure 129
0000
0000
0000
0000
,  // measure 130
0000
0000
0000
0000
,  // measure 131
0000
0000
3003
0000
;

//---------------dance-single - ----------------
#NOTEDATA:;
#CHARTNAME:;
#STEPSTYPE:dance-single;
#DESCRIPTION:;
#CHARTSTYLE:;
#DIFFICULTY:Beginner;
#METER:3;
#RADARVALUES:0.178974,0.282990,0.147390,0.000000,0.000000,170.000000,150.000000,20.000000,0.000000,0.000000,0.000000,0.000000,0.000000,0.000000,0.178974,0.282990,0.147390,0.000000,0.000000,170.000000,150.000000,20.000000,0.000000,0.000000,0.000000,0.000000,0.000000,0.000000;
#CREDIT:Ben Speirs;
#NOTES:
// measure 0
0000
0000
0000
0000
,  // measure 1
0000
0000
0000
0000
,  // measure 2
0000
0000
0000
0000
,  // measure 3
0000
0000
0000
0000
,  // measure 4
0000
0000
0000
0000
,  // measure 5
0000
0000
0000
0000
,  // measure 6
0000
0000
0000
0000
,  // measure 7
0000
0000
0000
0000
,  // measure 8
0001
0000
0000
0000
,  // measure 9
1000
0000
0000
0000
,  // measure 10
0010
0000
0000
0000
,  // measure 11
0010
0000
0000
0000
,  // measure 12
1000
0000
0000
0000
,  // measure 13
0001
0000
0000
0000
,  // measure 14
0100
0000
0000
0000
,  // measure 15
0100
0000
0000
0000
,  // measure 16
1001
0000
0000
0000
,  // measure 17
1000
0000
0000
0000
,  // measure 18
0010
0000
0010
0000
,  // measure 19
0010
0000
0000
0000
,  // measure 20
1000
0000
0000
0000
,  // measure 21
0001
0000
0000
0000
,  // measure 22
0010
0000
0000
0000
,  // measure 23
0010
0000
0000
0000
,  // measure 24
0001
0000
0000
0000
,  // measure 25
0100
0000
0000
0000
,  // measure 26
0001
0000
0001
0000
,  // measure 27
0001
0000
0000
0000
,  // measure 28
1000
0000
0000
0000
,  // measure 29
1000
0000
0000
0000
,  // measure 30
0010
0000
0010
0000
,  // measure 31
0010
0000
0000
0000
,  // measure 32
1001
0000
0000
0000
,  // measure 33
0000
0000
0000
0000
,  // measure 34
1000
0000
1000
0000
,  // measure 35
1000
0000
0000
0000
,  // measure 36
0100
0000
0000
0000
,  // measure 37
0010
0000
0000
0000
,  // measure 38
0001
0000
0001
0000
,  // measure 39
0001
0000
0000
0000
,  // measure 40
0100
0000
0000
0000
,  // measure 41
0000
0000
0000
0000
,  // measure 42
0010
0000
0010
0000
,  // measure 43
0010
0000
0000
0000
,  // measure 44
1000
0000
0000
0000
,  // measure 45
0001
0000
0000
0000
,  // measure 46
1000
0000
1000
0000
,  // measure 47
1000
0000
1000
0000
,  // measure 48
0000
0000
1001
0000
,  // measure 49
0000
0000
0000
0000
,  // measure 50
0010
0000
0010
0000
,  // measure 51
0000
0000
0000
0000
,  // measure 52
1000
0000
1000
0000
,  // measure 53
0000
0000
0000
0000
,  // measure 54
0001
0000
0001
0000
,  // measure 55
0001
0000
0000
0000
,  // measure 56
1000
0000
0000
0000
,  // measure 57
1000
0000
0000
0000
,  // measure 58
1001
0000
0000
0000
,  // measure 59
0000
0000
0000
0000
,  // measure 60
1001
0000
0000
0000
,  // measure 61
1000
0000
0000
0000
,  // measure 62
0010
0000
0010
0000
,  // measure 63
0010
0000
0000
0000
,  // measure 64
0110
0000
0000
0000
,  // measure 65
1001
0000
0000
0000
,  // measure 66
1000
0000
1000
0000
,  // measure 67
1000
0000
0000
0000
,  // measure 68
0100
0000
0000
0000
,  // measure 69
0100
0000
0000
0000
,  // measure 70
0010
0000
0000
0000
,  // measure 71
0010
0000
0000
0000
,  // measure 72
1001
0000
0000
0000
,  // measure 73
1001
0000
0000
0000
,  // measure 74
0001
0000
0001
0000
,  // measure 75
0001
0000
0000
0000
,  // measure 76
0100
0000
0000
0000
,  // measure 77
0100
0000
0000
0000
,  // measure 78
0010
0000
0000
0000
,  // measure 79
0000
0000
0000
0000
,  // measure 80
1000
0000
1000
0000
,  // measure 81
1000
0000
0000
0000
,  // measure 82
0100
0000
0100
0000
,  // measure 83
0100
0000
0000
0000
,  // measure 84
0010
0000
0010
0000
,  // measure 85
0010
0000
0000
0000
,  // measure 86
0001
0000
0001
0000
,  // measure 87
0001
0000
0000
0000
,  // measure 88
1000
0000
1000
0000
,  // measure 89
1000
0000
0000
0000
,  // measure 90
0100
0000
0100
0000
,  // measure 91
0100
0000
0000
0000
,  // measure 92
0010
0000
0010
0000
,  // measure 93
0010
0000
0000
0000
,  // measure 94
0001
0000
0001
0000
,  // measure 95
0001
0000
0000
0000
,  // measure 96
1001
0000
0000
0000
,  // measure 97
1001
0000
0000
0000
,  // measure 98
1001
0000
0000
0000
,  // measure 99
1001
0000
0000
0000
,  // measure 100
1001
0000
0000
0000
,  // measure 101
1001
0000
0000
0000
,  // measure 102
1001
0000
0000
0000
,  // measure 103
1001
0000
0000
0000
,  // measure 104
1000
0000
0001
0000
,  // measure 105
1000
0000
0001
0000
,  // measure 106
1000
0000
0001
0000
,  // measure 107
1000
0000
0001
0000
,  // measure 108
1000
0000
0001
0000
,  // measure 109
1000
0000
0001
0000
,  // measure 110
1000
0000
0001
0000
,  // measure 111
1000
0000
0001
0000
,  // measure 112
1001
0000
0000
0000
,  // measure 113
0000
0000
0000
0000
,  // measure 114
0001
0000
0000
0000
,  // measure 115
0100
0000
0000
0000
,  // measure 116
1001
0000
0000
0000
,  // measure 117
0000
0000
0000
0000
,  // measure 118
1000
0000
0000
0000
,  // measure 119
0100
0000
0000
0000
,  // measure 120
1000
0000
1000
0000
,  // measure 121
1000
0000
1000
0000
,  // measure 122
0100
0000
0100
0000
,  // measure 123
0100
0000
0100
0000
,  // measure 124
0010
0000
0010
0000
,  // measure 125
0010
0000
0010
0000
,  // measure 126
0001
0000
0001
0000
,  // measure 127
0001
0000
0001
0000
,  // measure 128
1001
0000
0000
0000
;
