#TITLE:Livin' La Vida Loca;
#SUBTITLE:;
#ARTIST:CJ CREW feat. GIORGIO;
#TITLETRANSLIT:;
#SUBTITLETRANSLIT:;
#ARTISTTRANSLIT:;
#CREDIT:;
#BANNER:Livin' La Vida Loca-bn.png;
#BACKGROUND:Livin' La Vida Loca-bg.png;
#LYRICSPATH:;
#CDTITLE:;
#MUSIC:Livin' La Vida Loca.mp3;
#OFFSET:-5.117;
#SAMPLESTART:70.628;
#SAMPLELENGTH:14.980;
#SELECTABLE:YES;
#DISPLAYBPM:198.000;
#BPMS:0.000=197.780;
#STOPS:;
#BGCHANGES:;

//---------------dance-single - ----------------
#NOTES:
     dance-single:
     :
     Beginner:
     2:
     0.168,0.229,0.064,0.000,0.000:
1000
0000
0000
0000
,
1000
0000
0000
0000
,
0001
0000
0000
0000
,
0001
0000
0000
0000
,
0010
0000
0000
0000
,
0010
0000
0000
0000
,
0001
0000
0000
0000
,
0001
0000
0000
0000
,
1000
0000
1000
0000
,
1000
0000
0000
0000
,
0100
0000
0100
0000
,
0100
0000
0000
0000
,
1000
0000
0000
0000
,
0010
0000
0010
0000
,
0010
0000
0000
0000
,
0100
0000
0100
0000
,
0100
0000
0000
0000
,
0001
0000
0001
0000
,
0001
0000
0000
0000
,
1000
0000
1000
0000
,
1000
0000
0000
0000
,
0010
0000
0000
0000
,
1000
0000
0000
0000
,
0100
0000
0100
0000
,
0100
0000
0000
0000
,
1000
0000
0000
0000
,
0001
0000
0000
0000
,
0010
0000
0010
0000
,
0010
0000
0000
0000
,
0100
0100
0000
0000
,
1000
1000
0000
0000
,
0001
0001
0000
0000
,
0010
0010
0000
0000
,
0001
0001
0000
0000
,
1000
1000
0000
0000
,
0010
0010
0000
0000
,
0110
0000
0000
0000
,
1000
0000
0000
0000
,
0001
0000
0000
0000
,
0100
0000
0100
0000
,
0100
0000
0000
0000
,
0001
0000
0000
0000
,
0000
0000
0000
0000
,
1000
1000
1000
1000
,
1000
0000
0000
0000
,
0000
0000
0100
0000
,
0100
0000
0000
0000
,
0000
0000
1000
0000
,
1000
0000
0000
0000
,
0000
0000
0001
0000
,
0001
0000
0000
0000
,
0000
0000
0010
0000
,
0010
0000
0000
0000
,
0000
0100
0100
0000
,
1001
0000
0000
0000
,
0000
0010
0010
0000
,
0010
0000
1000
0000
,
0001
0000
0000
0000
,
1001
0000
0000
0000
,
0000
0100
0100
0000
,
0100
0000
1000
0000
,
0100
0000
0000
0000
,
1001
0000
0000
0000
,
0000
1000
1000
0000
,
1000
0000
0001
0000
,
1000
0000
0000
0000
,
0110
0000
0000
0000
,
0000
0100
0100
0000
,
0010
0000
0100
0000
,
0010
0000
0000
0000
,
1000
0000
0001
0000
,
1000
0000
0000
0000
,
0100
0000
0010
0000
,
0100
0000
0000
0000
,
1001
0000
0000
0000
,
1000
1000
1000
0000
,
1000
0000
0000
0000
,
0010
0010
0010
0000
,
0010
0000
0000
0000
,
0100
0100
0100
0000
,
0100
0000
0000
0000
,
0001
0001
0001
0000
,
0001
0000
0000
0000
,
1001
0000
0000
0000
;

//---------------dance-single - ----------------
#NOTES:
     dance-single:
     :
     Medium:
     9:
     0.458,0.496,0.147,0.322,0.000: // measure 1
0010
0000
0010
0000
,  // measure 2
1000
0000
1000
0000
,  // measure 3
0100
0000
0100
0000
,  // measure 4
0010
0010
0001
1000
,  // measure 5
1100
0000
0010
1000
,  // measure 6
0100
0000
1000
0001
,  // measure 7
0100
0000
0010
1000
,  // measure 8
0100
0000
1000
0000
0001
0000
0010
0001
,  // measure 9
0010
0001
1000
0100
,  // measure 10
1000
1000
0010
0010
,  // measure 11
1000
0001
0100
0010
,  // measure 12
2002
0000
0000
3003
,  // measure 13
0010
0000
1000
0000
0001
0000
0000
0100
,  // measure 14
0010
0100
0000
0001
0000
1000
0000
0000
,  // measure 15
0100
0000
1000
0000
0001
0000
0000
1000
,  // measure 16
0100
1000
0000
0010
0000
0100
0000
0000
,  // measure 17
0001
0000
1000
0000
0100
0000
0000
0010
,  // measure 18
0001
0010
0000
0100
0000
1000
0000
0000
,  // measure 19
0010
0000
1000
0000
0001
0000
0000
0100
,  // measure 20
0010
0100
0000
0001
0000
1000
0000
0000
,  // measure 21
0100
0100
1000
1000
,  // measure 22
0010
0100
0001
1000
,  // measure 23
0001
0001
0010
0010
,  // measure 24
0001
1000
0100
0000
,  // measure 25
1000
1000
0001
0001
,  // measure 26
0010
0001
1000
0010
,  // measure 27
0100
0100
0010
0010
,  // measure 28
1000
0100
0010
0000
,  // measure 29
1000
0000
0001
0000
0100
0010
1000
0000
,  // measure 30
0001
0000
1000
0000
0100
0010
0001
0000
,  // measure 31
1000
0000
0001
0000
0100
0010
1000
0000
,  // measure 32
0001
0000
0100
0000
0010
0100
0001
0000
,  // measure 33
1000
2000
0100
3200
,  // measure 34
0010
0320
0001
0032
,  // measure 35
0100
0203
0010
0320
,  // measure 36
1000
2030
0100
3100
,  // measure 37
1000
0001
0100
0000
,  // measure 38
0010
0100
0010
0000
1000
0000
0001
0000
,  // measure 39
0000
0010
0001
1000
,  // measure 40
0100
1000
0010
0000
,  // measure 41
0100
0010
1000
0000
,  // measure 42
0100
1000
0100
0000
1000
0000
0000
0000
,  // measure 43
0001
1000
0100
0010
,  // measure 44
0011
0011
1100
1100
,  // measure 45
0020
0100
0100
1000
,  // measure 46
0100
0000
1000
0030
2000
0000
0100
0000
,  // measure 47
3002
0010
0100
0100
,  // measure 48
0010
1000
0103
0000
,  // measure 49
0020
0100
0100
1000
,  // measure 50
0100
1030
0002
1000
,  // measure 51
0203
0010
0010
0001
,  // measure 52
0010
0010
0301
0000
,  // measure 53
1010
0101
0011
1100
,  // measure 54
0001
1000
0001
1000
0000
0000
0000
0000
,  // measure 55
2000
0000
0000
3002
0000
0000
0203
0000
,  // measure 56
0000
0310
0000
0000
1001
0000
0000
0000
,  // measure 57
0100
0001
0100
0001
0000
1000
0000
0001
,  // measure 58
0000
0100
0000
0000
0000
0000
0000
0000
,  // measure 59
0002
0000
0000
0023
0000
0000
0230
0000
,  // measure 60
0000
1300
0000
0000
2002
0000
3003
0000
,  // measure 61
0010
1000
0010
1000
0000
0100
0000
1000
,  // measure 62
0000
0001
0000
0000
0000
0000
0000
0000
,  // measure 63
2000
0000
0000
3002
0000
0000
0023
0000
,  // measure 64
0000
0130
0000
0000
0022
0000
0033
0000
,  // measure 65
0100
0000
0010
1000
0000
1000
0100
1000
,  // measure 66
0000
0001
0000
0000
0000
0000
0000
0000
,  // measure 67
2000
0000
0000
3002
0000
0000
0023
0000
,  // measure 68
0000
0031
0000
0000
2200
0000
3300
0000
,  // measure 69
0010
0100
0010
0100
0000
0001
0000
1000
,  // measure 70
0000
0100
0000
0000
0000
0000
0000
0000
,  // measure 71
1000
0100
1000
0100
0000
1000
0000
0001
,  // measure 72
0000
0100
0000
0000
0000
0000
0000
0000
,  // measure 73
0001
0010
0001
0010
0000
0100
0000
1000
,  // measure 74
0000
0001
0000
0000
0000
0000
0000
0000
,  // measure 75
0220
0000
0000
0330
,  // measure 76
0001
0000
0100
0000
1000
0000
0000
1000
,  // measure 77
0100
0001
0000
1000
0000
0001
0000
0000
,  // measure 78
1000
0000
0100
0000
0001
0000
0000
0001
,  // measure 79
0100
1000
0000
0001
0000
1000
0000
0000
,  // measure 80
0001
0000
0010
0000
1000
0000
0000
1000
,  // measure 81
0010
0001
0000
1000
0000
0010
0000
0000
,  // measure 82
1000
0000
0001
0000
0010
0000
0000
0001
,  // measure 83
0010
1000
0000
0010
0000
0001
0000
0000
,  // measure 84
1001
0000
0000
0000
;

//---------------dance-single - ----------------
#NOTES:
     dance-single:
     :
     Hard:
     14:
     0.724,0.687,0.469,0.294,0.055:
1000
0000
0010
0000
,
0001
0000
0010
0000
,
1000
0000
0001
0000
,
0100
0000
0010
0000
1000
0100
0010
0001
,
0101
1000
0100
0010
,
0001
1000
0010
0100
,
0001
0010
1000
0010
,
0001
0000
1000
0000
0100
0000
1000
0001
,
0100
0010
0000
1000
0000
0001
0000
0010
,
0000
0100
0000
1000
0000
0001
0100
0001
,
0000
1000
0000
0001
0000
0010
0000
0100
,
2001
0000
0000
3100
,
0110
0000
0002
0000
0203
0000
0310
1000
,
0001
0200
0000
0320
0000
2030
0000
3001
,
0010
0000
0200
0000
2300
0000
3001
1000
,
0100
0020
0000
0032
0000
2003
0000
3010
,
0110
0000
0002
0000
0203
0000
0301
0010
,
0100
2000
0000
3002
0000
0023
0000
0130
,
1000
0000
0020
0000
0230
0000
0310
1000
,
0100
0001
1000
0010
0001
0100
0010
0000
,
1001
1100
0101
1000
,
0001
0100
0010
0000
1000
0100
0010
0000
,
0001
0011
1100
0101
,
1000
0100
0010
0000
0001
1000
0010
0000
,
0100
0110
1010
0001
,
1000
0100
0010
0000
0001
1000
0010
0000
,
0100
0000
0101
0000
1100
0000
1000
0001
,
0010
0100
0000
1000
0010
0010
0100
0100
,
0001
0000
0000
0001
0000
0000
0100
0000
0010
0000
0000
0010
0000
0000
1000
0000
,
0001
0000
0000
0001
0000
0000
0100
0000
0010
0000
0100
0000
0001
0000
1000
0000
,
0100
0000
0000
0100
0000
0000
0010
0000
1000
0000
0000
1000
0000
0000
0001
0000
,
0100
0000
0000
0100
0000
0000
0010
0000
0001
0000
0100
0000
1000
0000
0100
0000
,
0010
0000
0000
1000
0000
0000
0100
0000
0010
0000
0000
0001
0000
0000
1000
0000
,
0010
0000
0000
0100
0000
0000
0001
0000
0010
0000
1000
0000
0010
0000
0001
0000
,
1000
0000
0000
0010
0000
0000
0100
0000
0001
0000
0000
1000
0000
0000
0100
0000
,
0010
0000
0000
0100
0000
0000
1000
0000
0010
0000
0100
0000
0001
0000
1000
0000
,
0100
0000
1100
0000
0001
0100
1000
0000
,
0010
1000
0001
0000
1000
0100
0001
0000
,
0010
1100
0101
0110
,
0010
0001
0100
1000
0100
0010
1000
0100
,
0001
0000
1100
0000
0101
0000
0010
0100
,
0001
0010
1000
0010
0001
1000
0100
0001
,
0100
0010
0000
0001
0000
0100
0000
1000
,
1010
0101
0110
1001
,
0100
0010
0100
1000
0100
0001
0100
0010
,
1000
0100
0010
0001
1000
0010
0100
0001
,
0010
1000
0010
0100
0010
0001
1000
0100
,
0010
0001
0100
0010
1000
0001
0100
0000
,
0010
1000
0100
0001
1000
0010
0100
0001
,
0010
1000
0001
0100
0010
0100
1000
0001
,
0100
0010
1000
0100
0001
1000
0010
0001
,
0010
1000
0100
0010
0001
0100
1000
0100
,
0110
0101
1100
1001
,
0100
0010
2000
0200
0000
0000
3300
0000
,
0010
0001
0010
0100
0010
0100
1000
0001
,
1000
0010
0100
0010
1010
0000
0000
0000
,
1000
0100
0001
1000
0000
0010
0000
0110
,
0000
2002
0000
0000
3003
0000
0100
0000
,
1000
0100
1000
0001
0010
0001
0100
0010
,
0100
0001
1000
0001
0110
0000
0000
0000
,
0001
0100
1000
0100
0000
0001
0000
1010
,
0000
0202
0000
0000
0303
0000
0100
0000
,
0010
1000
0100
0001
0100
1000
0010
0001
,
0010
1000
0100
0010
0101
0000
1000
0001
,
1000
0000
0010
0100
0001
1000
0010
0110
,
0000
2020
0000
0000
3030
0000
0000
0000
,
0010
1000
0010
0100
0001
0100
0001
1000
,
0001
0010
0100
0010
1001
0000
0000
0000
,
0010
1000
0001
1000
0000
0110
0000
0101
,
0000
2200
0000
0000
3300
0000
0000
0000
,
0010
1000
0001
0100
0000
0110
0000
1001
,
0000
0022
0000
0000
0033
0000
0000
0000
,
0100
0010
0001
0100
0000
0101
0000
1010
,
0000
2001
0100
0200
3000
0000
0300
0000
,
1100
0000
0110
0000
0010
0001
0101
0000
,
1000
0010
0001
0100
0010
1000
0100
0010
,
0001
1000
0100
0001
0100
1000
0010
0001
,
0010
1000
0100
0001
1000
0010
0100
0001
,
0010
1000
0010
0001
1000
0010
0100
0001
,
0010
1000
0010
0001
1000
0100
0001
0100
,
1000
0010
0100
0010
1000
0100
0010
0001
,
0100
0010
1000
0100
0001
1000
0010
0100
,
0001
0010
1000
0001
0100
1000
0001
0100
,
1001
0000
0000
0000
;

//---------------dance-single - ----------------
#NOTES:
     dance-single:
     :
     Easy:
     6:
     0.317,0.343,0.028,0.000,0.000:
0001
0000
0000
0000
,
1000
0000
0000
0000
,
0100
0000
0000
0000
,
1000
1000
1000
1000
,
1000
0000
0000
0000
,
0010
0000
0000
0000
,
1000
0000
0001
0000
,
0100
0000
0001
0000
,
1001
0000
0100
0000
,
1000
0000
0010
0000
,
1000
0000
0001
0000
,
0010
0000
0000
0000
,
0001
0100
0010
0000
,
1000
0000
0100
0000
,
1000
0001
0100
0000
,
0010
0000
1000
0000
,
0100
0010
0001
0000
,
1000
0000
0001
0000
,
1000
0010
0100
0000
,
0010
0000
1000
0000
,
0100
0100
1000
1000
,
0100
0000
1000
0000
,
0001
0001
0010
0010
,
0001
0000
0010
0000
,
0100
0100
0010
0010
,
0100
0000
0010
0000
,
0100
0100
1000
1000
,
0001
0000
1000
0000
,
0010
1000
0001
0000
,
0100
0010
1000
0000
,
0100
0010
0001
0000
,
1000
0001
0100
0000
,
0010
0100
0001
0000
,
0010
0100
1000
0000
,
0001
1000
0010
0000
,
0100
0010
1000
0000
,
0100
0100
0010
0010
,
0100
0000
0010
0000
,
0001
0001
0100
0100
,
0001
0000
1000
0000
,
0010
0010
1000
1000
,
0010
0000
0100
0000
,
0000
0000
0000
0000
,
1000
0001
1000
0001
,
0100
0010
1000
0100
,
0010
0001
1000
1000
,
0001
0001
0010
0001
,
0100
0010
1000
0001
,
1000
0100
0010
0001
,
0100
0010
1000
0001
,
1000
1000
0100
0100
,
1000
0010
0100
0001
,
0010
0100
1000
0010
,
0100
0001
1000
0000
,
0010
0000
0000
1000
0000
0000
0100
0000
,
0000
0010
0000
0000
0001
0000
0000
0000
,
0100
0001
1000
0100
,
1000
0010
0100
0000
,
0010
0000
0000
1000
0000
0000
0001
0000
,
0000
0010
0000
0000
0100
0000
0000
0000
,
0010
0001
1000
0010
,
0100
0010
1000
0000
,
0100
0000
0000
1000
0000
0000
0001
0000
,
0000
0010
0000
0000
0100
0000
0000
0000
,
0010
0001
1000
0010
,
0100
0001
1000
0000
,
0001
0000
0000
1000
0000
0000
0100
0000
,
0000
0010
0000
0000
0001
0000
0000
0000
,
0010
0100
1000
0010
,
0100
0001
1000
0000
,
0001
1000
0010
0100
,
0010
1000
0100
0000
,
1000
0100
0001
0100
,
1000
0010
0100
0000
,
1001
0000
0000
0000
,
0100
0100
0100
0000
,
1000
0100
0001
0000
,
0100
0100
0100
0000
,
1000
0100
0001
0000
,
0010
0010
0010
0000
,
1000
0010
0001
0000
,
0010
0010
0010
0000
,
1000
0010
0001
0100
,
1001
0000
0000
0000
;
