#VERSION:0.83;
#TITLE:Guilty;
#SUBTITLE:;
#ARTIST:Gravity Kills;
#TITLETRANSLIT:;
#SUBTITLETRANSLIT:;
#ARTISTTRANSLIT:;
#GENRE:;
#ORIGIN:;
#CREDIT:;
#BANNER:;
#BACKGROUND:;
#PREVIEWVID:;
#JACKET:jacket.png;
#CDIMAGE:;
#DISCIMAGE:;
#LYRICSPATH:;
#CDTITLE:;
#MUSIC:Guilty.ogg;
#OFFSET:0.000000;
#SAMPLESTART:51.153046;
#SAMPLELENGTH:14.694003;
#SELECTABLE:YES;
#BPMS:0.000=129.015,
102.000=64.570,
106.000=129.020,
114.000=64.510,
118.000=129.020,
158.000=132.660,
159.000=129.020,
190.000=64.810,
194.000=129.200,
202.000=64.610,
206.000=129.040,
244.000=131.540,
246.000=129.380;
#STOPS:;
#DELAYS:;
#WARPS:;
#TIMESIGNATURES:0.000=4=4;
#TICKCOUNTS:0.000=4;
#COMBOS:0.000=1;
#SPEEDS:0.000=1.000=0.000=0;
#SCROLLS:0.000=1.000;
#FAKES:;
#LABELS:0.000=Song Start;
#BGCHANGES:2.000=Guilty.avi=1.000=0=0=1=====,
99999=-nosongbg-=1.000=0=0=0 // don't automatically add -songbackground-
;
#KEYSOUNDS:;
#ATTACKS:
;

//---------------dance-single - ----------------
#NOTEDATA:;
#CHARTNAME:;
#STEPSTYPE:dance-single;
#DESCRIPTION:;
#CHARTSTYLE:;
#DIFFICULTY:Hard;
#METER:9;
#RADARVALUES:0.549356,0.636252,0.337982,0.120172,0.304184,512.000000,467.000000,45.000000,16.000000,0.000000,0.000000,0.000000,0.000000,0.000000,0.549356,0.636252,0.337982,0.120172,0.304184,512.000000,467.000000,45.000000,16.000000,0.000000,0.000000,0.000000,0.000000,0.000000;
#CREDIT:Ben Speirs;
#NOTES:
0000
0000
0000
0000
,
0000
0000
0000
0000
,
0000
0000
0000
0000
,
0000
0000
0000
0000
,
0000
0000
0000
0000
2000
0010
3010
2000
,
0100
0000
3100
0000
1000
0001
2000
0010
0000
0000
3001
0000
0001
0000
0100
0000
,
0010
0010
0100
0100
0002
0100
0103
0002
,
1000
0000
1003
0000
0001
0100
0002
1000
0000
0000
0103
0000
0100
0000
0001
0000
,
1000
1000
0001
1000
1010
0000
0000
0000
,
0000
0000
0101
1000
,
0010
0000
0100
0000
0001
0010
0100
0000
,
1000
0001
1000
0000
0100
0100
0010
0000
,
0001
1000
0001
0000
0100
0000
0010
0000
,
1000
0000
0000
0000
0001
0000
0000
0000
0100
0001
0100
0001
0100
0000
0000
0000
,
0001
1000
0001
0000
1000
0100
0010
0000
,
0001
0000
1000
0000
0001
0000
0000
0000
1000
0100
1000
0100
1000
0000
0000
0000
,
0001
1000
0010
0000
0100
0100
0010
0000
,
1000
0000
0001
0000
0010
0000
0000
0000
0001
0100
0001
0010
0001
0000
0100
0000
,
0010
0100
0001
0010
0100
1000
0001
1000
,
0100
0000
0100
0000
0100
0000
0000
0000
1000
0100
1000
0010
1000
0000
0001
0000
,
1000
0100
1000
0010
0100
0001
0010
0001
,
0100
0000
0100
0000
0001
1000
0001
0000
0000
0000
1000
0000
0100
0000
0010
0000
,
0001
0000
1000
0000
0001
1000
0001
0000
0000
0000
0001
0000
0010
0000
0100
0000
,
1000
0000
0001
0000
1000
0001
1000
0000
0000
0000
0100
0000
1000
0000
0001
0000
,
1000
0000
0001
0000
0100
0010
0100
0010
1000
0000
0100
0000
0100
0000
0010
0000
,
0001
0000
0001
0000
1000
0001
1000
0001
2000
0000
0000
0000
3100
0000
0000
1000
,
1000
0000
0010
0000
0101
0010
0000
0000
1001
0000
1000
0100
0010
0000
0001
0010
,
0001
0010
0001
0000
0010
0100
0010
0000
0001
0000
1000
0000
0001
0000
1000
0100
,
1000
0100
1000
0000
0010
0000
0100
0000
0001
0000
0001
0000
0101
0100
0001
1000
,
0010
0000
0010
0000
1010
0100
0000
0000
1001
0000
0001
0010
0100
0000
1000
0100
,
1000
0100
1000
0000
0100
0010
0100
0000
1000
0000
0001
0010
0100
0000
1000
0010
,
0100
0000
0001
0000
1000
0001
1000
0000
0102
0000
0000
0000
1003
0000
0001
0000
,
1000
0000
1000
0000
0001
0010
0100
1000
0001
0000
0000
0000
1000
0000
0001
0000
,
1000
0000
1000
0000
0010
0100
0010
0100
0002
0000
0000
0000
0103
0000
0010
0000
,
0100
0000
0001
0000
0010
0100
0010
0100
2000
0000
0000
0000
3100
0000
1000
0000
,
1100
0001
1001
1001
0001
0100
0010
0100
,
0001
0000
1000
0100
1000
0100
0010
0001
0010
0000
0001
0000
1000
0000
0001
0000
,
0100
0000
0001
0010
0001
0010
0100
1000
0200
0000
0000
0000
1000
0000
0000
0000
,
1300
0100
0010
0001
1000
0001
1000
0010
,
0100
0000
0001
1000
0000
0001
1000
0000
1010
0000
0000
0000
0000
0000
0000
0000
,
0101
0000
1010
0000
,
0101
0011
1001
0110
,
1001
0000
1100
0000
1010
0010
0101
0000
,
1001
0100
1001
0000
0101
0100
1000
0100
,
0010
0000
1000
0000
0100
0010
0100
0010
0000
0000
0001
0000
0010
0000
0100
0000
,
0010
0001
1000
1000
0001
0100
1000
0100
,
0010
0000
1000
0000
0001
0100
0001
0100
0000
0000
0001
0000
0100
0000
0010
0000
,
1000
0000
0001
0000
1000
0000
1000
0000
0200
0000
0000
0000
0310
0000
0000
0001
,
0001
0000
1000
0000
1001
1000
0000
0000
0101
0000
0001
0100
0010
0000
0110
0000
,
0010
1000
0100
0000
1200
0000
0000
0000
0310
0000
0001
0000
0010
0000
0100
1000
,
0001
0000
1000
0000
0001
0000
0000
0000
0101
0000
0100
0000
1001
1000
0001
1000
,
0010
0000
0010
0000
0110
1000
0000
0000
1010
0000
1000
0010
0100
0000
0110
0000
,
0100
0001
0010
0000
0021
0000
0000
0000
0130
0000
1000
0000
0100
0000
0010
0001
,
1000
0001
1000
0000
0101
0000
1000
0001
,
0100
0000
0010
0000
1000
0100
1000
0100
1000
0000
0000
0000
0010
0000
1000
0000
,
0100
0000
0100
0000
0010
0001
0010
0001
0010
0000
0000
0000
0001
0000
0010
0000
,
0100
0000
0100
0000
1000
0001
1000
0001
1000
0000
0000
0000
0001
0000
1000
0000
,
0010
0000
0010
0000
0100
0001
0100
0001
0100
0000
0010
1000
0010
0000
0100
0001
,
0100
0000
0001
0010
0001
0000
0010
0100
0010
0000
0100
1000
0100
0000
1000
0001
,
2000
0000
3010
1000
0010
0010
0100
0001
,
1000
0000
0100
0000
1000
0010
0100
0000
0101
0000
0110
0000
1010
0000
1100
0000
,
0002
0000
0003
0000
1010
0100
0000
0101
,
0010
0000
1001
0010
0110
0100
1001
0000
;

//---------------dance-single - ----------------
#NOTEDATA:;
#CHARTNAME:;
#STEPSTYPE:dance-single;
#DESCRIPTION:;
#CHARTSTYLE:;
#DIFFICULTY:Medium;
#METER:6;
#RADARVALUES:0.346566,0.400603,0.240343,0.300429,0.000000,323.000000,291.000000,32.000000,40.000000,0.000000,0.000000,0.000000,0.000000,0.000000,0.346566,0.400603,0.240343,0.300429,0.000000,323.000000,291.000000,32.000000,40.000000,0.000000,0.000000,0.000000,0.000000,0.000000;
#CREDIT:Ben Speirs;
#NOTES:
0000
0000
0000
0000
,
0000
0000
0000
0000
,
0000
0000
0000
0000
,
0000
0000
0000
0000
,
0000
0000
0000
0000
0001
0100
0000
0001
,
1000
0000
2002
0000
3003
1000
0100
0000
,
1001
0000
0101
0000
1000
0100
0000
1000
,
0001
0000
2002
0000
3003
0001
0100
0000
,
0001
1001
2000
0000
,
0000
3000
0110
1000
,
0010
0100
0001
1000
,
0001
0010
0100
0000
1000
1000
0100
0000
,
1000
0001
2000
3020
,
0230
0000
0300
0000
0001
0001
1000
0000
,
0010
0000
1000
0000
0001
0010
0100
0000
,
0010
0001
1000
0000
1000
1000
0100
0000
,
1000
0000
0001
0000
1000
0010
0100
0000
,
0001
0000
0000
0000
1000
0100
0010
0000
,
0001
0000
1000
0000
0010
0100
0010
0000
,
0100
0100
0100
0000
0001
0010
0100
0000
,
1000
0000
0001
0000
1000
0010
0100
0000
,
0010
0010
0010
0000
0000
0000
1010
0000
,
0101
2000
3000
1100
,
0011
0002
0003
1001
,
0101
2000
3000
0010
,
1000
0100
0010
0001
0100
0000
1001
0000
,
0010
0010
1000
0000
0101
0000
0000
1100
,
0000
0000
2002
0000
3003
0000
0001
1000
,
0100
0010
0001
0000
0100
0100
0010
0010
,
1000
0001
0100
0000
1001
0000
0000
1010
,
0000
0000
0101
0000
1000
0001
0010
0100
,
1000
0001
1000
0000
0020
0000
0130
0001
,
0100
0000
0010
1000
0200
0000
1300
0001
,
1000
0000
0100
1000
0020
0000
0130
0001
,
0100
0000
0001
0010
0200
0000
1300
0001
,
1000
0000
1100
0000
0001
0010
0001
0100
,
0001
0010
0100
0010
0001
0100
0010
0100
,
0100
0100
0100
0000
0010
0000
1000
0000
,
0100
0000
0010
0000
0001
1000
0001
0000
,
1100
0101
1000
0000
,
0001
0000
0100
0000
,
0010
0010
2000
3200
,
0320
0032
0203
0320
,
1030
0001
1000
0000
0002
0000
0023
0000
,
0230
2300
3020
0230
,
0310
1000
0010
0000
2000
0000
3200
0000
,
0320
0000
0032
0000
0103
0001
0100
0001
,
1000
0100
1000
0100
0010
0000
0001
0000
,
1000
1000
0010
0000
1001
0000
0000
0110
,
0000
0000
1001
0000
0001
0010
0100
1000
,
0100
0010
0001
0000
0100
0100
0010
0010
,
1000
0001
0010
0000
1001
0000
0000
1100
,
0000
0000
0101
0000
0001
0010
0100
1000
,
0100
0010
0001
0000
2100
0000
3001
0000
,
1000
1000
0010
1000
0200
0000
0310
0000
,
0001
0001
0010
0000
0012
0000
0103
0100
,
0010
0100
0001
1000
0002
0000
0103
0000
,
0010
1000
0010
0000
1100
0000
0101
0000
,
1000
0100
0010
0001
0100
0010
0100
0010
,
1000
0001
1000
0000
0001
0010
0100
1000
,
0100
1000
0100
0000
1000
0010
0100
0001
,
2000
0000
0000
0000
3010
0000
0000
0100
,
0000
0000
0001
0010
0200
2300
3001
0000
;

//---------------dance-single - ----------------
#NOTEDATA:;
#CHARTNAME:;
#STEPSTYPE:dance-single;
#DESCRIPTION:;
#CHARTSTYLE:;
#DIFFICULTY:Easy;
#METER:3;
#RADARVALUES:0.194206,0.212084,0.022532,0.165236,0.000000,181.000000,178.000000,3.000000,22.000000,0.000000,0.000000,0.000000,0.000000,0.000000,0.194206,0.212084,0.022532,0.165236,0.000000,181.000000,178.000000,3.000000,22.000000,0.000000,0.000000,0.000000,0.000000,0.000000;
#CREDIT:Ben Speirs;
#NOTES:
0000
0000
0000
0000
,
0000
0000
0000
0000
,
0000
0000
0000
0000
,
0000
0000
0000
0000
,
0000
0000
2000
3000
,
0010
0010
1000
0001
,
1000
0000
0002
0003
,
0010
0010
0001
1000
,
0001
0000
0100
0000
,
0000
0000
0010
0000
,
1000
0000
0100
0100
,
0010
0010
0001
0000
,
1000
0000
0010
0010
,
0100
0000
0001
0001
,
0010
0010
0100
0000
,
1000
0000
1000
1000
,
0010
0000
0100
0100
,
0001
0000
2000
3000
,
1000
0000
0001
0010
,
0100
0000
0020
0030
,
0010
0000
0001
1000
,
0010
0000
0000
0100
,
0010
2000
3000
0001
,
0010
0200
0300
1000
,
0001
0200
0300
0001
,
1000
0010
0010
0100
,
0001
0000
1000
0000
0100
0000
0000
0010
,
0000
0220
0330
0001
,
1000
0001
0100
0100
,
0010
0000
0010
0000
1000
0000
0000
0001
,
0000
2002
3003
0001
,
1000
0001
0200
0300
,
0010
0010
2000
3000
,
0001
0010
0200
0300
,
1000
0001
0100
0100
,
0010
0010
1000
0100
,
0010
0010
0001
1000
,
0020
0030
0100
0100
,
0001
0001
1000
0100
,
0010
0000
0001
0000
,
0001
0000
1000
0000
,
1000
0000
0001
0001
,
0001
0001
1000
1000
,
1000
1000
0010
0100
,
0010
0000
1000
0010
,
1000
0000
0001
0010
,
0001
0000
0100
0100
,
0100
0000
0002
0003
,
2000
0000
3000
0000
0010
0000
0000
0010
,
0000
0020
0030
1000
,
0100
0010
0001
1000
,
1000
0000
0001
0000
0100
0000
0000
0100
,
0000
0200
0300
0001
,
0010
0100
2000
3000
,
0001
1000
0020
0030
,
0100
0100
0001
0010
,
0001
0100
0100
0100
,
0100
0000
0010
0010
,
1000
1000
0100
0100
,
0020
0030
0001
0001
,
1000
0000
1000
0001
,
0100
0000
0000
0000
0001
0000
0000
1000
,
0000
0010
0100
1001
;

//---------------dance-single - ----------------
#NOTEDATA:;
#CHARTNAME:;
#STEPSTYPE:dance-single;
#DESCRIPTION:;
#CHARTSTYLE:;
#DIFFICULTY:Beginner;
#METER:1;
#RADARVALUES:0.115880,0.164954,0.045064,0.000000,0.000000,108.000000,102.000000,6.000000,0.000000,0.000000,0.000000,0.000000,0.000000,0.000000,0.115880,0.164954,0.045064,0.000000,0.000000,108.000000,102.000000,6.000000,0.000000,0.000000,0.000000,0.000000,0.000000,0.000000;
#CREDIT:Ben Speirs;
#NOTES:
0000
0000
0000
0000
,
0000
0000
0000
0000
,
0000
0000
0000
0000
,
0000
0000
0000
0000
,
0000
0000
0001
0000
,
0001
0000
0001
0000
,
0000
0000
0100
0000
,
0100
0000
0100
0000
,
0000
0000
1001
0000
,
0000
0000
1000
0000
,
1000
0000
1000
0000
,
0000
0000
0010
0010
,
0000
0000
0010
0010
,
0000
0000
0100
0000
,
0100
0000
0100
0000
,
0000
0000
0001
0001
,
0000
0000
0001
0001
,
0000
0000
0100
0100
,
0000
0000
0100
0100
,
0000
0000
0010
0000
,
0010
0000
0010
0000
,
0000
1000
1000
0000
,
0000
0001
0001
0000
,
0000
1000
1000
0000
,
0000
0001
0001
0000
,
0000
0100
0100
0000
,
0000
0000
1001
0000
,
0000
0000
0000
1000
,
1000
1000
1000
0000
,
0000
0000
1001
0000
,
0000
0000
0000
0001
,
0001
0001
0001
0000
,
0000
0100
0100
0000
,
0000
0000
0001
0000
,
0000
1000
1000
0000
,
0000
0000
1000
0000
,
0000
0010
0010
0000
,
0000
0000
1000
0000
,
1000
0000
1000
0000
,
1000
0000
1001
0000
,
0000
0000
0100
0000
,
0000
0000
1001
0000
,
0000
0000
0100
0000
,
0000
0000
0010
0000
,
0010
0000
0010
0000
,
0000
0000
0001
0000
,
0001
0000
0001
0000
,
0000
0000
1001
0000
,
0000
0000
1000
0000
,
1000
0000
0000
0001
,
0001
0001
0001
0000
,
0000
0000
0100
0000
,
0100
0000
0000
0010
,
0010
0010
0010
0000
,
0000
1000
1000
0000
,
0000
0001
0001
0000
,
0000
0100
0100
0000
,
0000
0000
0001
0001
,
0001
0000
0001
0001
,
0001
0000
0001
0000
,
0000
0000
1000
1000
,
0000
0000
0010
0000
,
0010
0000
0010
0010
;

//---------------dance-double - ----------------
#NOTEDATA:;
#CHARTNAME:;
#STEPSTYPE:dance-double;
#DESCRIPTION:;
#CHARTSTYLE:;
#DIFFICULTY:Challenge;
#METER:9;
#RADARVALUES:0.531115,0.636252,0.217811,0.135193,0.292918,495.000000,466.000000,29.000000,18.000000,0.000000,0.000000,0.000000,0.000000,0.000000,0.531115,0.636252,0.217811,0.135193,0.292918,495.000000,466.000000,29.000000,18.000000,0.000000,0.000000,0.000000,0.000000,0.000000;
#CREDIT:Ben Speirs;
#NOTES:
// measure 0
00000000
00000000
00000000
00000000
,  // measure 1
00000000
00000000
00000000
00000000
,  // measure 2
00000000
00000000
00000000
00000000
,  // measure 3
00000000
00000000
00000000
00000000
,  // measure 4
00000000
00000000
00000000
00000000
00011000
00010000
00000100
00001100
,  // measure 5
00001000
00000000
00000001
00000000
00000100
00000010
00000100
00000010
00000000
00000000
00001000
00000000
00000010
00000000
00001000
00000000
,  // measure 6
00000100
00000100
00010000
00010000
00011000
00001000
00100000
00110000
,  // measure 7
00010000
00000000
01000000
00000000
00100000
10000000
00100000
10000000
00000000
00000000
00010000
00000000
10000000
00000000
00010000
00000000
,  // measure 8
01000000
01000000
00100000
00010000
00002000
00000000
00000000
00000000
,  // measure 9
00000000
00000000
00013000
00100000
,  // measure 10
10000000
01000000
00010000
00001000
,  // measure 11
00000010
00000000
00000001
00000000
00000100
00001000
00010000
00000000
,  // measure 12
00100000
00000000
10000000
01000000
00010000
01000000
10000000
00010000
,  // measure 13
01000000
00000000
01000000
00000000
01000000
00000000
00000000
00000000
00100000
10000000
00010000
10000000
00010000
00000000
00000000
00000000
,  // measure 14
20000000
31000000
00020000
01030000
,  // measure 15
00100000
00000000
01000000
00000000
00010000
00000000
00000000
00000000
00100000
00010000
00100000
00001000
00100000
00000000
00000000
00000000
,  // measure 16
00001000
00010000
00000100
00001000
00000010
00000010
00000100
00000100
,  // measure 17
00000001
00000000
00001000
00000000
00000001
00000000
00000000
00000000
00000100
00000001
00000100
00000010
00000100
00000000
00000010
00000000
,  // measure 18
00000100
00000001
00000010
00000100
00001000
00000010
00000100
00001000
,  // measure 19
00010000
00000000
00010000
00000000
00010000
00000000
00001000
00000000
00100000
00010000
00100000
01000000
00100000
00000000
00010000
00000000
,  // measure 20
01000000
00100000
10000000
00010000
10000000
10000000
00100000
01000000
,  // measure 21
00010000
00000000
00100000
00000000
00010000
10000000
00010000
10000000
00000000
00000000
00010000
00000000
10000000
00000000
00100000
00000000
,  // measure 22
01000000
00000000
01000000
00000000
00010000
00100000
00010000
00100000
00000000
00000000
00010000
00000000
00100000
00000000
00001000
00000000
,  // measure 23
00001000
00000000
00100000
00000000
00000100
00001000
00000100
00001000
00000000
00000000
00000010
00000000
00000100
00000000
00001000
00000000
,  // measure 24
00000100
00000000
00000100
00000000
00000010
00001000
00000010
00001000
00000000
00000000
00000001
00000000
00000010
00000000
00000010
00000000
,  // measure 25
00000100
00000000
00001000
00000000
00000001
00001000
00000001
00000100
00000002
00000000
00000000
00000000
00000103
00000000
00000000
00000000
,  // measure 26
00000010
00001000
00000100
00000000
00010100
00010000
00001000
00101000
,  // measure 27
00100000
00010000
10010000
10000000
00100000
01000000
00010000
10000000
,  // measure 28
00100000
01000000
00100000
01000000
00010000
00000000
00000000
00000000
10100000
00000000
10000000
00000000
11000000
01000000
00100000
00010000
,  // measure 29
01000000
01000000
10010000
00000000
01010000
01000000
00001000
00011000
,  // measure 30
00010000
00000000
00000100
00000000
00001100
00000000
00001000
00000000
00000010
00000000
00000100
00000010
00000100
00000000
00000001
00000010
,  // measure 31
00000100
00000000
00000010
00000000
00000001
00001000
00000001
00000000
00000200
00000000
00000000
00000000
00000310
00000000
00001000
00000000
,  // measure 32
00000100
00000000
00000100
00000000
00010000
00001000
00010000
00001000
00200000
00000000
00000000
00000000
00310000
00000000
01000000
00000000
,  // measure 33
00100000
00000000
00100000
00000000
10000000
01000000
10000000
01000000
00200000
00000000
00000000
00000000
00310000
00000000
10000000
00000000
,  // measure 34
00100000
00000000
00100000
00000000
01000000
00010000
01000000
00010000
20000000
00000000
00000000
00000000
30100000
00000000
10000000
00000000
,  // measure 35
11000000
00000000
01010000
00000000
00110000
00100000
00001000
00010000
,  // measure 36
00000100
00000000
00001000
00000000
00000010
00000100
00000010
00000100
00000001
00000000
00000010
00000000
00000100
00000000
00001000
00000000
,  // measure 37
00000010
00000000
00001000
00000000
00000100
00010000
00000100
00010000
00002000
00000000
00000000
00000000
00103000
00000000
00010000
00000000
,  // measure 38
01000000
00100000
10000000
00010000
01000000
00100000
01000000
00010000
,  // measure 39
00100000
00000000
01000000
00000000
10000000
00010000
10000000
00010000
02000000
00000000
00000000
00000000
00000000
00000000
00000000
00000000
,  // measure 40
03200000
00000000
00000000
00000000
00000000
00000000
00000000
00000000
20000000
00300000
00000000
00000000
00000000
00000000
00000000
00000000
,  // measure 41
32000000
00000000
13000000
01000000
,  // measure 42
00010000
00000000
00001000
00000000
00000100
00000001
00000100
00000001
,  // measure 43
00001000
00000001
00001000
00001000
00000001
00000000
00000010
00000000
,  // measure 44
00001000
00000000
00010000
00000000
00100000
10000000
01000000
00000000
,  // measure 45
10000000
00010000
10000000
10000000
00100000
01000000
00010000
01000000
,  // measure 46
00001000
00010000
00000100
00001000
00000010
00000100
00000001
00000010
,  // measure 47
00001000
00000000
00010000
00000000
00001000
00000000
00100000
00000000
01000000
00000000
01000000
00000000
00110000
00000000
00000000
01000000
,  // measure 48
01000000
00000000
01000000
00000000
10010000
00000000
00000000
00000000
10100000
00000000
00100000
01000000
00100000
00000000
01010000
00000000
,  // measure 49
01000000
00100000
01000000
00000000
10010000
00000000
00010000
00100000
01000000
00000000
10000000
00100000
01000000
00000000
00010000
00000000
,  // measure 50
00100000
00010000
00100000
00010000
01000000
00000000
00000000
00000000
01001000
00000000
00011000
00000000
00000100
00000100
00001000
00000010
,  // measure 51
00001010
00000000
00000101
00000000
00001000
00001000
00000000
00000000
00000001
00000100
00001000
00000000
00000100
00000000
00000001
00000010
,  // measure 52
00001000
00000000
00000010
00000000
00000001
00000100
00001000
00000000
00000100
00000000
00000010
00001000
00000100
00000000
00001000
00000100
,  // measure 53
00001000
00000000
00000001
00000000
00001000
00000001
00001000
00000000
00000002
00000000
00000000
00000000
00000103
00000000
00000010
00000000
,  // measure 54
00001000
00000000
00001000
00000000
00000100
00010000
00001000
00100000
00020000
00000000
00000000
00000000
01030000
00000000
00100000
00000000
,  // measure 55
10000000
00000000
10000000
00000000
01000000
10000000
00100000
01000000
00020000
00000000
00000000
00000000
00130000
00000000
00010000
00000000
,  // measure 56
01000000
00000000
01000000
00000000
00010000
00100000
00001000
00010000
00000200
00000000
00000000
00000000
00001300
00000000
00000010
00000000
,  // measure 57
00000100
00000000
00000100
00000000
00000001
00001000
00000001
00001000
00000010
00000000
00000100
00000010
00000100
00000000
00001000
00000100
,  // measure 58
00001000
00000000
00010000
00001000
00010000
00000000
00001000
00010000
00001000
00000000
00100000
00010000
00100000
00000000
00010000
00100000
,  // measure 59
00010000
00000000
00100000
01000000
00100000
00000000
01000000
10000000
00020000
00000000
00000000
00000000
01030000
00000000
00100000
00000000
,  // measure 60
10000000
00000000
10000000
00000000
00010000
00000000
01000000
00000000
00100000
10000000
00100000
10000000
00100000
10000000
00100000
10000000
,  // measure 61
01000000
00000000
00000000
00000000
10010000
01000000
00000000
10010000
,  // measure 62
01000000
00000000
00000000
00000000
10010000
00000000
00001000
00010000
00001000
00000000
00001000
00000000
00001001
00000000
00000000
00000000
;
