#VERSION:0.82;
#TITLE:Sugar, You;
#SUBTITLE:;
#ARTIST:Oh, Honey!;
#TITLETRANSLIT:;
#SUBTITLETRANSLIT:;
#ARTISTTRANSLIT:;
#GENRE:Expert Harmonies;
#ORIGIN:;
#CREDIT:;
#BANNER:Sugar You.png;
#BACKGROUND:Sugar You-bg.png;
#PREVIEWVID:;
#JACKET:jacket.png;
#CDIMAGE:;
#DISCIMAGE:;
#LYRICSPATH:;
#CDTITLE:;
#MUSIC:Sugar You.ogg;
#OFFSET:0.000000;
#SAMPLESTART:46.033901;
#SAMPLELENGTH:14.733999;
#SELECTABLE:YES;
#DISPLAYBPM:133.000000;
#BPMS:0.000=133.000,
80.000=16.625,
82.000=133.000,
90.000=137.000,
91.000=133.000,
92.000=136.000,
93.000=133.000;
#STOPS:217.500=1.353;
#DELAYS:;
#WARPS:;
#TIMESIGNATURES:0.000=4=4;
#TICKCOUNTS:0.000=4;
#COMBOS:0.000=1;
#SPEEDS:0.000=1.000=0.000=0;
#SCROLLS:0.000=1.000;
#FAKES:;
#LABELS:0.000=Song Start;
#BGCHANGES:7.750=Sugar You.avi=1.000=0=0=1=====,
99999=-nosongbg-=1.000=0=0=0 // don't automatically add -songbackground-
;
#KEYSOUNDS:;
#ATTACKS:
;

//---------------dance-single - ----------------
#NOTEDATA:;
#CHARTNAME:;
#STEPSTYPE:dance-single;
#DESCRIPTION:;
#CHARTSTYLE:;
#DIFFICULTY:Hard;
#METER:8;
#RADARVALUES:0.466486,0.481194,0.187987,0.111400,0.125325,426.000000,27.000000,16.000000,0.000000,0.000000,0.000000,0.000000,0.000000,0.466486,0.481194,0.187987,0.111400,0.125325,426.000000,27.000000,16.000000,0.000000,0.000000,0.000000,0.000000,0.000000;
#CREDIT:Ben Speirs;
#DISPLAYBPM:133.000000;
#NOTES:
// measure 0
0000
0000
0000
0000
,  // measure 1
0000
0000
0000
0000
,  // measure 2
0000
0000
0000
0000
,  // measure 3
0000
0000
0000
0000
,  // measure 4
1000
0100
1000
0100
0100
1000
0010
0000
,  // measure 5
1000
0100
0010
0001
1000
0010
0100
0000
,  // measure 6
0010
0000
0000
0010
0000
0000
1000
0000
0000
0100
0000
0000
0010
0000
0000
0000
,  // measure 7
0001
0000
0000
1000
0000
0000
0010
0000
1000
0000
0100
0000
0010
0000
0000
0000
,  // measure 8
0001
0010
0001
0010
0010
0001
0100
0000
,  // measure 9
0001
0010
0100
1000
0001
0100
0010
0000
,  // measure 10
0100
0000
0000
0100
0000
0000
0001
0000
0000
0010
0000
0000
0100
0000
0000
0000
,  // measure 11
1000
0000
0000
0001
0000
0000
0100
0000
0001
0000
0010
0000
0100
0000
1000
0000
,  // measure 12
0011
0000
0001
0100
1010
0000
0001
0000
,  // measure 13
1000
0010
0100
0001
1000
1000
1000
0000
,  // measure 14
0100
0000
1000
0000
0010
0000
0100
0000
0001
0000
1000
0100
0000
0000
0010
0000
,  // measure 15
0010
0000
0001
1000
0010
0100
0001
0000
,  // measure 16
1100
0000
1000
0010
0101
0000
1000
0000
,  // measure 17
0001
0100
0010
1000
0001
0001
0001
0000
,  // measure 18
0010
0000
0001
0000
0100
0000
0010
0000
1000
0000
0001
0010
0000
0000
0100
0000
,  // measure 19
0100
0000
1000
0001
0100
0010
1000
0000
,  // measure 20
0002
0000
0000
0000
0000
0000
0000
0000
0000
0000
0000
0000
0000
0000
0000
0000
0000
0000
0000
0000
0000
0000
0000
0000
0000
0000
0000
0000
0000
0000
0000
0003
1001
0000
0000
0000
0000
0000
0000
0000
0000
0000
0000
0000
0000
0000
0000
0000
0100
0000
0000
0000
0000
0000
0000
0000
0000
0000
0000
0000
0000
0000
0000
0000
,  // measure 21
1000
0010
0000
0000
,  // measure 22
0001
0100
0001
2000
0100
0000
0001
0000
,  // measure 23
0010
0000
0100
0000
3001
0000
0000
0100
,  // measure 24
0100
0001
1000
0010
1010
0000
0011
0000
,  // measure 25
1000
0001
0100
0010
,  // measure 26
1000
0010
1000
0002
0010
0000
1000
0000
,  // measure 27
0100
0000
0010
0000
1003
0000
0000
0010
,  // measure 28
0010
1000
0001
0100
0101
0000
1100
0000
,  // measure 29
0001
0000
1000
0000
0010
0000
0100
0100
,  // measure 30
0001
1000
0001
1000
0200
0000
0310
0010
,  // measure 31
0001
1000
0001
1000
0020
0000
0130
0000
,  // measure 32
0001
1000
0010
0100
0002
0000
0013
1000
,  // measure 33
0010
0001
0010
0100
2000
0000
3001
0000
,  // measure 34
1000
0010
0100
0002
1000
0000
0010
0000
,  // measure 35
0100
0000
1000
0000
0013
0000
0000
1000
,  // measure 36
1000
0001
0001
0100
0101
0000
1010
0000
,  // measure 37
0100
0000
0001
0000
1000
0100
1000
0000
,  // measure 38
0001
0000
0010
0000
0100
0000
1000
0000
0010
0000
0000
0100
0000
0000
0001
0000
,  // measure 39
0001
0000
0000
1000
0000
0000
0100
0000
0100
0000
0000
0010
0000
0000
0001
0000
,  // measure 40
0001
0000
0000
0100
0000
0000
0010
0000
0010
0000
0000
1000
0000
0000
0100
0000
,  // measure 41
0100
0000
0010
0000
0001
0000
1000
0000
0010
0000
0000
0010
0100
0000
0000
0100
,  // measure 42
0001
0000
1000
0000
0100
0000
0000
0000
0010
0000
0000
0001
0000
0000
1000
0000
,  // measure 43
1000
0000
0000
0010
0000
0000
0100
0000
0100
0000
0000
0001
0000
0000
1000
0000
,  // measure 44
1000
0000
0000
0100
0000
0000
0010
0000
0010
0000
0000
0001
0000
0000
0100
0000
,  // measure 45
0100
0000
0010
0000
1000
0000
0001
0000
0010
0000
0000
0010
0001
0000
0000
0001
,  // measure 46
1000
0010
0100
0000
0001
1000
0010
0100
,  // measure 47
0001
0000
0010
0000
0100
1000
0100
0000
0010
0000
0001
0000
1000
0000
0010
0000
,  // measure 48
0100
0000
0001
0000
1000
0100
1000
0000
0010
0000
1000
0000
0100
0000
0010
0000
,  // measure 49
0001
0000
1000
0000
0010
0000
0100
0000
0001
0000
0000
0001
1000
0000
0000
1000
,  // measure 50
0010
0100
0001
0000
1000
0100
0010
0001
,  // measure 51
0100
0000
0010
0000
1000
0001
1000
0000
0010
0000
1000
0000
0100
0000
0010
0000
,  // measure 52
0001
0000
1000
0000
0001
0100
0001
0000
1000
0000
0100
0000
0010
0000
0001
0000
,  // measure 53
1000
0000
1000
0000
0001
0000
0001
0000
0100
0000
0000
0100
0010
0000
0000
0010
,  // measure 54
1000
0100
0010
0002
1003
0000
0101
0000
,  // measure 55
0000
1000
1000
0100
0010
0001
0011
0000
,  // measure 56
1001
0000
1000
0100
0010
0000
0001
0001
,  // measure 57
0100
0000
0001
0010
0100
2000
0010
0000
,  // measure 58
0001
0100
3010
0101
,  // measure 59
0000
1000
1000
0100
0010
0001
0011
0000
,  // measure 60
1010
0000
0001
1000
0001
0000
0100
0010
,  // measure 61
1000
0000
0100
0100
0010
0001
2000
0000
,  // measure 62
3010
1000
0010
0010
0100
0001
0020
0000
,  // measure 63
0130
0100
0010
0001
1000
0010
2010
0000
,  // measure 64
3001
0010
0001
0001
1000
1000
0020
0000
,  // measure 65
0130
0000
0001
1000
0100
0010
1001
0000
,  // measure 66
1100
0011
1010
2002
,  // measure 67
3003
0001
0001
1000
1000
0010
1010
0000
,  // measure 68
0101
0000
1000
0100
0010
0000
0001
1000
,  // measure 69
0010
0000
0100
0000
0001
0000
1000
0000
0010
0000
0000
0000
0101
0000
0000
0100
,  // measure 70
0000
0000
0010
0000
0000
1000
0000
0000
0001
0000
0000
0000
1000
0000
0000
1000
,  // measure 71
0000
0000
0100
0000
0000
0010
0000
0000
0001
0000
0000
0000
1100
0000
0000
0100
,  // measure 72
0000
0000
1000
0000
0000
0010
0000
0000
0100
0000
0001
0000
1000
0000
0000
0000
;

//---------------dance-single - ----------------
#NOTEDATA:;
#CHARTNAME:;
#STEPSTYPE:dance-single;
#DESCRIPTION:;
#CHARTSTYLE:;
#DIFFICULTY:Medium;
#METER:6;
#RADARVALUES:0.332210,0.455868,0.306349,0.181024,0.000000,264.000000,44.000000,26.000000,0.000000,0.000000,0.000000,0.000000,0.000000,0.332210,0.455868,0.306349,0.181024,0.000000,264.000000,44.000000,26.000000,0.000000,0.000000,0.000000,0.000000,0.000000;
#CREDIT:Ben Speirs;
#DISPLAYBPM:133.000000;
#NOTES:
0000
0000
0000
0000
,
0000
0000
0000
0000
,
0000
0000
0000
0000
,
0000
0000
0000
0000
,
1100
0000
0000
0001
0001
0000
0000
0000
,
1000
0001
0100
0000
,
0101
0000
0000
1000
1000
0000
0000
0000
,
0100
1000
0010
0000
,
1010
0000
0000
0001
0001
0000
0000
0000
,
1000
0001
0010
0000
,
0011
0000
0000
1000
1000
0000
0000
0000
,
0001
1000
0010
0000
,
1010
0100
0011
0000
,
1000
0001
1000
0000
0001
0000
0000
0000
,
0100
0001
1000
0010
,
0100
0000
0000
0000
0001
1000
0001
0000
,
0011
0100
1010
0000
,
1000
0000
0001
0000
0100
0010
0100
0000
,
0001
1000
0100
0010
,
0001
0000
1000
0001
,
0200
0000
0310
1000
,
0001
0100
0000
0000
,
0001
1000
0001
2000
0000
0000
0000
0000
,
0000
3100
1000
0001
,
0100
0010
0100
0000
0110
0000
1001
0000
,
0000
0001
0010
0100
,
1000
0001
1000
0002
0000
0000
0000
0000
,
0000
0013
0001
1000
,
0010
0100
0010
0000
0110
0000
1001
0000
,
0000
1000
0100
0010
,
0001
0100
0001
0100
0002
0000
0003
0000
,
1000
0100
1000
0100
2000
0000
3000
0000
,
0001
0010
0001
0010
0002
0000
0003
0000
,
1000
0010
1000
0010
2000
0000
3000
0000
,
0001
1000
0001
0200
0000
0000
0000
0000
,
0000
0310
1001
0000
,
1000
0100
1000
0000
0011
0000
1010
0000
,
0000
0001
1000
0010
,
0100
0001
2000
3100
,
1000
0001
0200
0310
,
1000
0100
0020
0031
,
1000
0010
1000
0000
0101
0000
0110
0000
,
1010
0000
0002
0103
,
0010
1000
0200
0310
,
0001
1000
0020
0130
,
0001
1000
0001
0000
1010
0000
0101
0000
,
1100
0000
0000
0000
0001
0010
0001
0000
,
0011
0000
0000
0000
1000
0010
1000
0000
,
1010
0000
0001
1000
,
0010
0100
0010
0100
0002
0000
2003
0000
,
3100
0000
1000
1100
,
1001
0000
0001
0101
,
1001
0000
0000
0000
1000
0001
1000
0000
,
0010
0100
0010
0000
1010
0000
0110
0000
,
0001
0100
0010
2000
3001
0000
1001
0000
,
0000
1000
0001
0101
,
1010
0001
1000
0100
,
0010
0000
0001
1000
0001
0020
0000
0000
,
0000
0000
0130
1000
,
0001
0000
1000
0100
1000
0000
0011
0000
,
1010
0001
1000
0010
,
0000
0000
1000
0100
1000
0010
2000
0000
,
3000
0000
0001
0100
0001
0010
0002
0000
,
0003
1000
0001
0200
,
0310
0000
1000
0001
1000
0001
0200
0000
,
0300
0000
0010
1000
0001
2000
0000
0000
,
0000
0000
3100
0011
,
1000
0000
0010
1000
0001
0000
1001
0000
,
0110
1001
0110
1001
,
0110
1001
0110
2000
,
0000
3100
0100
0002
,
0000
0100
0103
2000
,
0000
0010
3010
1001
;

//---------------dance-single - ----------------
#NOTEDATA:;
#CHARTNAME:;
#STEPSTYPE:dance-single;
#DESCRIPTION:;
#CHARTSTYLE:;
#DIFFICULTY:Easy;
#METER:3;
#RADARVALUES:0.182019,0.227934,0.076587,0.076587,0.000000,161.000000,11.000000,11.000000,0.000000,0.000000,0.000000,0.000000,0.000000,0.182019,0.227934,0.076587,0.076587,0.000000,161.000000,11.000000,11.000000,0.000000,0.000000,0.000000,0.000000,0.000000;
#CREDIT:Ben Speirs;
#DISPLAYBPM:133.000000;
#NOTES:
0000
0000
0000
0000
,
0000
0000
0000
0000
,
0000
0000
0000
0000
,
0000
0000
0000
0000
,
1000
0000
0001
0000
,
0100
0010
1000
0000
,
0100
0000
0010
0000
,
0001
1000
0010
0000
,
1000
0000
0001
0000
,
0100
0100
0010
0000
,
1000
0000
0001
0000
,
0010
0010
0100
0000
,
1001
0000
1001
0000
,
0100
1000
0010
0000
,
0100
0001
1000
0000
,
0010
0000
1000
0000
,
1001
0000
1001
0000
,
0001
0100
0010
0000
,
1000
0001
0010
0000
,
0100
0000
1000
0000
,
0020
0000
0000
0030
0100
0000
0000
0000
,
0100
0100
0000
0000
,
0010
0000
2002
0000
,
0000
0000
3003
0000
,
1000
0001
0100
0100
,
0000
0000
0010
0000
,
1000
0000
2002
0000
,
0000
0000
3003
0000
,
0010
0001
0100
0100
,
0000
0000
0010
0000
,
1000
0100
1000
0000
,
0001
0100
0001
0000
,
1000
0000
0010
0000
,
0100
0000
0001
0000
,
1000
0000
2002
0000
,
0000
0000
3003
0000
,
0010
1000
0001
0001
,
0000
0000
0100
0000
,
0100
0000
0010
0010
,
0000
0000
1000
1000
,
0000
0000
0100
0000
,
0010
0000
0001
1000
,
0001
1000
0010
0010
,
0000
0000
0100
0100
,
0000
0000
0001
0000
,
1000
0000
0010
0100
,
0010
0000
1000
0100
,
1000
0100
0010
0001
,
0010
0000
0001
0100
,
0001
0100
0010
0010
,
0010
0000
1000
0001
,
0100
0000
0001
1000
,
0010
0000
1000
0100
,
0010
0001
0100
0100
,
0100
0100
0000
1001
,
0000
1000
0001
0100
,
0100
0000
0000
0010
,
0000
1000
0000
2002
,
0000
0000
0000
3003
,
0000
0010
1000
0100
,
0100
0000
0000
0010
,
0000
0001
1000
0001
,
0000
1000
0001
1000
,
0000
0010
0100
0010
,
0000
0100
0010
0100
,
0000
0001
0000
2002
,
0000
0000
0000
3003
,
0000
0100
1000
0010
,
0010
0000
0000
1000
,
0000
0001
0100
0010
,
0000
0000
0000
1000
,
0000
0000
0000
0100
,
0000
0000
0000
1001
;

//---------------dance-single - ----------------
#NOTEDATA:;
#CHARTNAME:;
#STEPSTYPE:dance-single;
#DESCRIPTION:;
#CHARTSTYLE:;
#DIFFICULTY:Beginner;
#METER:1;
#RADARVALUES:0.110405,0.151956,0.048737,0.000000,0.000000,104.000000,7.000000,0.000000,0.000000,0.000000,0.000000,0.000000,0.000000,0.110405,0.151956,0.048737,0.000000,0.000000,104.000000,7.000000,0.000000,0.000000,0.000000,0.000000,0.000000,0.000000;
#CREDIT:;
#DISPLAYBPM:133.000000;
#NOTES:
0000
0000
0000
0000
,
0000
0000
0000
0000
,
0000
0000
0000
0000
,
0000
0000
0000
0000
,
0100
0000
0000
0000
,
0010
0000
0000
0000
,
1000
0000
0000
0000
,
0001
0000
0000
0000
,
1000
0000
0000
0000
,
0100
0000
0000
0000
,
0010
0000
0000
0000
,
0001
0000
0000
0000
,
0100
0000
0100
0000
,
0010
0000
0000
0000
,
1000
0000
0001
0000
,
0100
0000
0000
0000
,
0010
0000
0010
0000
,
1000
0000
0000
0000
,
0001
0000
0010
0000
,
0100
0000
0000
0000
,
1000
0000
0000
0000
,
0000
0010
0000
0000
,
0000
0000
1001
0000
,
0000
0000
1000
0000
,
0010
0000
0100
0100
,
0000
0000
0001
0000
,
1000
0000
1001
0000
,
0000
0000
0001
0000
,
0010
0000
0100
0100
,
0000
0000
1000
0000
,
0000
0000
0010
0010
,
0000
0000
1000
1000
,
0000
0000
0001
0000
,
0001
0000
0001
0000
,
0000
0000
1001
0000
,
0000
0000
1000
0000
,
0010
0000
0100
0100
,
0000
0000
0010
0000
,
1000
0000
0001
0000
,
0000
1000
1000
0000
,
0000
0100
0100
0000
,
0000
0000
0010
0000
,
0010
0000
0001
0000
,
0000
1000
1000
0000
,
0000
0010
0010
0000
,
0000
0000
0100
0000
,
0100
0000
0001
0000
,
0000
0000
1000
0000
,
0000
0000
0010
0000
,
0010
0000
1000
0000
,
0001
0000
0100
0000
,
0000
0000
0001
0000
,
0000
0000
1000
0000
,
0000
0000
0010
0010
,
0010
0010
0000
1001
,
0000
0000
0000
0100
,
0100
0000
0000
0010
,
0000
1000
0000
1001
,
0000
0000
0000
0001
,
0000
1000
0000
0100
,
0100
0000
0000
0000
,
0000
1000
1000
1000
,
0000
0000
0000
0010
,
0000
0000
0000
0100
,
0000
0100
0000
0100
,
0000
0000
0000
1001
,
0000
0000
0000
0001
,
0000
1000
0000
0010
,
0010
0000
0000
1000
,
0000
0001
0000
0100
,
0000
0000
0000
0010
,
0000
0000
0000
1000
,
0000
0000
0000
1001
;

//---------------dance-single - ----------------
#NOTEDATA:;
#CHARTNAME:;
#STEPSTYPE:dance-single;
#DESCRIPTION:;
#CHARTSTYLE:;
#DIFFICULTY:Challenge;
#METER:9;
#RADARVALUES:0.603746,0.734455,0.125325,0.006962,0.400343,588.000000,18.000000,1.000000,0.000000,0.000000,0.000000,0.000000,0.000000,0.603746,0.734455,0.125325,0.006962,0.400343,588.000000,18.000000,1.000000,0.000000,0.000000,0.000000,0.000000,0.000000;
#CREDIT:Ben Speirs;
#DISPLAYBPM:133.000000;
#NOTES:
0000
0000
0000
0000
,
0000
0000
0000
0000
,
0000
0000
0000
0000
,
0000
0000
0000
0000
,
1000
0100
1000
0001
0001
1000
0010
0000
,
1000
0100
0010
0001
1000
0010
0100
0000
,
0001
0000
0001
0100
0000
0100
0010
0000
0010
1000
0000
1000
0001
0000
0000
0000
,
1000
0000
1000
0100
0000
0100
0010
0000
0010
0001
0000
0001
1000
0000
0000
0000
,
0001
0010
0001
0100
0100
0001
1000
0000
,
0001
0010
0100
1000
0010
0100
0001
0000
,
1000
0000
1000
0010
0000
0010
0100
0000
0100
0001
0000
0001
1000
0000
0000
0000
,
0001
0000
0001
0010
0000
0010
0100
0000
0100
1000
0001
0000
0100
0000
0010
0000
,
1010
1000
0100
0000
0011
0001
1000
0000
,
0010
0000
1000
0000
0001
0000
0100
0000
0010
0000
1000
0001
1000
0000
0000
0000
,
0010
0000
1000
0000
0100
0000
0010
0000
0001
0000
1000
0100
1000
0000
0001
0100
,
0001
0000
1000
0100
0010
0001
1000
0000
,
0101
0001
0010
0000
1100
1000
0001
0000
,
0100
0000
0001
0000
1000
0000
0010
0000
0100
0000
0001
1000
0001
0000
0000
0000
,
0100
0000
0001
0000
0010
0000
0100
0000
1000
0000
0001
0010
0001
0000
1000
0010
,
1000
0000
0001
0010
0100
1000
0001
0000
,
0200
0000
0000
0000
0310
1000
0100
0010
,
0001
1000
0010
0000
0000
0000
0000
0000
,
0001
1000
0001
1000
0001
1000
0001
1000
0010
0000
0100
0000
0001
0000
1000
0000
,
0100
0010
0001
1000
0010
0100
0001
1000
,
0010
0000
0100
0000
0001
0000
1000
0000
0010
0100
0010
0100
0010
0000
0000
0000
,
0100
0001
0010
0100
1000
0010
0100
0001
,
1000
0100
0010
0001
1000
0010
0100
0001
,
1000
0100
0010
0001
1000
0010
1000
0001
,
0010
0000
0100
0000
1000
0000
0001
0000
0100
0010
0100
0010
0100
0000
0000
0000
,
0001
1000
0010
0100
0001
1000
0100
0010
,
0001
0000
1000
0000
0010
0100
0010
0100
0010
0000
0000
0000
1000
0000
0100
0000
,
0010
0000
0001
0000
1000
0100
1000
0100
1000
0000
0000
0000
0010
0000
1000
0000
,
0100
0000
0010
0000
0001
1000
0001
1000
0001
0000
0000
0000
0100
0010
0100
0010
,
0100
0000
0010
0000
1000
0001
1000
0001
1000
0000
0000
0000
0010
0000
1000
0000
,
0100
0010
0001
1000
0010
0100
0001
1000
,
0100
0010
0001
1000
0010
0100
0001
1000
,
0100
0000
1000
0000
0001
0000
0100
0000
0010
1000
0010
1000
0010
0000
0000
0000
,
0100
0001
1000
0100
0010
0001
1000
0010
,
0100
0000
0010
0000
1000
0000
0000
0000
0001
0000
0001
0100
0000
0000
0010
0000
,
1000
0000
1000
0100
0000
0000
0010
0000
0001
0000
0001
1000
0000
0000
0010
0000
,
1000
0000
1000
0001
0000
0000
0100
0000
0010
0000
0010
1000
0000
0000
0100
0000
,
0010
0000
0010
0001
0000
0000
1000
0000
1100
0000
0001
0000
0101
0000
1000
0000
,
1010
0000
0000
0000
1001
0000
0000
0000
1000
0000
1000
0100
0000
0000
0010
0000
,
0001
0000
0001
0100
0000
0000
0010
0000
1000
0000
1000
0001
0000
0000
0010
0000
,
0100
0000
0100
1000
0000
0000
0010
0000
0100
0000
0100
0001
0000
0000
1000
0000
,
0100
0000
0100
0010
0000
0000
0001
0000
0011
0000
1000
0000
1010
0000
0001
0000
,
1001
0000
0000
0000
0100
0000
0000
0000
0001
0100
0001
0100
0010
0000
1000
0000
,
0100
0010
0100
0010
0001
0000
1000
0000
0010
1000
0010
1000
0001
0000
0010
0000
,
0001
0100
0001
0100
0010
0000
1000
0000
0100
0010
0100
0010
0001
0000
1000
0000
,
0010
1000
0010
1000
0001
0000
0100
0000
0010
0000
1000
0000
0100
0000
0010
0000
,
0001
0000
1000
0000
1001
0000
0000
0000
0010
0100
0010
0100
0001
0000
1000
0000
,
0100
0010
0100
0010
0001
0000
1000
0000
0010
1000
0010
1000
0001
0000
0010
0000
,
0100
1000
0100
1000
0001
0000
0100
0000
0010
1000
0010
1000
0001
0000
0010
0000
,
0100
1000
0100
1000
0010
0000
0100
0000
0001
1000
0001
1000
0001
1000
0001
1000
,
0010
0100
0010
0100
0010
0100
0010
0000
0101
0000
0000
0000
1001
0000
1000
0000
,
0100
0000
0010
0000
0001
0000
1000
0000
0010
0000
0100
0000
0001
1000
0001
0100
,
0001
1000
0100
0010
0001
1000
0010
0100
,
0001
1000
0100
0010
0001
1000
0010
0100
,
0010
1000
0100
0010
0001
1000
0010
0100
,
0001
0000
1000
0000
0100
0000
0010
0000
0001
0000
0100
0000
0010
1000
0010
0100
,
0010
1000
0100
0010
0001
1000
0010
0100
,
0001
0000
1000
0000
0001
0100
0001
0100
0001
0100
0001
0100
0001
0000
0000
0000
,
1000
0000
0001
0000
1000
0100
1000
0100
1000
0100
1000
0100
1000
0000
0000
0000
,
0001
0000
1000
0000
0010
0100
0010
0100
0010
0100
0010
0100
0001
0000
0000
0000
,
1000
0100
1000
0000
0001
0100
0001
0000
1000
0010
1000
0000
0001
0000
0000
0000
,
1000
0010
0100
0001
0010
0100
1000
0010
,
1000
0001
0010
0100
1000
0010
0100
0001
,
1000
0000
0010
0000
0100
0000
0001
0000
1000
0000
0001
0000
0100
0010
1000
0010
,
0100
0000
0001
0100
0010
1000
0001
0010
,
0100
0000
1000
0000
0001
0100
0001
0100
0001
0100
0001
0100
0010
0000
0000
1000
,
0000
0000
0001
0000
0000
0100
0000
0000
1001
0000
0000
0000
0010
0000
0000
1000
,
0000
0000
0001
0000
0000
0010
0000
0000
1001
0000
0000
0000
1000
0000
0000
0100
,
0000
0000
0010
0000
0000
0001
0000
0000
1100
0000
0000
0000
0101
0000
0000
0000
;

//---------------dance-double - ----------------
#NOTEDATA:;
#CHARTNAME:;
#STEPSTYPE:dance-double;
#DESCRIPTION:;
#CHARTSTYLE:;
#DIFFICULTY:Challenge;
#METER:8;
#RADARVALUES:0.451567,0.455868,0.215837,0.083550,0.069625,411.000000,31.000000,12.000000,0.000000,0.000000,0.000000,0.000000,0.000000,0.451567,0.455868,0.215837,0.083550,0.069625,411.000000,31.000000,12.000000,0.000000,0.000000,0.000000,0.000000,0.000000;
#CREDIT:Ben Speirs;
#DISPLAYBPM:133.000000;
#NOTES:
00000000
00000000
00000000
00000000
,
00000000
00000000
00000000
00000000
,
00000000
00000000
00000000
00000000
,
00000000
00000000
00000000
00000000
,
10000000
01000000
10000000
00010000
00010000
10000000
00100000
00000000
,
10000000
01000000
00100000
00010000
10000000
00100000
01000000
00000000
,
00010000
00100000
00001000
00010000
,
00000010
00000000
00000000
00001000
00000000
00000000
00000001
00000000
00000010
00000000
00000100
00000000
00001000
00000000
00000000
00000000
,
00000001
00000010
00000001
00001000
00001000
00000001
00000100
00000000
,
00000001
00000010
00000100
00001000
00000001
00000100
00000010
00000000
,
00001000
00000100
00010000
00001000
,
01000000
00000000
00000000
00010000
00000000
00000000
10000000
00000000
01000000
00000000
00100000
00000000
00010000
00000000
00000000
00000000
,
10010000
01000000
10010000
00100000
,
10000000
01000000
00100000
00010000
01000000
01000000
01000000
00000000
,
00100000
10000000
01000000
00100000
00010000
01000000
00100000
00010000
,
00002000
00000000
00003010
00000000
00000001
00001000
00000010
00000000
,
00001001
00000010
00001001
00000100
,
00000001
00000010
00000100
00001000
00000010
00000010
00000010
00000000
,
00000100
00000001
00000010
00000100
00001000
00000010
00000100
00001000
,
00020000
00000000
01030000
00000000
10000000
00010000
01000000
00000000
,
00200000
00000000
10300000
01000000
,
00010000
00001000
00000000
00000000
,
00010000
00001000
00010000
00002000
00100000
00000000
00010000
00000000
,
01000000
00000000
00013000
00000000
00011000
00000000
00000000
00010000
,
00100000
10000000
01000000
00100000
00110000
00000000
11000000
00000000
,
00010000
10000000
00010000
00000000
01000000
00000000
00010000
00100000
,
00001000
00010000
00001000
00020000
00000100
00000000
00001000
00000000
,
00000010
00000000
00031000
00000000
00011000
00000000
00000000
00001000
,
00000100
00000001
00000010
00000100
00001100
00000000
00000011
00000000
,
00001000
00000001
00001000
00000000
00000010
00000000
00001000
00000100
,
00100000
00001000
00100000
00001000
00100000
00000000
00011000
00000000
,
00000010
00010000
00000010
00010000
00000010
00000000
00011000
00000000
,
01000000
00010000
01000000
00010000
20000000
00000000
31000000
00100000
,
00010000
00010000
10000000
10000000
00200000
00000000
01300000
00000000
,
00010000
00100000
00001000
00020000
00000100
00000000
00001000
00000000
,
00000010
00000000
00031000
00000000
00011000
00000000
00000000
00000100
,
00001000
00000100
00010000
00001000
00101000
00000000
00011000
00000000
,
00001000
00000100
00000001
00000000
00001000
00000100
00000010
00000001
,
00001000
00000000
00000010
00000000
00000100
00000000
00000000
00000000
00000001
00000000
00000000
00000100
00000000
00000000
00000010
00000000
,
00000010
00000000
00000000
00001000
00000000
00000000
00000100
00000000
00010000
00000000
00000000
00001000
00000000
00000000
00100000
00000000
,
00100000
00000000
00000000
00010000
00000000
00000000
10000000
00000000
00100000
00000000
00000000
01000000
00000000
00000000
00010000
00000000
,
00010000
10000000
01000000
00100000
00110000
00000000
10100000
00000000
,
00010000
00000000
10000000
00000000
00010000
00000000
00000000
00000000
10000000
00000000
00000000
01000000
00000000
00000000
00100000
00000000
,
00100000
00000000
00000000
00010000
00000000
00000000
01000000
00000000
00001000
00000000
00000000
00010000
00000000
00000000
00000100
00000000
,
00000100
00000000
00000000
00001000
00000000
00000000
00000010
00000000
00000100
00000000
00000000
00000001
00000000
00000000
00001000
00000000
,
00001000
00000100
00000010
00000001
00000011
00000000
00001010
00000000
,
00000001
00001000
00000001
00000000
00000100
00000001
00000010
00000100
,
00001000
00000100
00010000
00000100
00001000
00000010
00000100
00000001
,
00000010
00000100
00001000
00000010
00010000
00001000
00010000
00100000
,
10000000
00000000
01000000
00000000
00100000
00000000
00010000
00000000
10000000
00000000
00000000
10000000
00100000
00000000
00000000
00100000
,
01000000
00010000
10000000
00000000
01000000
10000000
00100000
01000000
,
00010000
00100000
10000000
00100000
00010000
01000000
00100000
00010000
,
00001000
00000010
00000001
00000100
00001000
00000100
00000001
00000010
,
00000100
00001000
00000010
00010000
00001000
00001000
00100000
00001000
,
00010000
00000100
00010000
00001000
00110000
00000000
00011000
00000000
,
00000000
00001000
00000100
00000001
00000010
00000100
00001100
00000000
,
00000011
00000000
00001000
00000001
00001000
00000000
00000010
00000000
,
00001000
00000100
00010000
00001000
00010000
00002000
00100000
00000000
,
00010000
01000000
00013000
00011000
,
00000000
00010000
00100000
10000000
01000000
00100000
00110000
00000000
,
11000000
00000000
00010000
10000000
00010000
00000000
01000000
00000000
,
00010000
00100000
00000100
00010000
00000100
00010000
00000100
00000000
,
00011000
00000000
01000000
00001000
01000000
00001000
01000000
00000000
,
00011000
00000000
00000010
00001000
00000010
00001000
00000002
00000000
,
00000013
00000100
00001000
00001000
00000001
00000001
00000200
00000000
,
00000310
00000000
00001000
00000100
00010000
00002000
00100000
00000000
,
00010000
01000000
00013000
00011000
,
00000000
00100000
00010000
00100000
00001000
00010000
00010100
00000000
,
00011000
00000000
00010000
00100000
10000000
00000000
00010000
00100000
,
01000000
00000000
10000000
00000000
00010000
00000000
01000000
00000000
00100000
00000000
00000000
00000000
10000000
00000000
00000000
00100000
,
00000000
00000000
10000000
00000000
00000000
00010000
00000000
00000000
10000000
00000000
00000000
00000000
00010000
00000000
00000000
01000000
,
00000000
00000000
00010000
00000000
00000000
10000000
00000000
00000000
00010000
00000000
00000000
00000000
10000000
00000000
00000000
01000000
,
00000000
00000000
00010000
00000000
00000000
00001000
00000000
00000000
00000100
00000000
00000000
00000000
00000001
00000000
00000000
00000000
;
