#TITLE:B4U;
#SUBTITLE:Millenium Edition;
#ARTIST:DJ Wing;
#TITLETRANSLIT:;
#SUBTITLETRANSLIT:;
#ARTISTTRANSLIT:;
#CREDIT:jammitch!;
#BANNER:B4U (Millenium Edition).png;
#BACKGROUND:B4U (Millenium Edition)-bg.png;
#LYRICSPATH:B4U (Millenium Edition).lrc;
#CDTITLE:jammitch! DDR.png;
#MUSIC:B4U (Millenium Edition).mp3;
#OFFSET:-0.815;
#SAMPLESTART:15.634;
#SAMPLELENGTH:12.540;
#SELECTABLE:YES;
#DISPLAYBPM:155.000;
#BPMS:0.000=155.020,51.000=309.960,51.500=154.980,151.000=309.959,151.500=154.980;
#STOPS:51.000=0.020
,51.125=0.025
,51.250=0.020
,51.375=0.025
,151.000=0.020
,151.125=0.025
,151.250=0.020
,151.375=0.025
;
#BGCHANGES:;

//---------------dance-single - ivKAS----------------
#NOTES:
     dance-single:
     ivKAS:
     Challenge:
     12:
     1.000,1.000,1.000,0.017,1.000: // measure 1
0000
0000
0000
0000
,  // measure 2
0000
0000
0000
0000
,  // measure 3
0000
0000
0000
0000
,  // measure 4
0000
0000
0000
0000
,  // measure 5
1001
0000
0000
1100
0000
0000
0011
0000
0000
0010
0001
0000
0110
0000
1100
0000
,  // measure 6
1001
0000
0000
1010
0000
0000
0101
0000
0000
0010
1000
0000
0110
0000
0101
0000
,  // measure 7
0011
0000
0000
1001
0000
0000
0101
0000
0000
0100
0001
0000
0110
0000
1010
0000
,  // measure 8
1100
0000
0000
1001
0000
0000
1010
0000
0000
0100
0001
0000
0110
0000
1010
0000
,  // measure 9
1000
0010
1000
0100
0000
0000
0001
0010
0001
0100
0000
0000
1000
0010
1000
0100
,  // measure 10
0010
0000
1001
0000
1100
0000
0110
0000
0010
0001
0100
1000
0100
0001
0010
1000
,  // measure 11
0010
0001
0100
0001
0000
0000
1000
0010
1000
0100
0000
0000
0010
0001
0100
0001
,  // measure 12
0010
0100
1000
0100
0001
0100
1000
0100
0010
0001
0010
1000
0010
0001
0010
0100
,  // measure 13
1000
0000
0100
0000
0000
0000
0010
0000
0000
0000
0010
0000
0001
0000
0100
0000
0000
0000
0100
0000
1000
0000
0000
0000
0001
0100
0001
0100
0001
0000
0100
0000
,  // measure 14
1001
0000
0011
0000
1100
0000
0101
0000
1010
0000
0011
0110
0000
0000
0101
0000
,  // measure 15
1001
0000
0001
0100
1000
0000
1000
1100
0000
1000
1010
0000
0101
0000
0000
0000
,  // measure 16
1001
0000
0100
0110
0000
0001
0100
0010
0011
0000
1100
0000
0101
0000
0001
1000
,  // measure 17
1100
0000
0010
0001
0101
0000
0110
0000
1100
0000
0101
0000
1100
0000
0011
0000
,  // measure 18
1001
0000
0000
1100
0000
0000
0001
0010
0110
0000
0000
0101
0000
0000
1000
0100
,  // measure 19
1000
0010
0011
0000
0110
0000
0101
0000
1100
0000
0000
0101
0000
0000
1000
0001
,  // measure 20
1001
0000
0101
0000
1010
0000
0101
0000
1001
0000
0011
0000
1000
0000
0010
0001
,  // measure 21
1001
0000
0100
0000
1001
0000
1000
0001
1001
0000
1001
0000
1001
0000
1001
0000
,  // measure 22
1001
0001
0000
0110
0000
1100
0000
0101
0000
1010
0000
0100
0001
0000
0101
0000
,  // measure 23
1000
0100
0010
0001
0000
0001
0010
1000
0010
0001
1000
0100
0001
0000
0100
0010
,  // measure 24
1001
0100
0000
0110
0000
1100
0000
0001
1001
1000
0000
0100
0001
0000
0101
0000
,  // measure 25
1001
0100
0001
0100
1001
0000
0000
1000
1001
0001
1001
0000
1001
0000
1001
0000
,  // measure 26
1001
0001
0000
0011
0000
1010
0000
0101
0000
1010
0000
1000
0001
0000
0101
0000
,  // measure 27
1000
0100
0010
0001
0000
0100
1000
0010
0001
0010
1000
0001
0100
0000
1000
0100
,  // measure 28
1001
1000
0000
0110
0000
0011
0000
1000
1001
0001
0000
0010
0001
0000
0101
0000
,  // measure 29
1001
0100
1000
0010
1001
0000
0001
0100
1001
0100
1001
0000
1001
0000
1001
0000
,  // measure 30
1001
0000
0110
0000
0100
1001
0000
0100
1010
0000
0100
0011
0000
0100
1001
0000
,  // measure 31
1001
0000
0110
0000
0010
1001
0000
0010
0101
0000
0010
1100
0000
0010
1001
0000
,  // measure 32
1001
0000
0100
0000
0010
1100
0000
0001
1100
0000
0100
0011
0000
1000
1001
0000
,  // measure 33
1001
0000
0100
0000
1001
1000
0000
0001
1001
0000
1001
0000
1001
0000
1001
0000
,  // measure 34
1000
0000
0101
0000
1000
1001
0000
0001
1001
0000
0010
1001
0000
0100
1001
0000
,  // measure 35
1100
0000
0101
0000
0010
0110
0000
0100
0110
0000
1000
0110
0000
0001
0110
0000
,  // measure 36
1010
0000
0011
0000
0010
1010
0000
0100
1010
0000
1000
1010
0000
0001
1010
0000
,  // measure 37
1010
0000
0011
0000
0010
0101
0000
0100
0101
0000
1000
0101
0000
0001
0101
0000
,  // measure 38
1000
0000
0010
0000
0000
0000
0100
0000
0000
0000
0100
0000
0001
0000
0010
0000
0000
0000
0010
0000
1000
0000
0000
0000
0001
0010
0001
0010
0001
0000
0010
0000
,  // measure 39
1001
0000
0010
0100
1000
0010
0100
0000
1100
0000
0101
0000
1010
0000
0010
1000
,  // measure 40
0100
0000
1010
0000
1100
0000
0001
1000
0100
0000
0011
0000
1100
0000
0110
0000
,  // measure 41
0011
0000
1000
0010
0001
0000
1100
0000
0011
0000
1100
0110
0000
0000
0001
0100
,  // measure 42
1010
0000
1000
0010
0001
0000
0001
0010
1000
0000
1000
0101
0000
0000
1000
0100
,  // measure 43
1001
0000
0100
1001
0000
0000
0110
0000
0011
0000
1000
1001
0000
0000
1100
0000
,  // measure 44
0110
0000
0010
0001
1000
0000
1001
0000
0101
0000
0100
0110
0000
0000
1010
0000
,  // measure 45
1001
0000
0101
0000
1001
0000
1100
0000
1001
0000
0010
0101
0000
0000
1000
0001
,  // measure 46
1001
0000
0100
0000
1001
0000
0100
0010
1001
0000
1001
0000
1001
0000
1001
0000
,  // measure 47
1001
0100
0000
0011
0000
1100
0000
1010
0000
0101
0000
0100
0001
0000
1010
0000
,  // measure 48
1000
0100
1000
0010
0000
0001
0010
0100
1000
0100
0001
0100
1000
0000
0100
0001
,  // measure 49
1001
1000
0000
1100
0000
0001
0000
0100
1001
0001
0000
0100
1000
0000
1100
0000
,  // measure 50
1001
0100
1000
0100
1001
0000
0000
0100
1001
1000
1001
0000
1001
0000
1001
0000
,  // measure 51
1001
1000
0000
1010
0000
0011
0000
0101
0000
1010
0000
1000
0100
0000
0011
0000
,  // measure 52
1000
0001
0010
0100
0000
0100
1000
0100
0001
0100
1000
0010
0100
0000
1000
0001
,  // measure 53
1001
1000
0000
0110
0000
0011
0000
1000
1001
0100
0000
0100
1000
0000
0110
0000
,  // measure 54
1001
0100
0001
1000
1001
0000
1000
0100
1001
0001
1001
0000
1001
0000
1001
0000
,  // measure 55
1001
1100
0100
0101
0001
0011
0010
0110
,  // measure 56
0100
1100
1000
1010
0010
0011
0101
1100
,  // measure 57
2010
0100
0010
0002
0000
0000
0000
0000
3003
0000
0000
0000
0000
0000
0001
0000
,  // measure 58
1000
0100
0001
0100
1000
0000
0001
0010
0100
0000
1000
0000
1001
0000
1100
0000
,  // measure 59
1001
0000
0000
0000
0000
0000
0000
0000
1001
0100
0000
0101
0000
1010
0000
1000
,  // measure 60
1001
0000
0000
0000
0000
0000
0000
0000
1001
0100
0000
0101
0000
0011
0000
0100
,  // measure 61
1001
0010
0000
0010
1001
0100
0000
1000
0110
0001
0000
0001
0110
1000
0000
1000
,  // measure 62
0101
0010
0000
0001
1100
0010
0000
1000
0011
0100
0000
0001
1010
0100
0000
0010
,  // measure 63
1001
0100
0000
0100
1010
0001
0000
0001
0110
1000
0000
1000
0101
0010
0000
0010
,  // measure 64
1001
0011
1001
1010
1001
0011
1001
1010
,  // measure 65
1001
0000
0011
0000
1001
0000
1010
0000
1001
1001
1001
1001
0000
0000
0000
0000
,  // measure 66
1001
0100
0000
0011
0000
1010
0000
0101
0000
1100
0000
0010
0001
0000
0011
0000
,  // measure 67
1000
0001
0010
1000
0000
0001
0010
1000
0100
0010
1000
0001
0100
0000
0100
0010
,  // measure 68
1001
0001
0000
0011
0000
0110
0000
1000
1001
0001
0000
0001
0010
0000
1100
0000
,  // measure 69
1001
0100
0010
0001
1001
0000
0000
1000
1001
1000
1001
0000
1001
0000
1001
0000
,  // measure 70
1001
0001
0000
0110
0000
0011
0000
1010
0000
0101
0000
1000
0100
0000
0011
0000
,  // measure 71
1000
0010
0001
1000
0000
0100
0001
1000
0010
0100
0001
0100
0010
0000
1000
0100
,  // measure 72
1001
0001
0000
1001
0000
0110
0000
0100
1001
0100
0000
0010
0001
0000
1000
0000
,  // measure 73
1001
0100
1000
0001
1001
0000
0001
1000
1001
0100
1001
0000
1001
0000
1001
0000
,  // measure 74
1001
1001
1001
0000
0000
0000
1001
1001
1001
0000
0000
0000
1001
1001
1001
0000
,  // measure 75
0000
0000
1001
1001
1001
0000
1001
1001
1001
0000
1001
0000
1001
0000
0000
0000
,  // measure 76
0110
0000
0000
0000
;

//---------------dance-solo - viKAS----------------
#NOTES:
     dance-solo:
     viKAS:
     Challenge:
     12:
     1.000,1.000,1.000,0.017,1.000:
000000
000000
000000
000000
,
000000
000000
000000
000000
,
000000
000000
000000
000000
,
000000
000000
000000
000000
,
100001
000000
000000
101000
000000
000000
000101
000000
000000
000100
000001
000000
001100
000000
101000
000000
,
100001
000000
000000
100100
000000
000000
001001
000000
000000
000100
100000
000000
001100
000000
001001
000000
,
000101
000000
000000
100001
000000
000000
001001
000000
000000
001000
000001
000000
001100
000000
100100
000000
,
101000
000000
000000
100001
000000
000000
100100
000000
000000
001000
000001
000000
001100
000000
100100
000000
,
100000
000100
100000
001000
000000
000000
000001
000100
000001
001000
000000
000000
100000
000100
100000
001000
,
000100
000000
100001
000000
101000
000000
001100
000000
000100
000001
001000
100000
001000
000001
000100
100000
,
000100
000001
001000
000001
000000
000000
100000
000100
100000
001000
000000
000000
000100
000001
001000
000001
,
000100
001000
100000
001000
000001
001000
100000
001000
000100
000001
000100
100000
000100
000001
000100
001000
,
100000
000000
001000
000000
000000
000000
000100
000000
000000
000000
000100
000000
000001
000000
001000
000000
000000
000000
001000
000000
100000
000000
000000
000000
000001
001000
000001
001000
000001
000000
001000
000000
,
100001
000000
000101
000000
101000
000000
001001
000000
100100
000000
000101
001100
000000
000000
001001
000000
,
100001
000000
000001
001000
100000
000000
100000
101000
000000
100000
100100
000000
001001
000000
000000
000000
,
100001
000000
001000
001100
000000
000001
001000
000100
000101
000000
101000
000000
001001
000000
000001
100000
,
101000
000000
000100
000001
001001
000000
001100
000000
101000
000000
001001
000000
101000
000000
000101
000000
,
010010
000000
000000
101000
000000
000000
000001
000100
001100
000000
000000
001001
000000
000000
100000
001000
,
100000
000100
000101
000000
001100
000000
001001
000000
101000
000000
000000
001001
000000
000000
100000
000001
,
010010
000000
001001
000000
100100
000000
001001
000000
010010
000000
000101
000000
100000
000000
000100
000001
,
010010
000000
001000
000000
010010
000000
100000
000001
010001
000000
010010
000000
010010
000000
010010
000000
,
010010
000001
000000
001100
000000
101000
000000
001001
000000
100100
000000
001000
000001
000000
001001
000000
,
100000
001000
000100
000001
000000
000001
000100
100000
000100
000001
100000
001000
000001
000000
001000
000100
,
010010
001000
000000
001100
000000
101000
000000
000001
010010
100000
000000
001000
000000
000000
001001
000000
,
010010
001000
000001
001000
010010
000000
000000
100000
010010
000001
010010
000000
010010
000000
010010
000000
,
010010
000001
000000
000101
000000
100100
000000
001001
000000
100100
000000
100000
000001
000000
001001
000000
,
100000
001000
000100
000001
000000
001000
100000
000100
000001
000100
100000
000001
001000
000000
100000
001000
,
010010
100000
000000
001100
000000
000101
000000
100000
010010
000001
000000
000100
000001
000000
001001
000000
,
010010
001000
100000
000100
010010
000000
000001
001000
010010
001000
010010
000000
010010
000000
010010
000000
,
010010
000000
001100
000000
001000
100001
000000
001000
100100
000000
001000
000101
000000
001000
010010
000000
,
010010
000000
001100
000000
000100
100001
000000
000100
001001
000000
000100
101000
000000
000100
010010
000000
,
010010
000000
001000
000000
000100
101000
000000
000001
101000
000000
001000
000101
000000
100000
010010
000000
,
010010
000000
001000
000000
010010
100000
000000
000001
010010
000000
010010
000000
010010
000000
010010
000000
,
101000
000000
001001
000000
100000
100001
000000
000001
100001
000000
000100
100001
000000
001000
100001
000000
,
101000
000000
001001
000000
000100
001100
000000
001000
001100
000000
100000
001100
000000
000001
001100
000000
,
100100
000000
000101
000000
000100
100100
000000
001000
100100
000000
100000
100100
000000
000001
100100
000000
,
100100
000000
000101
000000
000100
001001
000000
001000
001001
000000
100000
001001
000000
000001
001001
000000
,
100000
000000
000100
000000
000000
000000
001000
000000
000000
000000
001000
000000
000001
000000
000100
000000
000000
000000
000100
000000
100000
000000
000000
000000
000001
000100
000001
000100
000001
000000
000100
000000
,
100001
000000
000100
001000
100000
000100
001000
000000
101000
000000
001001
000000
100100
000000
000100
100000
,
001000
000000
100100
000000
101000
000000
000001
100000
001000
000000
000101
000000
101000
000000
001100
000000
,
000101
000000
100000
000100
000001
000000
101000
000000
000101
000000
101000
001100
000000
000000
000001
001000
,
100001
000000
100000
000100
000001
000000
000001
000100
100000
000000
100000
001001
000000
000000
100000
001000
,
010010
000000
001000
100001
000000
000000
001100
000000
000101
000000
100000
100001
000000
000000
101000
000000
,
001100
000000
000100
000001
100000
000000
100001
000000
001001
000000
001000
001100
000000
000000
100100
000000
,
010010
000000
001001
000000
100001
000000
101000
000000
010010
000000
000100
001001
000000
000000
100000
000001
,
010010
000000
001000
000000
010010
000000
001000
000100
010010
000000
010010
000000
010010
000000
010010
000000
,
010010
001000
000000
000101
000000
101000
000000
100100
000000
001001
000000
001000
000001
000000
100100
000000
,
100000
001000
100000
000100
000000
000001
000100
001000
100000
001000
000001
001000
100000
000000
001000
000001
,
010010
100000
000000
101000
000000
000001
000000
001000
010010
000001
000000
001000
100000
000000
101000
000000
,
010010
001000
100000
001000
010010
000000
000000
001000
010010
100000
010010
000000
010010
000000
010010
000000
,
010010
100000
000000
100100
000000
000101
000000
001001
000000
100100
000000
100000
001000
000000
000101
000000
,
100000
000001
000100
001000
000000
001000
100000
001000
000001
001000
100000
000100
001000
000000
100000
000001
,
010010
100000
000000
001100
000000
000101
000000
100000
010010
001000
000000
001000
100000
000000
001100
000000
,
010010
001000
000001
100000
010010
000000
100000
001000
010010
000001
010010
000000
010010
000000
010010
000000
,
010010
110000
000000
100010
000000
000011
000000
010001
,
000000
011000
000000
001010
000000
000110
010100
010010
,
020010
000000
001000
000100
000002
000000
000000
000000
030003
000000
000000
000000
000000
000000
000001
000000
,
100000
001000
000001
001000
100000
000000
000001
000100
001000
000000
100000
000000
100001
000000
101000
000000
,
010010
000000
000000
000000
000000
000000
000000
000000
010010
001000
000000
001001
000000
100100
000000
100000
,
010010
000000
000000
000000
000000
000000
000000
000000
010010
001000
000000
001001
000000
000101
000000
100000
,
010010
001000
000000
001000
010010
000001
000000
000001
010010
100000
000000
100000
010010
001000
000000
001000
,
010010
000001
000000
000001
010010
001000
000000
001000
010010
100000
000000
100000
010010
001000
000000
001000
,
010010
000001
000000
000001
010010
001000
000000
001000
010010
100000
000000
100000
010010
000001
000000
000001
,
010010
011000
010010
001010
010010
110000
010010
100010
,
010010
000000
000011
000000
010010
000000
010001
000000
010010
010010
010010
010010
000000
000000
000000
000000
,
010010
001000
000000
000101
000000
100100
000000
001001
000000
101000
000000
000100
000001
000000
000101
000000
,
100000
000001
000100
100000
000000
000001
000100
100000
001000
000100
100000
000001
001000
000000
001000
000100
,
010010
000001
000000
000101
000000
001100
000000
100000
010010
000001
000000
000001
000100
000000
101000
000000
,
010010
001000
000100
000001
101001
000000
000000
100000
010010
100000
010010
000000
010010
000000
010010
000000
,
010010
000001
000000
001100
000000
000101
000000
100100
000000
001001
000000
100000
001000
000000
000101
000000
,
100000
000100
000001
100000
000000
001000
000001
100000
000100
001000
000001
001000
000100
000000
100000
001000
,
010010
000001
000000
100001
000000
001100
000000
001000
010010
001000
000000
000100
000001
000000
101000
000000
,
010010
001000
100000
000001
010010
000000
000001
100000
010010
001000
010010
000000
010010
000000
010010
000000
,
010010
010010
010010
000000
000000
000000
011000
011000
011000
000000
000000
000000
001010
001010
001010
000000
,
000000
000000
000110
000110
000110
000000
010100
010100
010100
000000
011010
000000
010110
000000
000000
000000
,
111111
000000
000000
000000
;

//---------------dance-single - Heavy----------------
#NOTES:
     dance-single:
     Heavy:
     Hard:
     9:
     0.684,0.665,0.490,0.051,0.553:
0000
0000
0000
0000
,
0000
0000
0000
0000
,
0000
0000
0000
0000
,
0000
0000
0000
0000
,
0100
0000
0000
0110
0000
0000
0011
0000
0000
0001
0010
0000
0100
0000
1000
0000
,
0010
0000
0000
0110
0000
0000
0101
0000
0000
1000
0100
0000
0010
0000
0001
0000
,
1000
0000
0000
0101
0000
0000
1010
0000
0000
0001
1000
0000
0100
0000
0010
0000
,
0001
0000
0000
0011
0000
0000
1100
0000
0000
1000
0001
0000
0100
0000
0010
0000
,
0000
1000
0000
0101
0000
0001
0000
1100
,
0000
1000
0000
0011
0000
0001
0000
1010
,
0000
0100
0000
1010
0000
0010
0000
0101
,
0000
0100
0000
1010
0000
0010
0000
0100
,
0010
1000
0000
0001
0000
1000
0001
1000
0000
0001
1000
0000
2002
0000
3003
0000
,
1000
0100
0010
1000
0100
0010
0001
0000
,
0001
0100
0010
0001
0100
0010
1000
0000
,
1000
0010
0100
1000
0010
0100
0001
0000
,
0001
0100
0010
0001
0100
0010
1000
0000
,
1001
0100
0010
0001
0100
0010
1001
0000
,
1001
0100
0010
1000
0100
0010
1001
0000
,
1000
1000
0100
0100
0010
0010
0001
0001
,
1000
0000
0100
0000
0010
0100
0010
0000
0001
0000
1000
0000
0010
0000
0100
0000
,
0001
0100
0000
0010
0000
1000
0000
0100
0000
0010
0000
0001
1000
0000
0100
0000
,
0011
0000
0100
0000
0011
0000
1000
1000
,
1000
0001
0000
0010
0000
0100
0000
1000
0000
0010
0000
0100
0001
0000
0010
0000
,
0100
1000
0100
0000
0010
0000
0001
0000
1000
0000
0010
0000
0100
0000
0100
0000
,
0100
0001
0000
0010
0000
1000
0000
0010
0000
0001
0000
1000
0100
0000
0010
0000
,
1100
0000
0010
0000
1100
0000
0010
0010
,
0010
0001
0000
0100
0000
1000
0000
0100
0000
0001
0000
0010
0100
0000
1000
0000
,
0001
0010
0001
0010
0001
0000
1000
0000
1000
0000
1000
0000
0000
0000
0000
0000
,
1000
0100
0000
0010
0001
0000
1000
0010
0000
0100
0001
0000
1000
0000
0100
0000
,
0010
0001
0000
1000
0010
0000
0100
0001
0000
1000
0100
0000
0010
0000
0001
0000
,
1000
0010
0000
0010
0100
0000
0100
0001
0000
0001
1000
0000
0100
0000
0010
0000
,
0001
0100
0000
0100
0010
0000
0010
1000
0000
1000
0001
0000
0100
0000
0010
0000
,
1000
0100
0000
1001
0000
0100
0000
1001
,
0000
0010
0000
1100
0000
0010
0000
0101
,
0000
0010
0000
1010
0000
0100
0000
0011
,
0000
0100
0000
1001
0000
0001
0001
0001
,
0001
1000
0000
0001
0000
1000
0001
1000
0000
0001
1000
0000
2002
0000
3003
0000
,
1000
0010
0100
0001
0010
0100
0001
0000
,
0001
0010
0100
1000
0010
0100
1000
0000
,
1000
0100
0001
1000
0100
0010
0001
0000
,
0001
0100
1000
0001
0100
0010
1000
0000
,
1001
0100
0001
1000
0100
0001
1001
0000
,
1001
0100
1000
0001
0100
1000
1001
0000
,
0001
0001
0100
0100
0010
0010
1000
1000
,
0001
0100
0001
0000
0010
0000
0100
0000
1000
0010
1000
0000
0100
0000
0010
0000
,
0001
0100
0000
1000
0000
0100
0000
0001
0000
0010
0000
1000
0010
0000
0001
0000
,
1100
0000
0001
0000
1100
0000
0001
0001
,
0001
0100
0000
1000
0000
0100
0000
0001
0000
0010
0000
1000
0010
0000
0001
0000
,
1000
0100
1000
0000
0010
0000
0100
0000
0001
0000
0010
0000
0100
0000
0100
0000
,
0100
1000
0000
0010
0000
0001
0000
0010
0000
1000
0000
0100
0001
0000
0100
0000
,
0101
0000
1000
0000
0101
0000
0010
0010
,
0010
0001
0000
0100
0000
1000
0000
0100
0000
0001
0000
0010
1000
0000
0010
0000
,
0001
0100
0001
0100
0001
0000
0010
0000
0010
0000
0010
0000
0000
0000
0000
0000
,
0010
0100
0000
1001
0000
0100
0000
0011
,
0000
0100
0000
1010
0000
1000
1000
1000
,
2002
0000
0000
0000
3003
0000
0000
1000
,
0100
0001
0100
1000
0010
0001
0010
1000
,
1100
0000
0000
0000
0000
0000
0000
0000
0001
0100
0000
0010
0000
1000
0000
0100
,
0010
0000
0000
0000
0000
0000
0000
0000
0001
1000
0000
0100
0000
0010
0000
0001
,
0100
1010
0100
0011
,
1000
0110
0001
0110
,
0001
1100
0010
0101
,
1000
0010
0001
0010
1000
0100
0001
0100
,
1000
0000
0010
0000
0100
0000
0001
0000
1000
0001
1000
0001
0000
0000
0000
0000
,
0001
0100
0000
1000
0000
0010
0000
0100
0000
0001
0000
1000
0010
0000
0100
0000
,
0101
0000
0010
0000
0101
0000
1000
1000
,
1000
0100
0000
0001
0000
0010
0000
0100
0000
1000
0000
0010
0001
0000
0010
0000
,
0100
1000
0100
0000
1000
0000
0100
0000
0010
0000
0001
0000
0100
0000
0100
0000
,
0100
1000
0000
0010
0000
0001
0000
1000
0000
0100
0000
0001
0010
0000
0100
0000
,
1100
0000
0010
0000
1100
0000
0010
0010
,
0010
0001
0000
0100
0000
1000
0000
0001
0000
0010
0000
1000
0100
0000
0010
0000
,
0001
0000
0001
0101
0000
0010
1010
0000
,
1000
0100
1000
0000
0000
0000
0001
0100
0001
0000
0000
0000
1000
0010
1000
0000
,
0000
0000
0001
0010
0001
0000
1000
0100
1000
0000
0010
0000
0100
0000
0000
0000
,
1001
0000
0000
0000
;

//---------------dance-single - Standard----------------
#NOTES:
     dance-single:
     Standard:
     Medium:
     7:
     0.491,0.475,0.270,0.042,0.068:
0000
0000
0000
0000
,
0000
0000
0000
0000
,
0000
0000
0000
0000
,
0000
0000
0000
0000
,
1000
0000
0000
0100
0000
0000
0010
0000
0000
0001
0000
0000
0100
0000
0010
0000
,
1000
0000
0000
0001
0000
0000
0100
0000
0000
0010
0000
0000
1000
0000
0100
0000
,
0010
0000
0000
0001
0000
0000
0100
0000
0000
0010
0000
0000
1000
0000
0010
0000
,
0100
0000
0000
0001
0000
0000
0010
0000
0000
0100
0000
0000
1000
0000
0001
0000
,
0000
1000
0000
0100
0000
0001
0000
0010
,
0000
0001
0000
0100
0000
1000
0000
0010
,
0000
0001
0000
0100
0000
0001
0000
0010
,
0000
1000
0000
0001
0000
0010
0000
0001
,
0100
0000
0010
0000
1000
0001
2002
3003
,
1000
0100
1000
0000
0001
0100
0001
0000
,
1000
0100
0010
0000
0001
0100
0010
0000
,
1000
0001
0010
0000
0100
1000
0001
0000
,
0100
0001
0010
0000
0100
1000
0010
0000
,
1000
0100
0010
0001
0100
0010
1000
0000
,
0001
0100
0010
1000
0100
0010
0001
0000
,
1000
0001
0010
0100
0010
0001
1000
0000
,
0001
1000
0010
0100
0010
1000
0001
0000
,
1000
0000
0001
0000
0100
0010
0100
0000
,
1001
0000
0100
0000
1001
0000
1000
0001
,
1000
0000
0010
0000
0100
0001
0100
0000
,
0010
0011
0100
1100
,
0100
0000
0010
0000
0001
1000
0001
0000
,
0110
0000
0001
0000
0110
0000
1000
0100
,
0010
0000
0001
0000
1000
0100
1000
0000
,
0001
1100
1000
0101
,
1000
0000
0000
0010
0000
0000
0100
0000
0000
0001
0000
0000
1000
0000
0100
0000
,
0010
0000
0000
0001
0000
0000
0100
0000
0000
0010
0000
0000
1000
0000
0001
0000
,
0010
0000
0000
0100
0000
0000
1000
0000
0000
0010
0000
0000
0100
0000
0001
0000
,
0010
0000
0000
0100
0000
0000
1000
0000
0000
0001
0000
0000
0010
0000
0100
0000
,
1000
0001
0000
0100
0000
0010
0000
1000
,
0000
0001
0000
0010
0000
0100
0000
0001
,
0000
0010
0000
1000
0000
0010
0000
0100
,
0000
1000
0000
0100
0000
0010
0001
1000
,
0100
0000
0010
0000
0001
1000
2002
3003
,
1000
0010
1000
0000
0001
0010
0001
0000
,
0001
1000
0100
0000
0010
0001
1000
0000
,
1000
0010
0100
0000
0001
0010
0100
0000
,
1000
0001
1000
0000
0001
1000
0001
0000
,
1000
0100
0010
0100
1000
0010
0100
0000
,
0001
0100
0010
0100
0001
0010
0100
0000
,
0001
1000
0100
1000
0010
0100
0001
0000
,
1000
0001
0100
0001
0010
0100
1000
0000
,
0001
0000
1000
0000
0010
0100
0010
0000
,
1001
0000
0010
0000
1001
0000
0010
0100
,
0010
0000
1000
0000
0001
0010
0001
0000
,
1000
1010
0001
0011
,
0010
0000
0100
0000
1000
0001
1000
0000
,
0110
0000
1000
0000
0110
0000
0001
0010
,
0001
0000
0100
0000
0010
1000
0010
0000
,
0100
0101
0010
1010
,
0100
0010
0000
1000
0000
0100
0000
0010
,
0000
0001
0000
0010
0000
0001
0010
0100
,
2000
0000
3000
0000
,
0001
0010
0001
0000
1000
0100
1000
0000
,
1001
0000
0001
0010
,
1100
0000
1000
0010
,
0101
1000
0100
0010
,
1001
0010
0100
1000
,
0011
1000
0010
0100
,
0001
0010
0100
0000
1000
0100
0010
0000
,
0001
1000
0100
0000
0010
0001
1000
0000
,
0001
0000
1000
0000
0100
0010
0100
0000
,
1001
0000
0010
0000
1001
0000
0010
0100
,
0010
0000
1000
0000
0001
0010
0001
0000
,
0100
1100
0010
0011
,
1000
0000
0100
0000
0010
0001
0010
0000
,
0110
0000
1000
0000
0110
0000
0001
0010
,
0100
0000
1000
0000
0001
0010
0001
0000
,
1000
1100
0001
0011
,
1000
0001
0000
0100
0010
0000
1000
0001
,
0000
0100
0010
1000
0001
0100
0010
0000
,
1001
0000
0000
0000
;

//---------------dance-single - Light----------------
#NOTES:
     dance-single:
     Light:
     Easy:
     4:
     0.310,0.348,0.287,0.025,0.000:
0000
0000
0000
0000
,
0000
0000
0000
0000
,
0000
0000
0000
0000
,
0000
0000
0000
0000
,
1000
0000
0000
0100
0000
0000
0010
0000
,
0001
0000
0000
0100
0000
0000
0010
0000
,
1000
0000
0000
0001
0000
0000
0100
0000
,
0010
0000
0000
1000
0000
0000
0001
0000
,
1000
0100
1000
0100
,
0010
0001
0010
0001
,
1000
0010
1000
0010
,
0100
0001
0100
0001
,
0100
0010
1000
0002
,
1003
0000
0001
0000
,
1000
0000
0001
0000
,
1000
0000
0100
0000
,
0010
0000
0001
0000
,
1000
0010
0100
0000
,
0001
0100
0010
0000
,
1000
0001
0010
0000
,
0100
1000
0001
0000
,
1000
0100
0010
0001
,
1001
0000
1001
0000
,
0001
0100
0010
1000
,
1001
0000
1001
0000
,
0100
0001
1000
0010
,
0110
0000
0110
0000
,
0010
1000
0001
0100
,
0110
0000
0110
0000
,
1000
0000
0000
0100
0000
0000
1000
0000
,
0001
0000
0000
0100
0000
0000
0001
0000
,
1000
0000
0000
0010
0000
0000
1000
0000
,
0001
0000
0000
0010
0000
0000
0001
0000
,
1000
0001
1000
0001
,
0100
0010
0100
0010
,
1000
0100
1000
0100
,
0010
0001
0010
0001
,
1000
0100
0010
0002
,
1003
0000
0100
0000
,
0010
0000
0001
0000
,
1000
0000
0001
0000
,
0100
0000
0010
0000
,
1000
0100
1000
0000
,
0001
0010
0001
0000
,
1000
0100
0001
0000
,
1000
0010
0001
0000
,
1000
0001
0010
0100
,
1001
0000
1001
0000
,
0001
1000
0100
0010
,
1001
0000
1001
0000
,
1000
0010
0100
0001
,
0110
0000
0110
0000
,
0001
0010
0100
1000
,
0110
0000
0110
0000
,
1000
0001
1000
0001
,
0100
0010
0100
0010
,
0200
0000
0300
0000
,
0001
0010
0100
1000
,
1001
0000
0110
0000
,
1001
0000
0110
0000
,
1000
0100
0010
0001
,
1000
0100
0010
0001
,
1000
0100
0010
0001
,
1000
0100
0010
0001
,
1000
0100
0010
1001
,
0001
0010
0100
1000
,
1001
0000
1001
0000
,
1000
0010
0100
0001
,
1001
0000
1001
0000
,
0010
1000
0001
0010
,
0110
0000
0110
0000
,
0100
1000
0001
0100
,
0110
0000
0110
0000
,
1001
0000
0000
0110
0000
0000
1001
0000
,
0000
0110
0000
0000
1000
0000
0001
0000
,
0110
0000
0000
0000
;
