#TITLE:tokaikko junjou;
#ARTIST:C-ute;
#FILE:tokaikko junjou.mp3;
#BPM:142.000;
#GAP:1900;
#SAMPLESTART:99.820;
#SAMPLELENGTH:14.360;
#FREEZE:992.000=420.000;
#CHANGEBPM:576.000=71.000,592.000=142.000,784.000=71.000,816.000=142.000;
#SINGLE:BEGINNER:1:
00000000
00000000
00000000
00000000
80000000
40000000
20000000
40000000
B0000000
00000000
80008000
80000000
40004000
40000000
20002000
20000000
60006000
00000000
20000000
00000000
80000000
00000000
40000000
00000000
60000000
00000000
80000000
80000000
40000000
40000000
60000000
60000000
20000000
20000000
B0000000
20002000
20000000
A0000000
40004000
40000000
60000000
A0000000
20002000
20000000
80008000
80000000
40000000
60000000
00000000
20000000
20000000
20000000
60000000
40000000
80000000
40400000
40400000
60600000
60600000
20200000
20200000
80800000
B0000020
00000040
00000080
00000040
00000060
00000080
00000060
00000020
000000B0
00000020
20200020
00000000
000000B0
;
#SINGLE:ANOTHER:8:
00000000
00000000
00000000
00000000
80402460
80602680
20806480
40602840
700B0222
00000000
80406260
80604840
60408280
40604240
80206280
40604280
60408284
000B0000
20608020
40802!20A0
40608060
40602!2030
42806040
84604020
86208040
28604080
20642080
60482080
40682040
80462080
4!40208070
6!60208086
20604280
64804060
B0B00020
82602840
4!40B!60B!40B6
30300080
42806480
2!20A04!40B0
8!80902!2030
30100040
28604820
80042004
60208428
60206086
20A!A0A000
64646!64!400
000000B0
26408420
42806260
401080A0
40106030
82604280
64648282
80402460
40608620
80206280
40604820
80402860
40604820
80402860
B0301080
40246080
60284060
40208620
8020B020
10846020
30826082
82824600
0B000020
80402044
40666080
60408022
20804024
62088800
;
#SINGLE:MANIAC:12:
00000000
00000000
00000000
00000000
(8048406000208020)
64286280
(2062604000804080)
26848620
(B026208000404040)
(0000000000002828)
2!203!609248!8
0740284!40
B8486!60B2!2
01!40B!60384
8!80A!203824!4
0780428!80
9264286B
(002080A000620620)
B0246086
02080282
(6040204000602082)
06824286
20842460
80626420
80626428
(6026208202804060)
3!20AA!2026B!6
0641!40482
84246820
86264280
64280626
040B0024
80420462
08268486
(4640B00080206020)
42842862
(A0A0602040206444)
(4840700060204020)
84286482
80746096
(2620804202408020)
(6260300080206080)
48628460
(B!B000B0828!80008042)
(4!4000700020406464)
(8000206040002046)
40A!A0A062
4!4080206!60
000000B0
84204620
68208640
84204620
82608240
64804620
(8028206260484064)
62842468
48648284
24682864
82842864
82842864
86842862
42842864
70B0308!80
7!401862!203
60826!60B2
624!40B8!809!6
0B!407262!20
A!807286!603
20682!2018
68428902
(80A000402040B062)
64082846
(8020408020008048)
46026284
(206020408000B084)
82066600
;
#SINGLE:BASIC:4:
00000000
00000000
00000000
00000000
80402000
40602000
80206000
80204000
80040602
00000000
80402020
40602000
80406080
60402000
40602020
80206000
80204064
000B0000
80406020
60208000
20202080
40204000
60606080
60408000
40404020
80604000
80402000
40602000
80206000
80204000
20204080
40402080
60604020
80806000
B0B00000
20804020
10000000
B0B00000
80206040
20004000
80004000
B0B00000
20608020
40006000
20000000
20604020
40100000
40804!406!60
000000B0
20004000
80602040
80804000
20208000
60604000
40208060
20208040
60608020
40402040
60602080
40408040
20204060
20208020
A0000020
60400020
40600040
40606020
80200080
40200040
60200080
20804600
0B000020
40804060
60606080
60208040
40404080
42040B00
;
