#TITLE:Zelda's Lullaby (Techno Remix);
#ARTIST:Nintendo;
#FILE:Zelda's Lullaby (Techno Remix).mp3;
#BPM:130.000;
#GAP:3727;
#SAMPLESTART:66.460;
#SAMPLELENGTH:12.000;
#CDTITLE:./CDTITLES/DANCE DANCE REVOLUTION EXTREME.PNG;
#SINGLE:MANIAC:7:
00000000
00000000
00004820
662840B0
2!2880A044
80268!8220
A0426!6030
86406!6022
20304840
30628420
62408682
80904860
22848680
4!4670248!84
A0302!2810
`600000000000000000000000000000000000000000000000400000000000000060000000000000004000000000000000600000000000000040000000000000006000000000000000400000000000600000000000400000000000600000000000'
40802!20A0
40628!8470
206!623080
42462082
64206280
448260B0
8!8220A066
20842!2880
A0684!4070
24604!4088
80706260
70482680
48602428
20106240
88262420
6!6430862!26
A0708!8290
`400000000000000000000000000000000000000000000000600000000000000040000000000000006000000000000000400000000000000060000000000000004000000000000000600000000000400000000000600000000000400000000000'
60208!80A0
60482!2630
804!487020
68648028
46804820
662840B0
2!2880A044
80268!8220
A0426!6030
86406!6022
20304840
30628420
62408682
80904860
22848680
4!4670248!84
A0302!2810
`600000000000000000000000000000000000000000000000400000000000000060000000000000004000000000000000600000000000000040000000000000006000000000000000400000000000600000000000400000000000600000000000'
40804!4070
20682!2080
A06!6040B0
20604080
20604!4000
726!600000
30000000
;
#SINGLE:ANOTHER:5:
00000000
00000000
00004!4000
726!600060
4!4000702!20
00386!6000
B08!800080
4!4000B02!20
00A0B!B000
000000B0
20008428
6!60602000
82648!8080
20602070
A030B020
[2000004020402040204!400000]
7!8000A06!60
00B24!4000
702!200020
602070A0
60704!4000
726!600060
4!4000702!20
00386!6000
B08!800080
4!4000B02!20
00A0B!B000
000000B0
20008428
6!60602000
82648!8080
20602070
A030B020
[2000004020402040204!400000]
7!8000A06!60
00B24!4000
702!200020
602070A0
60706!6000
384!400040
6!6000308!80
00724!4000
B02!200020
6!6000B08!80
00A0B!B000
000000B0
80002682
4!40408000
28462!2020
80408030
A070B080
[8000006080608060806!600000]
B0004040
00646000
208!800080
40008020
00604000
82800000
B0000000
;
#SINGLE:BASIC:5:
00000000
00000000
00000000
00000000
20008!80A0
006!60B000
2!206!600030
40006!6030
008!802!2000
000000A0
6!60004040
B0002!2000
8080A000
4!40006060
6060B020
804!40006!60
B0002060
00408000
20A00000
60004080
00406000
20A00000
80002!20A0
004!40B000
8!804!400070
60004!4070
002!208!8000
000000A0
4!40006060
B0008!8000
2020A000
6!60004040
4040B080
206!60004!40
B0008040
00602000
80A00000
40006020
00604000
80A00000
20008!80A0
006!60B000
2!206!600030
40006!6030
008!802!2000
000000A0
6!60004040
B0002!2000
8080A000
4!40006060
6060B020
804!40006!60
B0002060
00408000
20A00000
60004080
00406000
20A00000
20000000
;
