#TITLE:There She Is!!;
#ARTIST:Witches;
#FILE:There She Is!!.mp3;
#BPM:83.010;
#GAP:-590;
#SAMPLESTART:100.000;
#SAMPLELENGTH:12.000;
#SINGLE:MANIAC:5:
00000000
00000000
00000000
00000000
(4040402288666000)
(6060608822444000)
(4040402288666888)
(8000022220000000)
(4040402288666000)
(6060608822444000)
(4040402288666888)
(8000022220202000)
(4020402040204242)
(6080608060806868)
(2080208020802828)
(4060406040604646)
(4080408040804848)
(6020602060206262)
(4020402040204242)
(6080608060806868)
[000000000000004000400400]
[400000000000006000600600]
(4242686842426868)
(4242686842426868)
[000000000000004000400400]
[400000000000006000600600]
(4242686842426868)
(4242424244004400)
(2222440042428686)
(8242440066006600)
(8888660068682424)
(2868660044444000)
(2222200042428686)
(8242400044004400)
(2222440042428686)
`400000000000000000000000000000004000000000000000000000000000000000000000000000000000000000000000400000000000000000000000400000000000000000000000400000000000000000000000200000000000200000000000'
(8866600060606088)
(2244400040404022)
(8866688880000222)
22200000
;
