#TITLE:Saria's Song;
#SUBTITLE:(Techno Remix);
#ARTIST:Nintendo;
#TITLETRANSLIT:;
#SUBTITLETRANSLIT:;
#ARTISTTRANSLIT:;
#CREDIT:;
#BANNER:banner.BMP;
#BACKGROUND:Saria's Song (Techno Remix)-bg.BMP;
#LYRICSPATH:;
#CDTITLE:./CDTITLES/DANCE DANCE REVOLUTION EXTREME.PNG;
#MUSIC:Saria's Song (Techno Remix).mp3;
#OFFSET:-5.167;
#SAMPLESTART:32.540;
#SAMPLELENGTH:12.000;
#SELECTABLE:YES;
#BPMS:0.000=140.000;
#STOPS:;
#BGCHANGES:;

//---------------dance-single - ----------------
#NOTES:
     dance-single:
     :
     Hard:
     8:
     0.562,0.494,0.360,0.170,0.032:
0000
0000
0000
0000
,
0000
0000
0000
0000
,
1000
0100
1100
0000
0001
0100
0101
0000
,
1000
0100
0001
1000
0110
0000
0100
1000
,
0010
0100
0002
0000
0100
0000
0103
0010
,
1000
0001
0200
0000
0010
0000
0310
0000
,
1000
0100
0011
0000
0001
0100
1100
0000
,
0001
0010
0100
1000
0010
0100
0001
1000
,
0010
0100
1010
0000
0100
0010
0101
0000
,
1000
0010
0001
1000
0100
0010
1000
0001
,
0100
0010
1001
0000
0010
0100
1001
0000
,
0001
0100
1000
0001
0010
0100
0001
1000
,
0001
0010
0001
0010
0100
1000
0100
1000
,
0010
0000
0100
0000
0010
0000
0100
0000
0001
0000
1000
0000
0001
1000
0000
0001
,
2000
0000
0020
3030
,
0001
0100
0010
1000
0001
0000
0110
0000
,
1000
0010
0110
0000
0001
0100
0110
0000
,
1000
0010
0100
0001
0100
0000
0010
1000
,
0001
0100
0002
0000
0100
0000
0103
1000
,
0010
0100
0002
0000
0100
0000
0103
0000
,
0001
0010
0011
0000
1000
0010
1010
0000
,
0001
0010
1000
0001
0110
0000
0010
0001
,
0100
0010
2000
0000
0010
0000
3010
0100
,
0001
1000
0020
0000
0100
0000
0130
0000
,
0001
0010
1100
0000
1000
0010
0011
0000
,
1000
0100
0010
0001
0100
0010
1000
0001
,
0100
0010
0101
0000
0010
0100
1010
0000
,
0001
0100
1000
0001
0010
0100
0001
1000
,
0010
0100
1001
0000
0100
0010
1001
0000
,
1000
0010
0001
1000
0100
0010
1000
0001
,
1000
0100
1000
0100
0010
0001
0010
0001
,
0100
0000
0010
0000
0100
0000
0010
0000
1000
0000
0001
0000
1000
0001
0000
1000
,
0002
0000
0200
0303
,
1000
0010
0100
0001
1000
0000
0110
0000
,
0100
1000
1001
0000
0010
0001
1001
0000
,
0100
1000
0001
0010
0001
0000
1000
0100
,
0010
0001
0020
0000
0001
0000
0031
0100
,
1000
0001
0020
0000
0001
0000
0031
0000
,
0010
1000
1010
0000
0100
1000
1100
0000
,
0010
1000
0100
0010
1001
0000
1000
0010
,
0001
1000
0200
0000
1000
0000
1300
0001
,
0010
0100
2000
0000
0001
0000
3001
0000
,
0010
1000
0101
0000
0100
1000
1010
0000
,
0100
0001
1000
0010
0001
1000
0100
0010
,
0001
1000
0011
0000
1000
0001
1100
0000
,
0010
0001
0100
0010
1000
0001
0010
0100
,
1000
0001
0110
0000
0001
1000
0110
0000
,
0100
1000
0010
0100
0001
1000
0100
0010
,
0100
0001
0100
0001
1000
0010
1000
0010
,
0001
0000
1000
0000
0001
0000
1000
0000
0100
0000
0010
0000
0100
0010
0000
0100
,
0020
0000
0002
0033
,
0100
1000
0001
0010
0100
0000
1001
0000
;

//---------------dance-single - Copied from----------------
#NOTES:
     dance-single:
     Copied from:
     Medium:
     5:
     0.385,0.384,0.032,0.265,0.000:
0000
0000
0000
0000
,
0000
0000
0000
0000
,
1000
0100
1000
0000
0001
0100
0001
0000
,
1000
0100
1000
0100
1000
0000
0001
0100
,
0001
0100
0002
0000
0000
0000
0003
0100
,
0010
0100
0020
0000
0000
0000
0030
0000
,
1000
0001
1000
0000
0010
0100
0010
0000
,
1000
0001
0200
0000
0000
0000
0300
0000
,
0010
1000
0010
0000
0100
0001
0100
0000
,
0010
1000
0002
0000
0000
0000
0003
0000
,
0100
0010
0100
0000
0001
1000
0001
0000
,
1000
0010
0200
0000
0000
0000
0300
0000
,
0001
0100
0010
1000
,
0001
0100
0001
2000
,
0200
0000
0000
3300
,
1000
0100
0010
0001
0010
0000
0110
0000
,
1000
0100
1000
0000
0010
0100
0010
0000
,
0100
0001
0100
0001
0100
0000
0010
1000
,
0010
1000
0020
0000
0000
0000
0030
0100
,
0001
0100
0002
0000
0000
0000
0003
0000
,
0001
0010
0001
0000
1000
0010
1000
0000
,
0001
0010
0001
0010
0001
0000
1000
0010
,
1000
0010
2000
0000
0000
0000
3000
0010
,
0100
0010
0200
0000
0000
0000
0300
0000
,
0001
1000
0001
0000
0100
0010
0100
0000
,
0001
1000
0020
0000
0000
0000
0030
0000
,
0100
0001
0100
0000
0010
1000
0010
0000
,
0100
0001
2000
0000
0000
0000
3000
0000
,
0010
0100
0010
0000
1000
0001
1000
0000
,
0001
0100
0020
0000
0000
0000
0030
0000
,
1000
0010
0100
0001
,
1000
0010
1000
0002
,
0020
0000
0000
0033
,
0001
0010
0100
1000
0100
0000
0110
0000
,
0001
0010
0001
0000
0100
0010
0100
0000
,
0010
1000
0010
1000
0010
0000
0100
0001
,
0100
0001
0200
0000
0000
0000
0300
0010
,
1000
0010
2000
0000
0000
0000
3000
0000
,
1000
0100
1000
0000
0001
0100
0001
0000
,
1000
0100
1000
0100
1000
0000
0001
0100
,
0001
0100
0002
0000
0000
0000
0003
0100
,
0010
0100
0020
0000
0000
0000
0030
0000
,
1000
0001
1000
0000
0010
0100
0010
0000
,
1000
0001
0200
0000
0000
0000
0300
0000
,
0010
1000
0010
0000
0100
0001
0100
0000
,
0010
1000
0002
0000
0000
0000
0003
0000
,
0100
0010
0100
0000
0001
1000
0001
0000
,
1000
0010
0200
0000
0000
0000
0300
0000
,
0001
0100
0010
1000
,
0001
0100
0001
2000
,
0200
0000
0000
3300
,
1000
0100
0010
0001
0010
0000
0110
0000
;

//---------------dance-single - Copied from Copied from----------------
#NOTES:
     dance-single:
     Copied from Copied from:
     Easy:
     3:
     0.270,0.247,0.064,0.106,0.000: // measure 1
0000
0000
0000
0000
,  // measure 2
0000
0000
0000
0000
,  // measure 3
1000
1000
0100
0100
,  // measure 4
0010
0010
0001
0001
,  // measure 5
0100
0200
0000
0300
,  // measure 6
0010
0020
0000
0030
,  // measure 7
1000
0100
0001
0100
,  // measure 8
1000
0010
0001
0010
,  // measure 9
1000
0100
0001
0100
,  // measure 10
1000
0010
0001
0010
,  // measure 11
1000
0100
0001
0010
,  // measure 12
1000
0100
0001
0010
,  // measure 13
1000
0000
0001
0000
,  // measure 14
0100
0000
0010
0000
,  // measure 15
1000
0000
0001
0000
,  // measure 16
1000
0001
0110
0110
,  // measure 17
1000
1000
0001
0001
,  // measure 18
1000
1000
0001
0001
,  // measure 19
0100
0200
0000
0300
,  // measure 20
0010
0020
0000
0030
,  // measure 21
0001
0001
0010
0010
,  // measure 22
0100
0100
1000
1000
,  // measure 23
0010
0020
0000
0030
,  // measure 24
0100
0200
0000
0300
,  // measure 25
0001
0010
1000
0010
,  // measure 26
0001
0100
1000
0100
,  // measure 27
0001
0010
1000
0010
,  // measure 28
0001
0100
1000
0100
,  // measure 29
0001
0010
1000
0100
,  // measure 30
0001
0010
1000
0100
,  // measure 31
0001
0000
1000
0000
,  // measure 32
0010
0000
0100
0000
,  // measure 33
0001
0000
1000
0000
,  // measure 34
0001
1000
0110
0110
,  // measure 35
0010
0010
0100
0100
,  // measure 36
0010
0010
0100
0100
,  // measure 37
1000
2000
0000
3000
,  // measure 38
0001
0002
0000
0003
,  // measure 39
0100
0100
0001
0001
,  // measure 40
1000
1000
0010
0010
,  // measure 41
0001
0002
0000
0003
,  // measure 42
1000
2000
0000
3000
,  // measure 43
0100
0001
0010
0001
,  // measure 44
0100
1000
0010
1000
,  // measure 45
0100
0001
0010
0001
,  // measure 46
0100
1000
0010
1000
,  // measure 47
0100
0001
0010
1000
,  // measure 48
0100
0001
0010
1000
,  // measure 49
0100
0000
0010
0000
,  // measure 50
0001
0000
1000
0000
,  // measure 51
0100
0000
0010
0000
,  // measure 52
0100
0010
1001
1001
;
