#TITLE:SUPER MARIO BROS.;
#SUBTITLE:(CARIBBEAN MIX);
#ARTIST:Nintendo;
#TITLETRANSLIT:;
#SUBTITLETRANSLIT:;
#ARTISTTRANSLIT:;
#CREDIT:;
#BANNER:SMB (Caribbean Mix)-banner.BMP;
#BACKGROUND:SMB (Caribbean Mix).BMP;
#LYRICSPATH:;
#CDTITLE:./CDTITLES/DANCE DANCE REVOLUTION EXTREME.PNG;
#MUSIC:Super Mario Bros. (Caribbean Mix).mp3;
#OFFSET:-4.847;
#SAMPLESTART:40.800;
#SAMPLELENGTH:12.000;
#SELECTABLE:YES;
#BPMS:0.000=100.000;
#STOPS:;
#BGCHANGES:;

//---------------dance-single - ----------------
#NOTES:
     dance-single:
     :
     Hard:
     9:
     0.515,0.431,0.153,0.066,0.931:
0001
0000
0000
0010
0000
0000
0100
0000
0000
0010
0000
1000
0000
0001
1000
0000
,
0001
0000
0000
0000
0100
0000
0000
0000
0001
0000
0000
0000
0100
0000
0000
0000
0000
0000
0010
0000
0000
1000
0000
0000
0000
0000
0000
0100
0000
0000
0000
0000
0000
0010
0000
0000
0001
0000
0000
0000
0000
0000
0100
0000
0000
0000
0000
0000
,
0010
0000
0000
1000
0000
0000
0001
0000
0000
0100
0000
0010
0000
1000
0100
0000
,
0010
0000
0000
0000
0100
0000
0000
0000
0010
0000
0000
0000
0100
0000
0000
0000
0000
0000
1000
0000
0000
0001
0000
0000
0000
0000
0000
0100
0000
0000
0000
0000
0000
0010
0000
0000
1000
0000
0000
0000
0000
0000
0001
0000
0000
0000
0000
0000
,
0000
0000
1000
0100
1000
0100
1000
0100
0000
0010
0001
0010
0000
0100
0010
0100
,
0000
0000
1000
0001
1000
0001
1000
0001
0000
0010
0000
0100
0110
0000
0000
0000
,
0000
0000
0001
0100
0001
0100
0001
0100
0000
0010
1000
0010
0000
0100
0001
0100
,
0000
0000
1010
0000
0000
0101
0000
0000
2002
0000
0000
0000
3003
0000
0000
0000
,
0000
0000
0001
0010
0001
0010
0001
0010
0000
0100
1000
0100
0000
1000
0001
1000
,
0000
0000
0010
1000
0010
1000
0010
1000
0000
0100
0000
0001
1001
0000
0000
0000
,
0000
0000
0010
0100
0010
0100
0010
0100
0000
0001
0010
0001
0000
1000
0100
1000
,
0000
0000
0011
0000
0000
1100
0000
0000
2002
0000
0000
0000
3003
0000
0000
0000
,
0010
0100
0000
0001
0000
1000
0010
0000
0100
0001
0000
0100
0001
0000
0000
0000
,
1000
0010
0000
0100
0000
0010
1000
0100
0000
0000
0000
0000
0000
0000
0000
0000
,
0001
0010
0000
0100
0000
1000
0010
0000
1000
0100
0000
1000
0100
0000
0000
0000
,
0010
0100
0000
0001
0000
1000
0010
0000
0110
0000
0000
0000
1001
0000
0000
0000
,
0100
0000
0000
0010
0000
0000
0001
0000
0000
0100
0000
0010
0000
1000
0010
0000
,
0100
0000
0000
0000
0001
0000
0000
0000
0100
0000
0000
0000
0001
0000
0000
0000
0000
0000
1000
0000
0000
0010
0000
0000
0000
0000
0000
0100
0000
0000
0000
0000
0000
0001
0000
0000
1000
0000
0000
0000
0000
0000
0010
0000
0000
0000
0000
0000
,
0100
0000
0000
0010
0000
0000
1000
0000
0000
0001
0000
0010
0000
0100
1000
0000
,
0001
0000
0000
0000
1000
0000
0000
0000
0001
0000
0000
0000
1000
0000
0000
0000
0000
0000
0010
0000
0000
0100
0000
0000
0000
0000
0000
0001
0000
0000
0000
0000
0000
1000
0000
0000
0100
0000
0000
0000
0000
0000
0001
0000
0000
0000
0000
0000
,
1000
0010
0000
0100
0000
0001
1000
0000
0010
0100
0000
0010
0100
0000
0000
0000
,
0001
0000
0000
0000
1000
0000
0000
0000
0001
0000
0000
0000
1000
0000
0000
0000
0001
0000
0000
0000
1000
0000
0000
0000
0001
0000
0000
0100
0000
0000
0000
0000
0000
0010
0000
0000
1000
0000
0000
0000
0000
0000
0000
0000
0000
0000
0000
0000
,
0001
0100
0000
1000
0000
0010
0100
0000
0001
0010
0000
0001
1000
0000
0000
0000
,
0010
0100
0010
0100
0010
0100
0020
0000
0000
0030
0000
0000
,
0100
1000
0000
0010
0000
0001
0100
0000
0010
1000
0000
0001
1000
0000
0000
0000
,
0001
0000
0000
0000
0010
0000
0000
0000
0001
0000
0000
0000
0010
0000
0000
0000
0001
0000
0000
0000
0010
0000
0000
0000
0100
0000
0000
1000
0000
0000
0000
0000
0000
0010
0000
0000
0100
0000
0000
0000
0000
0000
0000
0000
0000
0000
0000
0000
,
0001
1000
0000
0100
0000
0010
0001
0000
0100
0010
0000
1000
0001
0000
0000
0000
,
0100
1000
0100
1000
0100
1000
0200
0000
0000
0300
0000
0000
,
0010
0100
0000
0001
0000
1000
0010
0000
0100
0001
0000
1000
0010
0000
0000
0000
,
0100
0010
0000
1000
0000
0001
0010
0100
0000
0000
0000
0000
0000
0000
0000
0000
,
0001
0100
0000
1000
0000
0010
0001
0000
0100
1000
0000
0010
0001
0000
0000
0000
,
0010
0100
0000
0001
0000
0100
1000
0000
0110
0000
0000
0000
1001
0000
0000
0000
,
0010
1000
0000
0100
0000
0001
1000
0000
0010
0100
0000
0001
0010
0000
0000
0000
,
0100
0000
0000
0000
1000
0000
0000
0000
0100
0000
0000
0000
1000
0000
0000
0000
0100
0000
0000
0000
1000
0000
0000
0000
0100
0000
0000
0010
0000
0000
0000
0000
0000
0001
0000
0000
1000
0000
0000
0000
0000
0000
0000
0000
0000
0000
0000
0000
,
0010
0100
0000
0001
0000
1000
0100
0000
0010
0001
0000
0100
0010
0000
0000
0000
,
1000
0000
0010
0000
1000
0000
0010
0000
1000
0000
0010
0000
1000
0000
0000
0110
0000
0000
1001
0000
0000
0000
0000
0000
;

//---------------dance-single - ----------------
#NOTES:
     dance-single:
     :
     Medium:
     6:
     0.352,0.333,0.077,0.044,0.011:
0010
0100
0010
1000
0100
0010
0001
0100
,
0001
1000
0010
0100
0001
0100
0010
1000
,
0001
0100
1000
0100
0010
1000
0001
0010
,
0100
0001
0100
0010
0001
1000
0010
0100
,
0000
0001
1000
0010
0100
0001
1000
0010
,
0000
0100
0010
1000
0100
0010
0001
0000
,
0000
0100
0001
1000
0010
0100
1000
0001
,
0000
0000
0110
0000
0000
0110
0000
0000
0220
0000
0000
0000
0330
0000
0000
0000
,
0000
1000
0010
1000
0001
0010
0100
0001
,
0000
1000
0010
0100
1000
0001
0100
0000
,
0000
0010
0100
0001
1000
0100
0001
0010
,
0000
0000
0110
0000
0000
0110
0000
0000
0220
0000
0000
0000
0330
0000
0000
0000
,
1000
0000
0000
0000
0000
0000
0000
0001
,
1000
0000
0000
0000
0000
0000
0000
0001
,
1000
0000
0000
0000
0000
0000
0000
0001
,
1000
0100
0001
0010
,
1000
0100
0001
0100
1000
0010
0001
0010
,
1000
0100
0001
0010
1000
0100
0001
0010
,
1000
0001
0100
0001
0010
0100
1000
0010
,
0100
0001
1000
0100
0001
0010
1000
0001
,
0100
0001
1000
0010
0100
0001
0100
0000
,
0010
0010
0010
0010
0010
0100
0001
0000
,
1000
0100
0001
0010
0100
1000
0010
0000
,
0001
0001
0001
0001
0001
1000
0010
0000
,
0100
0001
1000
0010
0100
0001
0010
0000
,
0100
0100
0100
0100
0100
1000
0001
0000
,
0100
0001
1000
0010
0100
0001
0010
0000
,
1000
1000
1000
1000
1000
0010
0100
0000
,
0010
0000
0000
0000
0000
0000
0000
0100
,
0010
0000
0000
0000
0000
0000
0000
0100
,
0010
0000
0000
0000
0000
0000
0000
0100
,
0010
1000
0001
0100
,
0010
1000
0001
0100
0001
0010
0100
0000
,
1000
1000
1000
1000
1000
0010
0100
0000
,
0001
0100
0001
0010
1000
0100
0010
0000
,
0001
0001
0001
0001
0001
0100
0110
0000
;

//---------------dance-single - ----------------
#NOTES:
     dance-single:
     :
     Easy:
     4:
     0.313,0.333,0.132,0.022,0.011: // measure 1
0001
0100
0010
1000
,  // measure 2
0001
0000
0100
0000
0001
0000
1000
0010
,  // measure 3
1000
0001
0100
0010
,  // measure 4
1000
0000
0001
0000
0100
0000
0010
1000
,  // measure 5
0000
0001
0100
0001
1000
0010
1000
0010
,  // measure 6
0000
0100
0001
0100
0010
1000
0010
0000
,  // measure 7
0000
1000
0100
1000
0001
0100
0001
0100
,  // measure 8
0000
0000
0010
0000
0000
0010
0000
0000
0020
0000
0000
0000
0030
0000
0000
0000
,  // measure 9
0000
1000
0100
1000
0001
0010
0001
0010
,  // measure 10
0000
1000
0001
1000
0010
0100
0010
0000
,  // measure 11
0000
0100
0010
0100
0001
0010
0001
0010
,  // measure 12
0000
0000
0100
0000
0000
0100
0000
0000
0200
0000
0000
0000
0300
0000
0000
0000
,  // measure 13
0001
0000
0000
0000
0000
0000
0000
1000
,  // measure 14
0001
0000
0000
0000
0000
0000
0000
1000
,  // measure 15
0001
0000
0000
0000
0000
0000
0000
1000
,  // measure 16
0001
0001
0001
0001
,  // measure 17
1000
0100
0001
0010
,  // measure 18
1000
0000
0010
0000
0100
0000
0010
0001
,  // measure 19
1000
0001
0100
0001
,  // measure 20
1000
0000
0010
0000
0100
0000
0001
0010
,  // measure 21
0100
0010
0100
0010
0100
0010
0110
0000
,  // measure 22
0001
0100
0001
0100
0001
0100
0101
0000
,  // measure 23
1000
0010
1000
0010
0100
0001
0101
0000
,  // measure 24
0010
1000
0010
1000
0001
0010
0011
0000
,  // measure 25
0100
0010
0100
0010
0100
0010
0110
0000
,  // measure 26
1000
0100
1000
0100
1000
0100
1100
0000
,  // measure 27
0001
0100
0001
0100
0010
1000
1010
0000
,  // measure 28
0100
0001
0100
0001
1000
0010
1010
0000
,  // measure 29
1000
0000
0000
0000
0000
0000
0000
0001
,  // measure 30
1000
0000
0000
0000
0000
0000
0000
0001
,  // measure 31
1000
0000
0000
0000
0000
0000
0000
0001
,  // measure 32
1000
1000
1000
1000
,  // measure 33
0001
1000
0001
1000
0001
1000
1001
0000
,  // measure 34
0010
1000
0010
1000
0010
1000
1010
0000
,  // measure 35
0001
0010
0001
0010
0100
1000
1100
0000
,  // measure 36
0010
1000
0010
1000
0001
1000
1001
0000
;
