#TITLE:Knights of the Round Table;
#SUBTITLE:(Camelot Song);
#ARTIST:Monty Python;
#TITLETRANSLIT:;
#SUBTITLETRANSLIT:;
#ARTISTTRANSLIT:;
#CREDIT:Steps by Vero;
#BANNER:Knights of the Round Table (Camelot)-bn.png;
#BACKGROUND:Knights of the Round Table (Camelot Song)-bg.png;
#LYRICSPATH:;
#CDTITLE:!veroTitle.png;
#MUSIC:Knights of the Round Table (Camelot Song).mp3;
#OFFSET:0.100;
#SAMPLESTART:41.754;
#SAMPLELENGTH:12.000;
#SELECTABLE:YES;
#BPMS:0.000=143.700,6.333=138.700,11.500=153.700,16.333=143.700,18.667=153.700,22.000=143.700,76.500=153.700,80.500=143.700,101.500=71.360,101.750=153.700,107.000=143.700,110.000=133.700,116.000=143.700,128.333=72.000,130.000=76.000,130.667=81.800,132.000=61.800,133.000=56.800,135.500=153.700;
#STOPS:;
#BGCHANGES:;

//---------------dance-single - ----------------
#NOTES:
     dance-single:
     :
     Hard:
     9:
     0.696,0.696,0.494,0.659,0.494: // measure 1
0000
0000
0000
0000
1000
0000
0000
0100
0010
0000
0001
0000
0001
0000
0000
0000
,  // measure 2
1001
0000
0000
0100
0000
0000
0020
0000
0000
0030
0001
0000
0010
0000
0002
0000
0003
0000
0100
0000
0000
0200
0000
0000
,  // measure 3
0300
0000
0000
0000
1000
0000
0001
0000
0000
0000
0000
0000
0001
0000
0000
0010
0000
0000
0100
0000
0000
1000
0000
0000
,  // measure 4
0000
0000
0000
0000
0000
0000
0110
0000
0000
0001
0000
0000
0000
0100
0000
0000
0000
0000
0100
0000
0010
0000
0000
0000
,  // measure 5
0001
0010
0000
0100
1000
0100
0000
0010
0001
0000
0110
0000
,  // measure 6
0011
0000
0000
0000
0000
0000
0010
0000
0000
0000
0100
0000
0001
0000
0000
0010
0000
0000
0100
0000
0000
1000
0000
0000
,  // measure 7
0100
0000
0020
0000
0030
0000
0011
0000
0110
0000
1100
0000
0110
0000
0011
1001
,  // measure 8
0000
0110
0000
0100
1000
0100
1000
0100
,  // measure 9
1000
0200
0300
0001
0010
0002
0003
0001
,  // measure 10
1000
0001
0000
0010
0100
0010
0100
0010
,  // measure 11
0100
0000
0020
0000
0030
0000
0001
0000
0010
0000
0100
0110
1000
0000
0200
0000
,  // measure 12
0300
0000
0000
0000
0000
0000
0011
0000
0000
0000
0000
0000
0100
0000
0000
0000
0000
0000
0000
0000
1000
0000
0000
0000
0000
0000
0000
0100
0000
0000
0010
0000
0000
0001
0000
0000
0000
0000
0000
0000
0000
0000
0000
0000
0001
0000
0000
0000
,  // measure 13
0010
0000
0000
0000
0000
0000
0100
0000
0000
0010
0000
0000
0000
0000
0011
0000
0000
0000
0010
0000
0000
0100
0000
0000
,  // measure 14
0000
0000
1100
0000
0001
0000
0010
0000
0100
1000
0210
0000
0000
0000
0311
0000
,  // measure 15
0000
0000
0000
0110
0000
0000
0000
1000
0000
0100
0000
0000
0010
0000
0000
0001
0000
0000
0000
0100
0000
0010
0000
0000
,  // measure 16
0001
0000
0000
0010
0000
0000
0000
0001
0000
0100
0000
0000
0010
0000
0000
0001
0000
0000
0100
0000
0000
0010
0000
0000
,  // measure 17
1000
0000
0000
0000
0000
0000
0010
0000
0200
0001
0000
0000
0310
0000
0000
0001
0000
0000
0010
0000
2000
0001
0000
0000
,  // measure 18
3010
0000
0000
0001
0000
0000
0010
0000
0002
0100
0000
0000
1003
0000
0200
0000
0000
0000
0300
0000
0100
0000
0020
0000
,  // measure 19
0000
0100
0000
0100
0000
0100
0000
0100
,  // measure 20
0000
0100
0000
0130
0001
0100
0001
0100
,  // measure 21
0001
0200
0300
1000
0001
1000
0001
0020
,  // measure 22
1130
0000
0102
0000
0000
0000
0023
0030
0000
1000
0100
0000
0010
0000
0001
0000
,  // measure 23
0001
0000
0001
0000
0000
0000
1000
0200
0300
1000
0000
0000
1000
0000
0010
0200
,  // measure 24
0310
0000
0010
0000
0000
0000
0000
0200
0312
0000
0000
0000
0013
0000
0200
0000
,  // measure 25
0020
0000
0331
0010
0001
0010
0002
0000
0000
0010
0000
0010
0000
0010
0000
0100
,  // measure 26
0000
0000
0000
0020
0000
0000
0000
0000
0000
0030
0000
0000
0000
0000
0000
0000
0000
0000
0123
0000
0000
0030
0000
0000
0000
0000
0000
0000
2000
0000
0000
0000
0000
0000
0000
0000
0000
0000
0000
0000
3200
0000
0000
0000
0000
0000
0000
0000
,  // measure 27
0000
0320
0000
0000
0032
0000
0000
0023
0000
0230
0300
0000
,  // measure 28
0020
0030
0000
0000
0011
0000
1000
0200
0000
0000
0320
0000
,  // measure 29
0000
0000
0000
0000
0032
0000
0000
0000
0000
0000
0000
0000
0000
0000
0000
0000
0023
0000
0000
0000
0000
0000
0000
0000
0000
0000
0000
0000
0230
0000
0000
0000
2300
0000
0000
0000
3100
0000
0000
0010
0000
0000
0001
0000
0000
0010
0000
0000
,  // measure 30
0200
2300
3100
1000
0010
0100
0010
0001
,  // measure 31
0010
0000
0100
0000
1000
0000
0100
0010
0001
0000
0010
0000
0100
0000
0010
0000
,  // measure 32
0100
0000
0000
0000
1000
0000
0000
0000
0000
0000
0000
0000
0000
0000
0000
0000
0000
0000
0100
0000
0000
0010
0000
0000
0001
0000
0000
0000
0000
0000
0010
0000
0000
0000
0000
0000
0001
0000
0000
0000
0000
0000
0010
0000
0000
0000
0000
0000
,  // measure 33
0100
0010
0000
0000
1000
0000
0100
0000
0010
0000
0001
0000
,  // measure 34
0001
0000
0000
0000
0001
0000
0010
0000
0200
0000
0000
0000
0000
0000
0000
0000
0000
0000
0300
0000
0010
1000
0000
0000
,  // measure 35
0110
1000
0110
1000
0110
1000
0011
0110
,  // measure 36
1100
0011
0110
1002
0010
1000
0113
0000
;
