#TITLE:GERUDO VALLEY;
#SUBTITLE:(Techno Remix);
#ARTIST:Nintendo;
#TITLETRANSLIT:;
#SUBTITLETRANSLIT:;
#ARTISTTRANSLIT:;
#CREDIT:;
#BANNER:Gerudo Valley-banner.BMP;
#BACKGROUND:Gerudo Valley-bg.BMP;
#LYRICSPATH:;
#CDTITLE:./CDTITLES/DANCE DANCE REVOLUTION EXTREME.PNG;
#MUSIC:Gerudo Valley (Techno Remix).mp3;
#OFFSET:-3.727;
#SAMPLESTART:27.660;
#SAMPLELENGTH:12.000;
#SELECTABLE:YES;
#BPMS:0.000=130.000;
#STOPS:;
#BGCHANGES:;

//---------------dance-single - ----------------
#NOTES:
     dance-single:
     :
     Hard:
     8:
     0.436,0.439,0.196,0.175,0.458:
0000
0000
0000
0000
,
0000
0000
0000
0000
,
1000
0100
1000
0100
0000
0010
0000
0001
0100
0001
0100
0001
0100
0000
0000
0000
,
0010
0000
0000
0000
1000
0000
0000
0000
0001
0000
0000
0001
0000
0000
0001
0000
,
0100
0000
0000
0000
0010
0000
0000
0000
1000
0000
0000
1000
0000
0000
1000
0000
,
0001
0101
0010
1010
,
0100
0110
1000
1010
,
0100
0101
0010
0011
,
1000
1001
0010
1100
,
0001
0110
1000
0101
,
0010
1100
0001
0101
,
0010
1001
0100
0011
,
1000
1010
0001
1100
,
0000
0010
0100
0010
0100
0000
0000
0001
1000
0001
1000
0000
0000
0000
0000
0000
,
0000
0100
1000
0100
1000
0000
0000
0001
0010
0001
0010
0000
0000
0000
0000
0000
,
0000
0100
1000
0100
1000
0000
0000
0010
0100
0010
0100
0000
0000
0000
0000
0000
,
0000
0001
0010
0100
2000
0000
0000
0000
0000
0000
0000
0000
3000
0000
0000
0000
,
0000
0010
1000
0010
1000
0000
0000
0001
0010
0001
0010
0000
0000
0000
0000
0000
,
0000
0100
1000
0100
1000
0000
0000
0010
0100
0010
0100
0000
0000
0000
0000
0000
,
0000
0001
0010
0001
0010
0000
0000
0100
1000
0100
1000
0000
0000
0000
0000
0000
,
0000
1000
0100
0010
0002
0000
0000
0000
0000
0000
0000
0000
0003
0000
0000
0000
,
0000
0000
1000
0000
0000
0010
0000
0000
0100
0000
0000
0001
0000
0000
1000
0000
,
0010
0000
0000
0000
1000
0001
1000
0002
0000
0000
0000
0000
0003
0000
0000
0000
,
0000
0000
0100
0000
0000
0010
0000
0000
1000
0000
0000
0001
0000
0000
0100
0000
,
0010
0000
0000
0000
0100
0001
0100
0002
0000
0000
0000
0000
0003
0000
0000
0000
,
0000
0000
1000
0000
0000
0100
0000
0000
0010
0000
0000
0001
0000
0000
0100
0000
,
0010
0000
0000
0000
1000
0010
1000
0020
0000
0000
0000
0000
0030
0000
0000
0000
,
0100
0000
0000
0100
0000
0000
0200
0000
0010
0000
0000
0010
0000
0000
0320
0000
,
1000
0000
0000
1000
0000
0000
2030
0000
0001
0000
0000
0001
0000
0000
3001
0000
,
0000
0000
0100
0000
0000
0010
0000
0000
1000
0000
0000
0001
0000
0000
0100
0000
,
0010
0000
0000
0000
0100
0010
0100
0020
0000
0000
0000
0000
0030
0000
0000
0000
,
0000
0000
0100
0000
0000
0001
0000
0000
0010
0000
0000
0100
0000
0000
1000
0000
,
0001
0000
0000
0000
0100
0001
0100
0002
0000
0000
0000
0000
0003
0000
0000
0000
,
0000
0000
1000
0010
1000
0010
0000
0000
0100
0001
0100
0001
0000
0000
0000
0000
,
0000
0000
1000
0100
1000
0100
0000
0000
0010
0001
0010
0001
0000
0000
0000
0000
,
1000
0000
0000
0010
0000
0000
0100
0000
0001
0000
0000
0010
0000
0000
0100
0000
,
2002
0000
0000
3003
,
0100
0010
0100
0010
0000
0000
0000
0000
0000
0000
0000
1000
0100
1000
0100
1000
,
0100
0010
0001
0020
0000
0000
0000
0000
0000
0000
0000
0000
0030
0000
0000
0000
,
0100
1000
0100
1000
0000
0000
0000
0000
0000
0000
0001
0100
0001
0100
0001
0100
,
0010
1000
0010
2000
0000
0000
0000
0000
0000
0000
0000
0000
3000
0000
0000
0000
,
0001
0100
0010
1000
0100
0001
0100
0010
,
0001
0100
1000
0100
0010
1000
0001
0010
,
0100
1000
0010
0100
0001
0010
0100
1000
,
2002
0000
0000
3003
;

//---------------dance-single - ----------------
#NOTES:
     dance-single:
     :
     Medium:
     5:
     0.309,0.317,0.098,0.120,0.011:
0000
0000
0000
0000
,
0000
0000
0000
0000
,
0000
0000
0000
0000
,
1000
0000
0000
0000
0001
0000
0000
0000
0100
0000
0000
0100
0000
0000
0100
0000
,
0100
0000
0000
0000
0010
0000
0000
0000
1000
0000
0000
1000
0000
0000
1000
0000
,
1000
0001
0100
0101
,
1000
0010
0100
0011
,
0100
0001
1000
0110
,
0001
0100
0010
1001
,
0001
0100
0010
0000
1000
0010
0100
0000
,
0001
1000
0010
0000
0100
0010
1000
0000
,
0001
0100
0001
0000
1000
0010
0100
0000
,
0010
1000
0001
0000
0100
0010
1000
0000
,
0001
0000
0100
0000
0010
1000
0000
0000
,
0001
0000
0100
0000
0010
0100
0000
0000
,
0001
0000
0010
0000
0100
1000
0000
0000
,
0020
0030
0100
0001
,
1000
0000
0010
0000
0100
0001
0000
0000
,
1000
0000
0100
0000
0010
0001
0000
0000
,
0100
0000
0010
0000
1000
0001
0000
0000
,
0200
0300
0001
0100
,
1000
0001
0100
0001
,
0200
0300
0020
0030
,
1000
0001
0100
0001
,
2000
3000
0002
0003
,
0100
0010
1000
0001
,
0100
0010
1000
0000
0001
0100
0010
0000
,
1000
0000
0001
0100
0001
0000
1000
0010
,
0200
0000
0000
0300
,
0001
0100
0001
1000
,
0010
0000
0100
0010
2000
0000
3000
0000
,
0001
0100
0001
0010
,
0100
0000
1000
0010
0200
0000
0300
0000
,
0001
0100
0010
0000
1000
0010
0000
0000
,
0100
0010
1000
0000
0001
0100
0000
0000
,
0010
0100
0010
0000
1000
0001
1000
0000
,
0010
0100
0001
1000
,
0001
0000
0101
0000
0010
0000
1000
0010
,
0100
0000
0101
0000
0010
0000
1000
0100
,
1000
0000
0011
0000
0100
0000
0010
1000
,
0001
0000
0101
0000
0010
0000
1000
0010
,
0100
0001
0100
0010
,
1000
0100
0001
0010
,
1000
0100
0001
1000
,
2002
0000
0000
3003
;

//---------------dance-single - ----------------
#NOTES:
     dance-single:
     :
     Easy:
     3:
     0.259,0.317,0.131,0.196,0.000: // measure 1
0000
0000
0000
0000
,  // measure 2
0000
0000
0000
0000
,  // measure 3
0000
0000
0000
0000
,  // measure 4
1000
0000
0000
0000
,  // measure 5
0001
0000
0000
0000
,  // measure 6
0100
0100
0100
0100
,  // measure 7
0010
0010
0010
0010
,  // measure 8
1000
1000
1000
1000
,  // measure 9
0001
0001
0001
0001
,  // measure 10
2000
3100
0002
0103
,  // measure 11
2000
3100
0002
0103
,  // measure 12
2000
3010
0002
0013
,  // measure 13
2000
3010
0002
0013
,  // measure 14
1000
0000
0010
0000
,  // measure 15
0100
0000
0001
0000
,  // measure 16
1000
0010
1000
0001
,  // measure 17
0100
0010
1000
0001
,  // measure 18
0100
0000
0010
0000
,  // measure 19
1000
0000
0001
0000
,  // measure 20
0100
0001
1000
0010
,  // measure 21
0100
0001
0100
0010
,  // measure 22
1000
0000
0101
0010
,  // measure 23
1000
0000
0110
0010
,  // measure 24
1000
0000
0101
0010
,  // measure 25
0001
0000
0110
0010
,  // measure 26
2000
0100
0010
3100
,  // measure 27
0002
0010
0100
0013
,  // measure 28
2000
0001
0010
3001
,  // measure 29
0002
0100
1000
0103
,  // measure 30
0010
1000
0001
0100
,  // measure 31
0002
0003
2000
3000
,  // measure 32
0010
0100
0001
0100
,  // measure 33
0020
0030
2000
3000
,  // measure 34
0001
0100
0001
1000
,  // measure 35
0010
0100
0001
0100
,  // measure 36
0010
1000
0100
0001
,  // measure 37
0010
1000
0001
0100
,  // measure 38
1010
0000
1000
0010
,  // measure 39
0101
0000
0001
0100
,  // measure 40
1001
0000
0010
0100
,  // measure 41
0011
0000
0100
0001
,  // measure 42
1100
0000
0010
0100
,  // measure 43
0101
0000
0010
1000
,  // measure 44
1001
0000
0100
0010
,  // measure 45
2002
0000
0000
3003
;
