#TITLE:Comin';
#ARTIST:Banya;
#FILE:Comin' Back.mp3;
#BPM:158.020;
#GAP:60;
#SAMPLESTART:7.980;
#SAMPLELENGTH:12.500;
#CDTITLE:I.jpg;
#SINGLE:BASIC:5:
00000000
00000000
B0000000
A0000640
B0000000
04600280
40608280
40406602!2
008A0004
60280064!4
00040004
6!60060002
8!80800006
406402!208!8
20000800
10304204
00660006
40280202!2
00020008
20000004
60000006
40280604!4
00000400
64602820
10308880
40206080
40206840
00000000
B0B0B0B0
A0A0A0A0
40604060
20802080
40602000
60402000
B0A0B0A0
B0A0B0A0
60406204
00240006
40460028
00000008
20006046!6
06004040
60204008!8
00008000
40604060
20802080
40604060
40404004
60000006
40000002
80000000
40206020
00000000
B0B0B0B0
A0A0A0A0
10101010
30303030
90909090
70707070
06400460
04628888
00000000
40602820
B0000000
;
#SINGLE:ANOTHER:6:
00000000
00000000
10304240
3010B420
30106260
16200420
64826420
B0A02820
A0B04640
90106860
10903006
10000004
30000002
90000008
70000B!B0B
10106860
30304840
B0B08280
10903072
20301030
4240B0A0
42861030
80407070
64648282
00004620
62628484
6666426!60
00006000
42406260
42862820
62604240
68241034
20660006
20440B00
46284628
46284628
42406260
48486260
62604240
68681034
B0000006
A0000004
A01030B0
A0B28000
B010620B
00420006
20420606!6
00060004
20300006
20100002
80A00000
B010B030
40628!8800
42426262
08486868
02244622
B0284262
B0B28020
A0A82080
04400660
04648228
A!A00000A0
42684260
B0000000
;
#SINGLE:MANIAC:9:
00000000
00000000
B0B02820
B0B0B280
A0A02820
A820A280
62486240
16821682
16821682
103A0013
04628007
3003700B
A00AB001
3003100A
900A7030
42424848
26262828
46462846!6
0600000B
A0013003
10091003
700A100A
30701090
(4020424060206260)
00004260
(6040646040604640)
(4240686062607!7000)
00007000
46464260
64646240
82828420
82828620
84208620
84264640
B0A0B010
B030B0B0
46462828
42426424
62826828
46264046
40464046
40462028
20828084
20644060
42464246
46484642
68246824!4
04000006
40464046
40286068
20426060
30901070
B0B82!2200
B282B828
16821626
36263282
A4466228
04262426
06242624
0BA00AB0
04642282
8!80008000
1397BAB0
B0000000
;
