#TITLE:Ballroom Blitz;
#ARTIST:ACDC;
#BPM:117.360;
#GAP:7311;
#SAMPLESTART:31.924;
#SAMPLELENGTH:53.489;
#SINGLE:MANIAC:9:
(0042086040600402)
(0406040204080406)
(4000B0B00000!40000)
60600!60B0
(0042000010903070)
(B0A0604020806046)
(40!B000000B000!20000)
(00000!600000300003)
(0030000000!7000000)
(0000000700046400)
(06400000000B000!B0)
(00000000000B0804)
(0420280860626280)
(8404808202626080)
(8202404808282606)
(4042028008030703)
(0701090109030903)
(0701070460!4000000)
(040000B00!B0000000)
(0B00004020406406)
(00!400406040602060)
(4640600!8000000008)
(000000000000000B)
(0000424062604246)
(4800280486840!2020)
(0002820686462646)
(0000701090064640)
B08!40040!60
(064286000!20002006)
(848680!20000020042)
(484200B010000062)
(6860019000000300)
(0000010003000A00)
(0B00428082408206)
(8640282828204006)
(0000424062626206)
(464646464640060B)
(00B00A0B00000000)
(0400204000000000)
(0060020600000000)
(0200802000000000)
(0000010040240240)
(2000400030062062)
(06000600A0082082)
(08200200B0046046)
(0460010309030107)
(0103090301070B0A)
(0B08280040420280)
(8606262080840420)
(2808686030B030B0)
(3000B010B010B046)
(4646400040420240)
(4808484020280860)
(6400626042406284)
(6206824840682800)
(0046206424062842)
(8682482680062600)
(000006!40000070000)
(0040600200000064)
(0820700700000464)
(06400!600040600028)
(2060082000000B00)
(00000A000B000A00)
(0B04280862084002)
(4240848684204080)
(0004804062626206)
(4626462646208040)
(0030070300040204)
(0804600080208060)
(202800B020B080B0)
(20B0460010A090A0)
(1086002060802040)
(6042800103010901)
(0860206040208060)
(0100000000000000)
;
