#TITLE:B4U Millenium Edition;
#ARTIST:DJ Wing;
#FILE:B4U (Millenium Edition).mp3;
#BPM:155.020;
#GAP:815;
#SAMPLESTART:15.634;
#SAMPLELENGTH:12.540;
#CDTITLE:jammitch! DDR.png;
#DISPLAYBPM:155;
#FREEZE:204.000=20.000,204.500=25.000,205.000=20.000,205.500=25.000,604.000=20.000,604.500=25.000,605.000=20.000,605.500=25.000;
#CHANGEBPM:204.000=309.960,206.000=154.980,604.000=309.959,606.000=154.980;
#SINGLE:SMANIAC:12:
00000000
00000000
00000000
00000000
(B00100900860A010)
(B00700300840A030)
(900B00300260A070)
(100B00700260A070)
(4842006862004842)
(80B010A086242684)
(8626004842008626)
(8242624286848682)
{4000200000008000000080006000200000002000400000006020602060002000}
(B0901030709A0030)
(B062404104703000)
(B02A062890103064)
(108630A010301090)
(B0010068A0030042)
(4890A03010030046)
(B0307030B0904086)
(B020B046B0B0B0B0)
(B60A010307026030)
(4286068486426028)
(B20A0106B4026030)
(B262B004B6B0B0B0)
(B609070307046030)
(4286024868462042)
(B40A0904B6086030)
(B248B062B2B0B0B0)
(B0A02B02702902B0)
(B0A08B08308108B0)
(B0208106102904B0)
(B020B406B0B0B0B0)
(40304B06B08B02B0)
(10308A02A04A06A0)
(7090870270470670)
(7090830230430630)
{4000800000002000000020006000800000008000400000006080608060008000}
(B082482010307084)
(20701064209010A0)
(90486010901A0062)
(7048606840430042)
(B02B00A0904B0010)
(A08640B0302A0070)
(B030B010B0830046)
(B020B028B0B0B0B0)
(B209010703026070)
(4248068242624026)
(B4010602B6024010)
(B242B002B4B0B0B0)
(B407090307042090)
(4682024262482046)
(B40A0904B20240A0)
(B264B042B6B0B0B0)
B123698A
21478931
(7!4286!60000B0000060)
(426240682040B010)
(B0000000B2030704)
(B0000000B2030902)
(B808B204A606A404)
(3806180492067208)
(B2027606A4043808)
B9B7B9B7
(B090B070BBBB0000)
(B209070301086090)
(4684068428462028)
(B6090A04B6068010)
(B286B004B4B0B0B0)
(B60A090703042090)
(4864026482628042)
(B60B0A02B2086040)
(B246B064B2B0B0B0)
(BBB000BBB000BBB0)
(00BBB0BBB0B0B000)
A0000000
;
#SOLO:SMANIAC:12:
00000000
00000000
00000000
00000000
(B00100900860A010)
(B00700300840A030)
(900B00300260A070)
(100B00700260A070)
(4842006862004842)
(80B010A086242684)
(8626004842008626)
(8242624286848682)
{4000200000008000000080006000200000002000400000006020602060002000}
(B0901030709A0030)
(B062404104703000)
(B02A062890103064)
(108630A010301090)
(M0010068A0030042)
(4890A03010030046)
(M0307030M0904086)
(M020M046H0M0M0M0)
(M60A010307026030)
(4286068486426028)
(M20A0106M4020030)
(M262M004M6M0M0M0)
(M609070307046030)
(4286024868462042)
(M40A0904M6086030)
(M248M062M2M0M0M0)
(M0A02B02702902M0)
(M0A08B08308108M0)
(M0208106102904M0)
(M020M406M0M0M0M0)
(10304B06B08B02B0)
(10308A02A04A06A0)
(7090870270470670)
(7090830230430630)
{4000800000002000000020006000800000008000400000006080608060008000}
(B082482010307084)
(20701064209010A0)
(90486010901A0062)
(B048606840430042)
(M02B00A0904B0010)
(A08640B0302A0070)
(M030B010M0830046)
(M020M028M0M0M0M0)
(M209010703026070)
(4248068242624026)
(M4010602M6024010)
(M242M002M4M0M0M0)
(M407090307042090)
(4682024262482046)
(M40A0904M20240A0)
(M264M042M6M0M0M0)
ME0I0L0H
0F0J0KGM
(M!C0286!6000H0000060)
(426240682040B010)
(M0000000M2030704)
(M0000000M2030904)
(M202M606M404M202)
(M606M202M404M202)
(M606M202M404M606)
MFMJMEMI
(M0L0M0H0MMMM0000)
(M209070301086090)
(4684068428462028)
(M6090A04M6068010)
(M286<61>004M4M0M0M0)
(M60A090703042090)
(4864026482628042)
(M60B0A02M2086010)
(M246M064M2M0M0M0)
(MMM000FFF000JJJ0)
(00KKK0GGG00000)
<19M>0000000
;
#SINGLE:MANIAC:9:
00000000
00000000
00000000
00000000
(200A009006802040)
(800A003004208060)
(4003007006402080)
(6009001004602080)
04030601
04090607
02070803
02070802
(840604640640B!B0B0)
42842860
62862840
48248260
62862840
B28628B0
B28428B0
44228866
(4020828060408020)
(6208040208064020)
90209044
(4608020408026080)
(2420806040802020)
(2608040806042080)
10801088
(8602040206082040)
(6868604040400000)
(4208604802604020)
(8604802604208060)
(4808202606402080)
(6202808404602080)
420B020B
08010803
08070209
020B0666
(640604640640B!B0B0)
48268260
68248240
42642860
62462840
B26426B0
B24624B0
66228844
(6260802048402080)
(6204020608048060)
10601066
(6204020608048060)
(4240802060802020)
(2408060804026020)
30403088
(8602040206084080)
(6262608080800000)
820B0209
02070444
B!B000B004
26248684
(1000000062080402)
(8000000064020806)
20702090
40A060A0
60108030
48684262
(4080206046460000)
(6204080206048020)
30803044
(4206080204086080)
(2420402080602020)
(2408060402068020)
10801088
(8602040608042080)
60630870
(4240006260004840)
(0068604240802000)
B0000000
;
#SINGLE:ANOTHER:7:
00000000
00000000
00000000
00000000
(4002008006002080)
(4006002008004020)
(8006002008004080)
(2006008002004060)
04020608
06020408
06020608
04060806
208046B!BB
42406260
42806280
46802460
26802480
42862840
62842860
46828640
64828460
40602820
B020B046
40802620
80902010
20806460
A060A042
80604240
60104030
(4008002006004020)
(8006002008004060)
(8002004008002060)
(8002004006008020)
46020804
06080206
08040802
04020864
208064B!BB
48406860
64208640
48206820
46406460
42824820
62826820
64248260
46268240
60408280
B080B082
80406860
40706090
80204640
A040A068
60208480
20308070
28040208
06080682
4!40004000
68604240
B0006080
10004080
30402080
B0802040
90408020
68204280
64208640
60402820
B080B082
80406860
20108090
40208680
A040A068
20406860
40106090
46028046
02846280
B0000000
;
#SINGLE:BASIC:4:
00000000
00000000
00000000
00000000
40020080
60020080
40060020
80040060
40204020
80608060
40804080
20602060
2080406!60
B0006000
40006000
40002000
80006000
40802000
60208000
40608000
20406000
40208060
B000B000
60208040
B000B000
20604080
A000A000
80406020
A000A000
40020040
60020060
40080040
60080060
40604060
20802080
40204020
80608060
4020806!60
B0002000
80006000
40006000
20008000
40204000
60806000
40206000
40806000
40608020
B000B000
60402080
B000B000
40802060
A000A000
60802040
A000A000
40604060
20802080
2!20002000
60802040
B000A000
B000A000
40208060
40208060
40208060
40208060
402080B0
60802040
B000B000
40802060
B000B000
80406080
A000A000
20406020
A000A000
B00A00B0
0A004060
A0000000
;
