#VERSION:0.82;
#TITLE:Hail To The King;
#SUBTITLE:;
#ARTIST:Avenged Sevenfold;
#TITLETRANSLIT:;
#SUBTITLETRANSLIT:;
#ARTISTTRANSLIT:;
#GENRE:On Your Knees, Dog;
#ORIGIN:;
#CREDIT:;
#BANNER:Hail To The King.png;
#BACKGROUND:Hail To The King-bg.png;
#PREVIEWVID:;
#JACKET:jacket.png;
#CDIMAGE:;
#DISCIMAGE:;
#LYRICSPATH:;
#CDTITLE:;
#MUSIC:Hail To The King.ogg;
#OFFSET:-0.030000;
#SAMPLESTART:55.923199;
#SAMPLELENGTH:17.959999;
#SELECTABLE:YES;
#BPMS:0.000=118.000;
#STOPS:;
#DELAYS:;
#WARPS:;
#TIMESIGNATURES:0.000=4=4;
#TICKCOUNTS:0.000=4;
#COMBOS:0.000=1;
#SPEEDS:0.000=1.000=0.000=0;
#SCROLLS:0.000=1.000;
#FAKES:;
#LABELS:0.000=Song Start;
#BGCHANGES:4.000=Hail To The King.avi=1.000=0=0=1=====,
99999=-nosongbg-=1.000=0=0=0 // don't automatically add -songbackground-
;
#KEYSOUNDS:;
#ATTACKS:
;

//---------------dance-single - ----------------
#NOTEDATA:;
#CHARTNAME:;
#STEPSTYPE:dance-single;
#DESCRIPTION:;
#CHARTSTYLE:;
#DIFFICULTY:Hard;
#METER:8;
#RADARVALUES:0.545684,0.595747,0.161202,0.448563,0.129663,458.000000,23.000000,64.000000,0.000000,0.000000,0.000000,0.000000,0.000000,0.545684,0.595747,0.161202,0.448563,0.129663,458.000000,23.000000,64.000000,0.000000,0.000000,0.000000,0.000000,0.000000;
#CREDIT:Ben Speirs;
#NOTES:
0000
0000
0000
0000
,
0000
0000
0000
0000
,
0000
0000
0000
0000
,
0000
0000
0000
0000
0000
1000
1010
0001
,
0201
0000
0000
0000
0320
0000
0000
0000
2030
0000
0000
0000
3001
0100
0001
0000
,
0000
0000
0000
0000
1000
0100
1000
0000
0000
0000
0000
0000
0001
0010
0001
0000
,
1002
0000
0000
0000
0203
0000
0000
0000
0320
0000
0000
0000
1030
0100
1000
0000
,
0000
0000
0000
0000
0001
0100
0001
0000
0000
0000
0000
0000
1000
0010
1000
0000
,
0200
0000
0000
0000
0320
0000
0000
0000
0032
0000
0000
0000
1003
0100
1000
0000
,
0001
0000
0000
0000
0100
0010
0100
0000
0001
0000
0000
0000
1000
0100
1000
0000
,
0020
0000
0230
0000
0302
0000
1003
1200
,
0000
0010
0010
0310
0001
0010
0200
0000
,
2300
0000
3010
0100
0010
1000
0100
0010
,
0100
1000
0010
1000
0100
0010
0002
0000
,
0203
0000
0310
0100
0001
0010
0100
0010
,
0001
0100
0010
0100
0001
0010
0200
0000
,
2300
0000
3001
0010
0100
1000
0010
0100
,
0010
1000
0100
0010
0001
0100
0020
0000
,
2030
0000
3001
0100
0010
1000
0010
0100
,
0001
1001
1000
0100
0010
0110
0010
0001
,
0200
0000
0310
0100
0010
1000
0010
0100
,
0002
0000
1003
0100
0010
0001
2000
0000
,
3010
0000
0000
0000
0100
0000
0001
0000
0100
0000
0010
0000
1000
0000
0001
0010
,
0002
0000
0103
0000
0010
1000
2010
0000
,
3002
0000
1003
0100
1000
0001
1000
0010
,
0200
0000
0310
1000
0100
0010
0001
0000
,
1000
1100
0100
0010
0011
0001
0100
0110
,
0010
1000
0100
0010
0001
1000
2001
0000
,
3020
0000
0130
0001
0010
0100
1000
0020
,
0001
0000
0000
0000
2030
0000
0000
0000
3100
0000
0010
0000
0001
0000
1000
0100
,
2000
0000
3001
0010
0100
1000
0001
0200
,
1000
0000
0000
0000
0320
0000
0000
0000
1030
0000
0100
0000
0010
0000
0001
1000
,
0002
0000
0103
0010
1000
0100
0010
0001
,
2000
0000
0000
0000
0100
0000
0000
0000
3001
0000
0010
0000
0100
0000
1000
0001
,
2000
0000
3010
1000
0100
1000
0010
0100
,
0002
0000
0000
0000
1000
0000
0000
0000
0103
0000
0010
0000
1000
0000
0100
0010
,
0200
0000
0000
0000
0320
0000
0000
0000
0032
0000
0000
0000
1003
0100
1000
0000
,
0010
0000
0000
0000
0100
0001
0100
0000
0010
0000
0000
0000
1000
0100
1000
0000
,
0020
0000
0230
0000
0301
0010
0100
2000
,
0000
0100
0100
0100
3001
0010
0200
0000
,
1300
0010
0100
0001
1000
0100
0010
0001
,
1000
0100
1000
0000
0001
0000
1000
0000
0010
0100
0010
0000
1000
0000
0100
0000
,
0010
0001
0010
0000
0100
0000
1000
0000
0001
0000
0100
0000
0010
0000
1000
0000
,
0001
0010
0001
0000
0100
0000
0010
0000
1000
0100
1000
0000
0010
0000
0100
0000
,
0001
1000
0001
0000
0100
0000
0010
0000
1000
0000
0100
0000
0010
0000
0001
0000
,
1000
0100
1000
0000
0010
0000
0100
0000
0001
1000
0001
0000
0100
0000
0010
0000
,
1000
0100
1000
0000
0001
0100
0001
0000
1000
0010
1000
0000
0001
0010
0001
0000
,
1000
1100
0100
0010
0001
0011
0001
1000
,
1002
0000
0103
1000
0100
0010
1000
0100
,
0010
0001
0100
0000
0010
1000
0001
0000
,
2001
0000
3010
0001
0010
0100
0001
0010
,
0100
0000
1000
0000
0010
0000
0000
0000
0100
0000
0001
0000
0100
0000
0010
1000
,
0020
0000
0130
0001
0010
0100
1000
0001
,
0100
0000
0010
0000
1000
0000
0100
0000
0010
0000
0001
0000
1000
0000
0010
0100
,
0020
0000
1030
0010
0100
0001
1000
0100
,
0000
0110
0010
0001
1000
1001
1000
0010
,
0100
0100
1001
1000
0100
0020
0000
0032
,
0000
0000
0100
0000
0000
0000
1003
0000
0100
0000
1000
0000
0001
0000
0100
0010
,
0200
0000
0310
1000
0100
0010
0001
1000
,
0010
0000
1000
0000
0001
0000
0000
0000
0012
0000
0000
0000
1003
0000
0100
1000
,
0200
0000
1300
0010
0100
0001
1000
0001
,
0010
0000
0100
0000
1000
0000
0001
0000
0020
0000
0100
0000
0130
0000
1000
0100
,
2000
0000
3001
0010
0100
1000
0010
0100
,
0001
0101
0100
0010
1000
1010
1000
0100
,
1200
0000
0000
0000
0320
0000
0000
0000
0032
0000
0000
0000
1003
0100
1000
0000
,
0010
0000
0000
0000
1000
0001
1000
0000
0010
0000
0000
0000
0100
0001
0100
0000
,
0002
0000
2003
0000
3100
0010
0001
2200
,
0000
0000
0000
0000
,
3300
0000
0000
0000
;

//---------------dance-single - ----------------
#NOTEDATA:;
#CHARTNAME:;
#STEPSTYPE:dance-single;
#DESCRIPTION:;
#CHARTSTYLE:;
#DIFFICULTY:Challenge;
#METER:10;
#RADARVALUES:0.662831,0.810216,0.126158,0.224281,0.581730,612.000000,18.000000,32.000000,0.000000,0.000000,0.000000,0.000000,0.000000,0.662831,0.810216,0.126158,0.224281,0.581730,612.000000,18.000000,32.000000,0.000000,0.000000,0.000000,0.000000,0.000000;
#CREDIT:Ben Speirs;
#NOTES:
0000
0000
0000
0000
,
0000
0000
0000
0000
,
0000
0000
0000
0000
,
0000
0000
0000
0000
0000
1010
1001
0001
,
0010
0000
0001
0010
0100
0000
1000
0010
0100
0000
0000
0000
0001
1000
0001
0000
,
0000
0000
0000
0000
1000
0001
1000
0000
0000
0000
0000
0000
0001
1000
0001
0000
,
1000
0000
0010
1000
0100
0000
0010
0001
0100
0000
0000
0000
0001
1000
0001
0000
,
0000
0000
0000
0000
1000
0001
1000
0000
0000
0000
0000
0000
0001
1000
0001
0000
,
0100
0000
0100
0010
1000
0000
1000
0100
0010
0000
0000
0000
0001
1000
0001
0000
,
0000
0000
0000
0000
1000
0001
1000
0000
0000
0000
0000
0000
1000
0001
1000
0000
,
0010
0000
0010
0100
0001
0000
0001
0010
0100
0000
0100
1000
0001
0000
0200
0000
,
0000
0010
0010
0310
0100
0001
1001
0000
,
0010
0000
1000
0000
0100
0010
0100
0010
0001
0000
0010
0000
0100
0000
1000
0000
,
0010
0100
0010
0100
0001
0000
0010
0000
0100
0000
1000
0000
0002
0000
0000
0000
,
0103
0000
0001
0000
1000
0100
1000
0100
0010
0000
0001
0000
0100
0000
0010
0000
,
1000
0000
0001
0000
0010
0000
0100
0000
1000
0001
1000
0001
0100
0000
0100
0000
,
0101
0000
0001
0000
0010
0100
0010
0100
1000
0000
0100
0000
0010
0000
0001
0000
,
0100
0010
0100
0010
1000
0000
0100
0000
0010
0000
0001
0000
2000
0000
0000
0000
,
3010
0000
1000
0000
0001
0010
0001
0010
0100
0000
1000
0000
0010
0000
0100
0000
,
0001
0000
1000
0100
0010
0000
0001
0000
1000
0000
0010
1000
0001
0000
0100
0000
,
0201
0000
0000
0000
0310
1000
0010
1000
0010
0000
1000
0000
0100
0000
0010
0000
,
0002
0000
0000
0000
1003
0100
1000
0100
1000
0000
0010
0000
0100
0000
0001
0000
,
0020
0000
0000
0000
0031
0100
0001
0100
0001
0000
0010
0000
0001
0000
1000
0000
,
1010
0001
0010
0100
1000
0001
1001
0000
,
0101
0000
0100
0000
0010
1000
0010
1000
0010
0000
1000
0000
0100
0000
0010
0000
,
0001
0000
0100
0000
0001
1000
0001
1000
0001
0000
0010
0000
0001
0000
1000
0000
,
0010
1000
0001
0000
0001
0000
0010
0001
1000
0000
1000
0000
0100
1000
0001
0000
,
0100
0010
1000
0001
0010
0100
2001
0000
,
3010
0000
0100
0000
0001
1000
0001
1000
0010
0000
0200
0000
0000
0000
0302
0000
,
0000
0000
1000
0000
0100
0000
0000
0000
1003
0000
0100
0000
0010
0000
0001
1000
,
0002
0000
0000
0000
1003
0100
1000
0100
0010
0000
0002
0000
0000
0000
2003
0000
,
0000
0000
0100
0000
0001
0000
0000
0000
3010
0000
0100
0000
0001
0000
1000
0100
,
2000
0000
0000
0000
3001
0010
0100
0010
0001
0000
1000
0000
0100
0000
0010
0000
,
1002
0000
0100
0000
1003
0100
0010
0001
,
0200
0000
0000
0000
0310
1000
0001
1000
0010
0000
1000
0000
0001
0000
0100
0000
,
0010
0000
1000
0100
0010
0000
0001
0000
1000
0000
0010
0100
0001
0000
1000
0000
,
0100
0000
0100
0010
0001
0000
0001
0100
0010
0000
1000
0000
0100
1000
0100
0000
,
0000
0000
0000
0000
1000
0100
1000
0000
0000
0000
0000
0000
0100
1000
0100
0000
,
1000
0000
1000
0010
0100
0000
0100
0001
0010
0000
0010
0100
1000
0000
1001
0000
,
0000
0010
0010
0010
1000
0100
1001
0000
,
0001
0100
1000
0100
0001
0100
1000
0100
0001
0100
1000
0100
0001
0100
1000
0100
,
0001
0010
1000
0010
0001
0010
1000
0010
0001
1000
0100
1000
0001
1000
0100
1000
,
0001
0100
1000
0100
0001
0100
1000
0100
0001
0100
1000
0100
0001
0100
1000
0100
,
0001
0010
1000
0010
0001
0010
1000
0010
0001
1000
0100
1000
0001
1000
0100
1000
,
0001
0100
1000
0100
0001
0100
1000
0100
0001
0100
1000
0100
0001
0100
1000
0100
,
0001
0010
0100
0010
0001
0010
0100
0010
0001
1000
0010
1000
0001
1000
0010
1000
,
0001
0100
0010
1000
0100
0010
0001
0100
0010
1000
0100
0010
0001
1000
0010
0100
,
0002
0100
0100
1000
1000
0100
0103
0000
,
2001
0000
0000
0000
3010
1000
0100
0010
0001
0000
1000
0000
0010
0000
0100
0001
,
0200
0000
0000
0000
1000
0000
0000
0000
0310
0000
0100
0000
0001
0000
1000
0100
,
2000
0000
0000
0000
3001
0010
0100
1000
0001
0000
1000
0000
0001
0000
0100
0010
,
0200
0000
0000
0000
1000
0000
0000
0000
0310
0000
0100
0000
0001
0000
1000
0100
,
2000
0000
0000
0000
3001
1000
0100
1000
0001
0000
0100
0000
0010
1000
0200
0000
,
0000
0000
0000
0000
0310
0000
0000
0000
0001
0000
0010
0000
0100
0000
1000
0001
,
2000
0000
0000
0000
3010
1000
0001
1000
0010
0000
0100
0000
0001
1000
0020
0000
,
0000
0000
0100
0000
0130
0000
0001
0000
1000
0100
1000
0000
0001
0100
0001
0000
,
0010
0000
0010
0000
1001
0000
1100
0000
0001
0000
0200
0000
0000
0000
0310
1000
,
0010
0000
0100
0000
0001
0000
0010
0000
0100
1000
0100
1000
0001
0000
0100
0000
,
2001
0000
0000
0000
3010
1000
0100
0010
0001
0000
0100
0000
0010
1000
0020
0000
,
0000
0000
0001
0000
0100
0000
1030
0000
0100
1000
0100
0000
1000
0000
0001
0010
,
0002
0000
0000
0000
1003
0100
0010
0001
0100
0000
0010
0000
0100
0001
2000
0000
,
0100
0000
0000
0000
3001
0000
0000
0000
1000
0000
0100
0000
0010
0000
0001
0100
,
0002
0000
0000
0000
1003
0010
1000
0001
0010
0000
0001
0000
0100
0010
0100
0000
,
0001
0000
0101
0000
1100
0000
0001
0000
1000
0100
0010
0001
1000
0000
0001
0000
,
0100
0000
0100
0010
1000
0000
1000
0100
0010
0000
0010
0000
0001
1000
0001
0000
,
0100
0000
0100
0000
0001
1000
0001
0000
0010
0000
0010
0000
0001
1000
0001
0000
,
0100
0000
0100
0001
0010
0000
0010
0100
1000
0000
1000
0010
0100
0002
2000
0000
,
0000
0000
0000
0000
,
3003
0000
0000
0000
;

//---------------dance-double - ----------------
#NOTEDATA:;
#CHARTNAME:;
#STEPSTYPE:dance-double;
#DESCRIPTION:;
#CHARTSTYLE:;
#DIFFICULTY:Challenge;
#METER:8;
#RADARVALUES:0.542681,0.571917,0.091114,0.427536,0.143680,468.000000,13.000000,61.000000,0.000000,0.000000,0.000000,0.000000,0.000000,0.542681,0.571917,0.091114,0.427536,0.143680,468.000000,13.000000,61.000000,0.000000,0.000000,0.000000,0.000000,0.000000;
#CREDIT:Ben Speirs;
#NOTES:
// measure 0
00000000
00000000
00000000
00000000
,  // measure 1
00000000
00000000
00000000
00000000
,  // measure 2
00000000
00000000
00000000
00000000
,  // measure 3
00000000
00000000
00000000
00000000
00000000
01000000
10010000
01000000
,  // measure 4
02000000
00000000
00000000
00000000
03200000
00000000
00000000
00000000
00320000
00000000
00000000
00000000
01030000
00010000
01000000
00000000
,  // measure 5
00000000
00000000
00000000
00000000
00010000
01000000
00010000
00000000
00000000
00000000
00000000
00000000
01000000
00010000
01000000
00000000
,  // measure 6
00020000
00000000
00000000
00000000
00230000
00000000
00000000
00000000
00302000
00000000
00000000
00000000
00013000
00001000
00010000
00000000
,  // measure 7
00000000
00000000
00000000
00000000
00001000
00010000
00001000
00000000
00000000
00000000
00000000
00000000
00010000
00001000
00010000
00000000
,  // measure 8
00002000
00000000
00000000
00000000
00023000
00000000
00000000
00000000
00030200
00000000
00000000
00000000
00001300
00000100
00001000
00000000
,  // measure 9
00000000
00000000
00000000
00000000
00000100
00001000
00000100
00000000
00000000
00000000
00000000
00000000
00001000
00000100
00001000
00000000
,  // measure 10
00000200
00000000
00002300
00000000
00003002
00000000
00000103
00000020
,  // measure 11
00000000
00001030
00000100
00000010
00000001
00001000
00001001
00000000
,  // measure 12
00000001
00000100
00001000
00000100
00000001
00000010
00001000
00000010
,  // measure 13
00000001
00000100
00001000
00020000
00000000
01030000
20000000
00000000
,  // measure 14
30010000
01000000
00100000
00100000
10000000
10000000
01000000
10000000
,  // measure 15
00100000
01000000
00010000
00100000
01000000
00100000
00020000
00000000
,  // measure 16
10030000
01000000
00010000
01000000
10000000
00100000
00010000
00100000
,  // measure 17
10000000
01000000
00010000
00002000
00000000
00003100
00000002
00000000
,  // measure 18
00001003
00000100
00000010
00000001
00000100
00000100
00000010
00000010
,  // measure 19
00001000
00001100
00000100
00000010
00000001
00000101
00000100
00000010
,  // measure 20
00002000
00000000
00003100
00000010
00000100
00000010
00000001
00000100
,  // measure 21
00000020
00000000
00000000
00000030
00001000
00000000
00000100
00000000
00010000
00000000
00000100
00000000
00002000
00000000
00000000
00000000
,  // measure 22
00003020
00000000
00000000
00000000
00000130
00000000
00000001
00000000
00000010
00000000
00000100
00000000
00001000
00000000
00000100
00010000
,  // measure 23
00000200
00000000
00020300
00000000
00031000
00100000
00020000
00000000
,  // measure 24
01030000
00010000
01000000
00010000
10000000
01000000
10000000
01000000
,  // measure 25
00200000
00000000
00310000
00100000
01000000
10000000
00010000
00000000
,  // measure 26
10000000
11000000
01000000
00100000
01100000
00100000
00010000
00110000
,  // measure 27
00010000
10000000
00100000
01000000
00010000
00100000
00002000
00000000
,  // measure 28
00023000
00000000
00030100
00001000
00000100
00010000
00000100
00100000
,  // measure 29
00002000
00000000
00000000
00000000
00023000
00000000
00000000
00000000
00031000
00000000
00100000
00000000
00010000
00000000
00100000
00001000
,  // measure 30
00200000
00000000
00301000
00010000
00000100
00010000
00001000
00000100
,  // measure 31
00002000
00000000
00000000
00000000
00023000
00000000
00000000
00000000
00031000
00000000
00100000
00000000
00001000
00000000
00010000
00001000
,  // measure 32
00020000
00000000
00031000
00010000
00100000
00010000
00001000
00100000
,  // measure 33
00020000
00000000
00000000
00000000
00230000
00000000
00000000
00000000
00301000
00000000
00010000
00000000
00001000
00000000
00100000
00001000
,  // measure 34
00200000
00000000
00301000
00010000
00000100
00100000
00001000
00010000
,  // measure 35
00000100
00001100
00010000
00000100
00100000
00101000
00001000
00010000
,  // measure 36
00200000
00000000
00000000
00000000
20300000
00000000
00000000
00000000
32000000
00000000
00000000
00000000
13000000
00010000
10000000
00000000
,  // measure 37
00100000
00000000
00000000
00000000
10000000
00010000
10000000
00000000
01000000
00000000
00000000
00000000
10000000
00010000
10000000
00000000
,  // measure 38
00200000
00000000
00000000
00300000
02000000
00000000
00000000
00000000
03020000
00000000
00000000
00000000
00130000
00000000
00002000
00000000
,  // measure 39
00000000
00010000
00010000
00013000
00001000
00010000
00000200
00000000
,  // measure 40
00001300
00000001
00001000
00000000
00000010
00000000
00000100
00000000
00000001
00000000
00000010
00000000
00000100
00000000
00001000
00000000
,  // measure 41
00000010
00000100
00000010
00000000
00001000
00000000
00000100
00000000
00000010
00000001
00000010
00000000
00000100
00000000
00001000
00000000
,  // measure 42
00000001
00001000
00000001
00000000
00000100
00000000
00001000
00000000
00010000
00000000
01000000
00000000
10000000
00000000
00010000
00000000
,  // measure 43
10000000
01000000
10000000
00000000
00100000
00000000
01000000
00000000
00010000
00100000
00010000
00000000
10000000
00000000
00010000
00000000
,  // measure 44
01000000
00100000
01000000
00000000
00010000
00000000
00100000
00000000
10000000
00000000
00100000
00000000
00010000
00000000
01000000
00000000
,  // measure 45
00001000
00100000
00001000
00000000
01000000
00000000
00010000
00000000
10000000
01000000
10000000
00000000
00010000
00000000
01000000
00000000
,  // measure 46
00010000
00100000
00010000
00000000
00100000
00001000
00100000
00000000
00001000
00010000
00001000
00000000
00010000
00000100
00010000
00000000
,  // measure 47
00000200
00000000
00000000
00000000
00000320
00000000
00000000
00000000
00000031
00000000
00000010
00000000
00000100
00000000
00001000
00000100
,  // measure 48
00020000
00000000
00031000
00100000
00001000
00010000
00100000
00010000
,  // measure 49
00001000
00000000
00100000
00000000
00010000
00000000
00100000
00000000
00001000
00000000
00010000
00000000
00010000
00000000
00100000
00010000
,  // measure 50
00001000
00100000
00010000
00100000
00001000
00010000
00000100
00010000
,  // measure 51
00001000
00000000
00000100
00000000
00001000
00000000
00010000
00000000
00000100
00000000
00010000
00000000
00001000
00000000
00100000
00010000
,  // measure 52
00100000
00001000
00010000
00100000
00010000
00001000
00100000
00001000
,  // measure 53
00010000
00000000
00000100
00000000
00000100
00000000
00010000
00000000
00000100
00000000
00010000
00000000
00001000
00000000
00010000
00000100
,  // measure 54
00001000
00000100
00010000
00001000
00100000
00100000
00001000
00010000
,  // measure 55
00000100
00001100
00000100
00010000
00001000
00101000
00100000
00001000
,  // measure 56
00010000
00010000
00101000
00001000
00010000
00000200
00000000
00000320
,  // measure 57
00000000
00000000
00000031
00000000
00000010
00000000
00000100
00000000
00001000
00000000
00000001
00000000
00000100
00000000
00001000
00000100
,  // measure 58
00002000
00000000
00003100
00000001
00001000
00000100
00010000
00001000
,  // measure 59
00100000
00000000
00010000
00000000
01000000
00000000
00100000
00000000
10000000
00000000
10000000
00000000
00010000
00000000
00100000
01000000
,  // measure 60
00200000
00000000
00310000
00100000
01000000
10000000
00010000
01000000
,  // measure 61
00200000
00000000
00000000
00000000
10000000
00000000
00000000
00000000
01300000
00000000
00100000
00000000
10000000
00000000
01000000
00100000
,  // measure 62
02000000
00000000
03100000
00010000
01000000
00010000
10000000
01000000
,  // measure 63
00100000
00000000
00001000
00100000
00001000
00000000
00010000
00000000
00001000
00000000
00100000
00010000
00100000
00000000
00001000
00000000
,  // measure 64
00020000
00000000
00000000
00000000
00030200
00000000
00000000
00000000
00000320
00000000
00000000
00000000
00000031
00000100
00001000
00000000
,  // measure 65
00000000
00000000
00000000
00000000
00001000
00000100
00000001
00000000
00000000
00000000
00000000
00000000
00000001
00000100
00001000
00000000
,  // measure 66
00020000
00000000
00000000
00000000
02030000
00000000
00000000
03000000
10000000
00000000
01000000
00000000
00100000
00000000
20020000
00000000
,  // measure 67
00000000
00000000
00000000
00000000
,  // measure 68
30030000
00000000
00000000
00000000
;

//---------------dance-single - ----------------
#NOTEDATA:;
#CHARTNAME:;
#STEPSTYPE:dance-single;
#DESCRIPTION:;
#CHARTSTYLE:;
#DIFFICULTY:Medium;
#METER:6;
#RADARVALUES:0.381478,0.428938,0.196246,0.497624,0.000000,282.000000,28.000000,71.000000,0.000000,0.000000,0.000000,0.000000,0.000000,0.381478,0.428938,0.196246,0.497624,0.000000,282.000000,28.000000,71.000000,0.000000,0.000000,0.000000,0.000000,0.000000;
#CREDIT:Ben Speirs;
#NOTES:
0000
0000
0000
0000
,
0000
0000
0000
0000
,
0000
0000
0000
0000
,
0000
0000
0000
0000
0000
1000
1000
0001
,
0002
2003
3020
0100
,
0000
0100
0000
0100
,
2030
3200
0320
0001
,
0000
0001
0000
0031
,
1001
1100
1002
0100
,
0000
0100
0000
0103
,
1001
0000
1100
0000
1001
0000
1000
0200
,
0000
0010
0310
0000
0001
0010
0100
0000
,
2100
0000
3001
0000
1000
0010
1000
0000
,
0001
0010
0001
0000
2000
0000
3000
0000
,
1001
0000
1000
0000
0001
0100
0001
0000
,
1000
0100
1000
0000
0001
0000
0000
0000
,
1100
0000
0100
0000
0010
0001
0010
0000
,
0001
0100
0001
0000
1000
0000
0000
0000
,
0101
0000
0100
0000
0010
1000
0010
0000
,
1000
0100
1000
0000
0001
0000
0000
0000
,
2000
0000
3200
0000
1300
0002
0000
0000
,
2003
0000
3200
0000
1300
0001
0200
0000
,
0302
0000
2003
0000
3001
0200
0000
0000
,
0302
0000
2003
0000
3001
0100
0010
0000
,
1010
1100
0001
1000
,
1002
0000
0203
0000
0310
1000
0010
0000
,
1000
0100
0100
0000
0010
0000
0001
0100
,
0100
0010
1010
1001
,
0200
0000
0301
0010
0001
0200
0000
0020
,
0000
0000
0330
0000
0100
0001
1000
0000
,
0020
0000
1030
0100
1000
0020
0000
0200
,
0000
0000
0330
0000
0010
1000
0100
0000
,
2000
0000
3001
0010
0100
0020
0000
0002
,
0000
0000
0033
0000
0001
0010
0100
0000
,
2000
0000
3100
0010
0100
2000
0000
0020
,
0000
0000
3030
0000
0010
1000
0001
0000
,
1100
0110
0011
0200
,
0300
0200
0300
0200
,
0301
0000
0010
0000
0001
0000
1000
0200
,
0000
0000
0310
0000
0001
0010
0100
0000
,
2000
3200
2300
3200
,
0310
0001
0010
0001
1000
0010
1000
0010
,
0200
0302
0203
0302
,
1003
0010
1000
0010
0100
0001
0100
0001
,
2000
3200
0320
0032
,
0103
0010
0100
0000
0001
0100
0001
0000
,
2000
3002
0023
0230
,
2300
0000
0000
0000
3001
0010
0100
0000
,
1100
0000
1001
0000
1000
0000
0010
0100
,
0002
0000
0003
0000
0100
0010
1000
0000
,
0001
0000
1001
0000
1000
0000
0010
1000
,
0002
0000
0003
0000
1000
0100
0010
0000
,
1100
0000
0001
0010
0100
2000
0000
0002
,
0000
0000
3003
0000
1000
0100
1000
0000
,
0001
0000
1000
0010
0100
0002
0000
2000
,
0000
3003
1010
1001
,
0100
0100
1001
0000
0000
0000
0001
0000
,
0100
0010
0100
0000
0001
0100
0010
0000
,
1000
0000
0000
0000
0010
1000
0100
0000
,
2000
0000
3000
0000
0001
0010
0100
1000
,
0002
0000
0103
0000
0010
1000
0010
0000
,
0200
0000
0300
0000
0001
1000
0001
0000
,
2000
3100
0020
0031
,
1000
0100
0100
0000
0010
0001
0001
0000
,
1100
0110
0011
0200
,
0300
0200
0300
0200
,
0301
0000
0010
0000
0001
0010
0100
2000
,
0000
0000
0000
0000
,
3000
0000
0000
0000
;

//---------------dance-single - ----------------
#NOTEDATA:;
#CHARTNAME:;
#STEPSTYPE:dance-single;
#DESCRIPTION:;
#CHARTSTYLE:;
#DIFFICULTY:Easy;
#METER:3;
#RADARVALUES:0.205257,0.285959,0.105132,0.301378,0.000000,147.000000,15.000000,43.000000,0.000000,0.000000,0.000000,0.000000,0.000000,0.205257,0.285959,0.105132,0.301378,0.000000,147.000000,15.000000,43.000000,0.000000,0.000000,0.000000,0.000000,0.000000;
#CREDIT:Ben Speirs;
#NOTES:
0000
0000
0000
0000
,
0000
0000
0000
0000
,
0000
0000
0000
0000
,
0000
0000
0000
0000
,
1000
0100
0010
0000
,
0001
0000
1000
0000
,
0001
0100
0010
0000
,
1000
0000
0001
0000
,
1000
0001
0100
0000
,
0010
0000
0010
0000
,
1000
0001
0010
0000
,
0100
0000
0000
0000
,
1001
0000
1000
0000
,
0010
1000
0001
0000
,
1000
0000
0001
0000
,
0100
0001
1000
0000
,
0010
0000
1000
0000
,
0001
0010
0100
0000
,
1000
0000
0001
0000
,
1000
0010
0100
0000
,
0001
0001
0200
0300
,
0010
0010
2000
3000
,
0100
0100
1000
1000
,
0002
0003
2000
3000
,
0010
0010
0200
0300
,
0001
0001
0020
0030
,
0001
0000
1000
0000
,
0010
0000
0100
0100
,
2002
0000
0000
3003
,
1000
0000
0001
0001
,
2002
0000
0000
3003
,
1000
0000
0010
0010
,
2002
0000
0000
3003
,
0001
0000
0100
0100
,
2002
0000
0000
3003
,
1000
0000
0010
0000
,
1000
0100
0010
0000
,
0001
0000
1000
0000
,
0001
0100
0010
0000
,
2002
0000
0000
3003
,
1000
1000
0100
0100
,
2000
3000
0002
0003
,
0001
0001
0100
0100
,
0002
0003
2000
3000
,
0010
0010
1000
1000
,
0020
0030
0200
0300
,
0002
0003
2000
3000
,
0200
0000
0000
0300
,
2002
0000
0000
3003
,
0001
0000
1000
1000
,
2002
0000
0000
3003
,
0001
0000
0010
0010
,
2002
0000
0000
3003
,
1000
0000
0100
0100
,
2002
0000
0000
3003
,
1000
0000
0010
0000
,
0100
0220
0000
0330
,
0100
0000
0010
0010
,
0220
0000
0000
0330
,
0100
0000
0001
0001
,
0220
0000
0000
0330
,
0010
0000
1000
1000
,
0220
0000
0000
0330
,
0100
0000
0001
0000
,
1000
0100
0010
0000
,
0001
0000
1000
0000
,
0001
0100
0010
0000
,
2002
0000
0000
0000
,
3003
0000
0000
0000
;

//---------------dance-single - ----------------
#NOTEDATA:;
#CHARTNAME:;
#STEPSTYPE:dance-single;
#DESCRIPTION:;
#CHARTSTYLE:;
#DIFFICULTY:Beginner;
#METER:2;
#RADARVALUES:0.110138,0.140877,0.035044,0.000000,0.000000,105.000000,5.000000,0.000000,0.000000,0.000000,0.000000,0.000000,0.000000,0.110138,0.140877,0.035044,0.000000,0.000000,105.000000,5.000000,0.000000,0.000000,0.000000,0.000000,0.000000,0.000000;
#CREDIT:Ben Speirs;
#NOTES:
0000
0000
0000
0000
,
0000
0000
0000
0000
,
0000
0000
0000
0000
,
0000
0000
0000
0000
,
1000
1000
1000
0000
,
0000
0000
0000
0000
,
0001
0001
0001
0000
,
0000
0000
0000
0000
,
0100
0100
0100
0000
,
0000
0000
0000
0000
,
0010
0010
0010
0000
,
0010
0000
0000
0000
,
1001
0000
0000
0000
,
1000
0000
0001
0000
,
0100
0000
0000
0000
,
0001
0000
1000
0000
,
0010
0000
0000
0000
,
1000
0000
0100
0000
,
0100
0000
0000
0000
,
1000
0000
0000
0000
,
0001
0001
0000
0000
,
1000
0000
0000
0000
,
0010
0010
0000
0000
,
1000
0000
0001
0000
,
0100
0100
0000
0000
,
0001
0000
0000
0000
,
1000
0000
0000
0000
,
0001
0000
0100
0100
,
0100
0000
0000
0000
,
0010
0000
1000
1000
,
1000
0000
0000
0000
,
0001
0000
0100
0100
,
0100
0000
0000
0000
,
0001
0000
1000
1000
,
1000
0000
0000
0000
,
0100
0000
0000
0000
,
0010
0010
0010
0000
,
0000
0000
0000
0000
,
0001
0001
0001
0000
,
0001
0000
0000
0000
,
1001
0000
0000
0000
,
1000
0000
1000
0000
,
0010
0000
0000
0000
,
0100
0000
0100
0000
,
0001
0000
0000
0000
,
1000
0000
1000
0000
,
0001
0000
0001
0000
,
0100
0000
0000
0000
,
1001
0000
0000
0000
,
1000
0000
0010
0010
,
0010
0000
0000
0000
,
0100
0000
0001
0001
,
0001
0000
0000
0000
,
1000
0000
0100
0100
,
0100
0000
0000
0000
,
0010
0000
0000
0000
,
0000
1001
0000
0000
,
0000
0000
1000
1000
,
1000
0000
0000
0000
,
0010
0000
0100
0100
,
0100
0000
0000
0000
,
0001
0000
0010
0010
,
0010
0000
0000
0000
,
0001
0000
0000
0000
,
1000
1000
1000
0000
,
0000
0000
0000
0000
,
0001
0001
0001
0000
,
1001
0000
0000
0000
;
