#TITLE:Castle on the Hill;
#SUBTITLE:;
#ARTIST:Ed Sheeran;
#TITLETRANSLIT:;
#SUBTITLETRANSLIT:;
#ARTISTTRANSLIT:;
#GENRE:Pop-Rock;
#CREDIT:;
#BANNER:Castle on the Hill.png;
#BACKGROUND:Castle on the Hill-bg.png;
#LYRICSPATH:;
#CDTITLE:;
#MUSIC:Castle on the Hill.ogg;
#OFFSET:0.000000;
#SAMPLESTART:53.354179;
#SAMPLELENGTH:13.714000;
#SELECTABLE:YES;
#BPMS:0.000000=135.000000
,264.000000=67.500000
,280.000000=135.000000
;
#STOPS:
;
#BGCHANGES:4.000=Castle On The Hill.avi=1.000=0=0=1=====,
99999=-nosongbg-=1.000=0=0=0 // don't automatically add -songbackground-
;
#KEYSOUNDS:;
#ATTACKS:;

//---------------dance-single - ----------------
#NOTES:
     dance-single:
     :
     Hard:
     8:
     0.444121,0.524871,0.121124,0.127853,0.057197,425.000000,18.000000,19.000000,0.000000,0.000000,0.000000,0.444121,0.524871,0.121124,0.127853,0.057197,425.000000,18.000000,19.000000,0.000000,0.000000,0.000000:
0000
0000
0000
0000
,
0000
0000
0000
0000
,
0000
0000
0000
0000
,
0000
0000
0000
0000
,
0001
0000
0100
0001
1000
1000
0100
1000
,
0010
0000
0100
0000
0010
1000
0001
0000
,
0010
0000
0010
0000
0001
0010
0100
1000
,
0010
0000
0010
0000
1000
0001
0000
0100
,
0010
0000
1000
0000
0100
1000
0010
0000
,
0100
0001
0010
0000
0001
0010
0100
1000
,
0001
0000
0001
0000
0100
0000
0010
1000
,
0100
0000
0100
0000
1000
0010
0000
0010
,
0100
0000
0001
1000
0000
1000
0001
0100
,
0000
0010
0100
0001
0000
0100
0001
1000
,
0200
0000
0010
0000
1300
0100
1000
0000
,
1010
0000
0101
0000
1000
0001
1000
0010
,
0100
0000
0001
0100
1000
0100
0001
1000
,
0100
0000
0010
0000
0010
0001
1000
0000
,
0001
1000
0000
0010
0100
0001
0000
1000
,
0100
0000
1000
0000
0010
1000
0001
0000
,
0201
0000
0310
0100
0000
0001
0100
0001
,
1000
0000
0010
1000
0000
1000
0100
1000
,
0001
0000
0010
0001
0000
0001
1000
0001
,
0100
0000
0010
1000
0000
1000
0001
1000
,
0100
0000
0010
0000
0001
0010
0100
1000
,
0020
0000
1030
0100
2000
0000
3001
0100
,
0002
0000
0103
0010
0100
0001
1000
0100
,
0010
0001
0010
1000
0010
0001
1000
0010
,
0100
0000
0001
1000
0000
1000
0010
0100
,
0001
0000
0100
0020
0000
1030
0001
0000
,
0101
0100
0010
0100
0001
0101
0000
1100
,
0001
0000
1000
0000
0010
1000
0100
0000
,
1000
0010
0100
0001
0010
0100
1000
1000
,
0100
1000
0010
0100
0001
1000
0001
0001
,
0010
0000
0001
0100
0010
1000
0001
1000
,
0002
0000
0103
0000
0010
0100
0001
0000
,
0201
0000
0310
1000
0100
1000
0001
0010
,
0200
0000
0310
0001
1000
0010
0100
0001
,
2001
0000
3010
1000
0000
0001
0020
0000
,
0031
0100
0010
1000
0001
1000
0001
0000
,
0100
0000
0010
1000
0100
1000
0100
0000
,
1000
0000
0010
0100
0001
0100
0001
0000
,
2000
0000
3010
0200
0000
0301
1000
0100
,
1000
0001
0100
0010
1000
0000
0001
0100
,
0010
1000
0010
0001
0010
0100
0001
1000
,
0100
0010
0100
0001
0100
1000
0010
0100
,
0002
0000
0003
0000
,
2000
0000
3000
0000
,
0020
0000
0030
0000
,
0200
0000
0300
0000
,
0001
0001
0100
0001
,
1000
0000
1000
0000
0010
1000
0001
0000
,
1000
1000
0100
1000
,
0001
0000
0001
0000
0010
0001
1000
0000
,
0001
0100
0010
0010
,
1000
0000
0010
1000
0010
1000
0100
0000
,
1000
0000
0001
1000
,
0010
1000
0001
0000
0010
0001
0100
0000
,
0201
0000
0000
0000
0310
0100
0010
0000
,
0100
0001
0100
0000
0001
1000
0001
0000
,
1000
0000
0100
0000
1000
0010
1000
0000
,
0001
1000
0001
0000
0010
0001
0010
0000
,
0011
0000
0001
0000
1000
0100
1000
0000
,
0010
0100
0001
0000
0100
0010
1000
0000
,
0001
0000
1000
0000
0001
0010
0100
1000
,
0010
0000
1000
0100
0010
0001
1000
0000
,
1100
0000
0000
0000
0000
0001
0000
0100
0000
0000
0000
0000
0000
0001
0000
0000
,
1000
0000
0000
0010
0000
0100
0000
0000
0001
0000
0000
0100
0000
0010
0000
1000
,
0100
0000
0000
1000
0000
0001
0000
0010
0000
0000
0000
0000
0000
0000
0001
0000
,
0100
0000
0000
0010
0000
0010
0000
0000
1000
0100
0010
0001
1000
0100
0010
0001
,
1100
0000
0010
1000
0100
1000
0010
0100
,
0001
0000
0100
0010
1000
0010
0110
0000
,
0001
0000
1000
0001
0100
0001
1001
0000
,
0010
0000
1000
0100
0010
0100
1100
0000
,
0002
0000
0013
0001
1000
0010
0100
0001
,
1000
1000
0010
1000
0001
0000
0100
0000
,
1001
1000
0010
0100
0001
1000
0100
0000
,
0011
0010
0100
1000
0010
0100
0100
0000
,
1001
0000
0000
0000
;

//---------------dance-double - ----------------
#NOTES:
     dance-double:
     :
     Challenge:
     8:
     0.442199,0.551114,0.154770,0.161499,0.057197,413.000000,23.000000,24.000000,0.000000,0.000000,0.000000,0.442199,0.551114,0.154770,0.161499,0.057197,413.000000,23.000000,24.000000,0.000000,0.000000,0.000000:
00000000
00000000
00000000
00000000
,
00000000
00000000
00000000
00000000
,
00000000
00000000
00000000
00000000
,
00000000
00000000
00000000
00000000
,
10000000
00000000
00100000
00000000
01000000
00010000
01000000
00000000
,
00100000
00000000
10000000
00000000
01000000
10000000
01000000
00000000
,
10000000
00000000
00010000
00000000
00100000
00001000
00000000
00001000
,
00010000
00000000
00000100
00000000
00001000
00000010
00000100
00000000
,
00000001
00000000
00000001
00000000
00000100
00000010
00001000
00000000
,
00000010
00001000
00000100
00000000
00001000
00000100
00000010
00000001
,
00001000
00000000
00001000
00000000
00000010
00001000
00000000
00000100
,
00010000
00000000
00001000
00000000
00010000
00001000
01000000
00000000
,
01010000
00000000
00010000
00000000
10000000
01000000
10000000
00000000
,
00100000
01000000
00010000
00000000
01000000
00100000
10000000
00000000
,
00020000
00000000
00030000
00000000
10000000
00100000
01000000
00010000
,
00100000
00100000
00100000
00000000
00010000
00100000
00001000
00010000
,
00000100
00000000
00001000
00000000
00000010
00001000
00000100
00000010
,
00000001
00000000
00001000
00000000
00000010
00000100
00000001
00000000
,
00000100
00000010
00000000
00001000
00000100
00001000
00000000
00000100
,
00010000
00000000
00001000
00000000
00010000
00001000
00100000
00000000
,
00101000
00000000
00010000
00000000
00001000
00010000
00000100
00000010
,
00000001
00000000
00000100
00000000
00000010
00000100
00000001
00001000
,
00000100
00000000
00010000
00000000
00000100
00010000
00001000
00100000
,
00001000
00000000
00010000
00010000
00001000
00100000
00010000
01000000
,
00100000
00000000
01000000
00000000
00100000
01000000
00010000
10000000
,
00200000
00000000
10300000
01000000
20000000
00000000
30010000
00100000
,
00020000
00000000
10030000
00100000
01000000
00010000
10000000
00000000
,
00010000
00000000
00100000
00000000
00001000
00100000
00010000
00000000
,
00110000
00000000
10000000
00000000
00100000
10000000
01000000
00100000
,
00020000
00030000
00000000
00000000
,
01010000
00000000
01000000
00100000
01000000
00010000
00100000
00001000
,
00021000
00000000
00030100
00000000
00010000
00000100
00001000
00000000
,
00000010
00000010
00000100
00000001
00000010
00000100
00001000
00000010
,
00000100
00000100
00001000
00000100
00000001
00001000
00000100
00010000
,
00001000
00000000
00000000
00011000
00000000
00101000
00000000
00110000
,
00010000
00000000
10000000
00000000
00100000
10000000
00010000
00000000
,
10000000
10000000
01000000
20000000
00000000
30100000
01000000
00020000
,
00000000
00000000
01030000
00100000
01000000
00010000
00100000
00001000
,
00020000
00000000
00030100
00001000
00000010
00000100
00000001
00001000
,
00000100
00000010
00000001
00001000
00000100
00010000
00001000
00000000
,
00021000
00000000
00030100
00010000
00001000
00010000
00001000
00000000
,
00012000
00000000
00103000
00001000
00100000
00001000
00010000
00000000
,
00001000
00010000
00100000
10000000
02000000
00000000
13000000
00100000
,
02000000
00000000
03010000
00100000
00002000
00000000
00013000
00000000
,
00001000
00010000
00100000
10000000
01000000
00100000
00010000
00010000
,
00100000
00001000
00010000
00000100
00000010
00000001
00001000
00000010
,
00000200
00000000
00000300
00000000
,
00000020
00000000
00000030
00000000
,
00002000
00003000
00000100
00000000
,
00020000
00030000
00000000
00000000
,
00022000
00033000
00001000
00100000
,
00001000
00000000
00001000
00000000
00100000
00010000
00100000
00000000
,
00001000
00100000
00001000
00001000
,
00010000
00000000
00000100
00000000
00010000
00000100
00010000
00000000
,
00001100
00010000
00011000
00101000
,
00110000
00000000
10000000
00010000
10000000
00010000
01000000
00000000
,
00100000
00000000
00000000
10000000
,
00100000
01000000
00010000
00000000
01000000
00010000
00100000
00000000
,
00210000
00000000
00301000
00000000
00010000
00001000
00010000
00000000
,
00000100
00001000
00000100
00000000
00000010
00000100
00000010
00000000
,
00000001
00000000
00000100
00000000
00000001
00000100
00000001
00000000
,
00000100
00000010
00000100
00000000
00000010
00001000
00000010
00000000
,
00001100
00000000
00010000
00000000
00001000
00010000
00100000
00000000
,
00010000
00100000
10000000
00000000
00100000
10000000
01000000
00000000
,
10000000
00000000
01000000
00100000
00010000
00100000
01000000
00000000
,
10000000
00000000
00100000
01000000
00010000
01000000
00100000
00000000
,
10010000
00000000
00000000
00000000
00000000
10000000
00000000
00100000
00000000
00000000
00000000
00000000
00000000
01000000
00000000
00000000
,
00010000
00000000
00000000
00100000
00000000
00100000
00000000
00000000
00001000
00000000
00000000
00010000
00000000
00010000
00000000
00000100
,
00001000
00000000
00000000
00000010
00000000
00000100
00000000
00000001
00000000
00000000
00000000
00000000
00000000
00000000
00000100
00000000
,
00000010
00000000
00000000
00001000
00000000
00000001
00000000
00000000
00001000
00000100
00010000
00001000
00100000
00010000
10000000
00100000
,
10100000
00000000
00010000
10000000
00100000
01000000
00010000
00100000
,
00002000
00000000
00013000
00100000
00010000
00001000
00010000
00000000
,
00010200
00000000
00001300
00000010
00000100
00000001
00001000
00000000
,
00001200
00000000
00000310
00000001
00000100
00000010
00001000
00000000
,
00000101
00000000
00000100
00000010
00001000
00000100
00000010
00000001
,
00001000
00000100
00010000
00001000
00010000
00000000
00001000
00000100
,
00000001
00000000
00000100
00001000
00010000
00100000
10000000
10000000
,
01000000
10000000
00100000
01000000
00010000
00100000
00001000
00010000
,
00011000
00000000
00000000
00000000
;

//---------------dance-single - ----------------
#NOTES:
     dance-single:
     :
     Medium:
     5:
     0.279739,0.341166,0.060562,0.114395,0.000000,265.000000,9.000000,17.000000,0.000000,0.000000,0.000000,0.279739,0.341166,0.060562,0.114395,0.000000,265.000000,9.000000,17.000000,0.000000,0.000000,0.000000:
0000
0000
0000
0000
,
0000
0000
0000
0000
,
0000
0000
0000
0000
,
0000
0000
0000
0000
,
1000
0010
0100
0100
,
0010
0000
0000
0000
1000
0001
1000
0000
,
0001
0000
1000
0100
,
0010
0000
0001
1000
,
0001
0000
0100
0100
,
0001
0000
0010
0000
0001
0000
1000
0001
,
1000
0000
0001
1000
,
0010
0000
0100
0100
,
0010
0000
1000
0100
,
1000
0010
0100
0001
,
0020
0030
0001
1000
,
0010
0010
0010
0000
1000
0000
0000
0000
,
0010
0000
1000
0000
0001
0000
0100
0100
,
0100
0000
0001
0000
,
1000
0001
0010
0001
,
1000
0000
0100
1000
,
1010
0000
0000
0000
0010
1000
0100
0000
,
1000
0000
0000
0000
0100
0010
0001
0000
,
0100
0000
0001
1000
,
0010
0010
0100
0001
,
1000
0000
0001
0100
,
0020
0030
1000
0001
,
1000
0100
0010
0010
,
0001
0000
0010
0000
0001
1000
0001
0000
,
1000
0000
0010
1000
,
2002
0000
3003
0000
,
1001
0000
0000
1000
0000
0001
0000
0100
,
0000
0000
0001
1000
,
0020
0030
0100
0001
,
2000
3000
0100
1000
,
0001
0000
0000
0100
0001
0100
0001
2000
,
0000
3000
0000
0000
0100
0000
1000
0000
,
0010
0010
0100
0001
,
1000
0000
0100
0000
0010
0001
0100
0000
,
0001
0000
1000
0010
0000
0010
0100
0000
,
0001
0000
1000
0000
0100
1000
0100
0000
,
1000
0000
0000
0001
0100
0001
0100
0000
,
0010
0000
0000
0100
0001
0100
0001
0000
,
1000
0000
0001
0000
0100
0000
0010
0100
,
0010
0000
1000
0001
1000
0000
0000
0000
,
2100
3000
0001
1000
,
0102
0000
0003
0000
1000
0001
1000
0000
,
0020
0030
0000
0000
,
0200
0300
0000
0000
,
0002
0003
0000
0000
,
2000
3000
0000
0000
,
1001
0000
1000
0001
,
0100
0000
0010
0100
,
0001
0000
0100
0001
,
1000
0000
0010
1000
,
0100
0000
1000
0001
,
0010
0000
0001
1000
,
0010
0000
0000
0000
,
0100
0100
0010
0010
,
2002
3003
1000
0001
,
0100
0100
0100
0000
0010
0010
0010
0000
,
1000
0000
0010
1000
,
0001
0001
0001
0000
1000
1000
1000
0000
,
0010
0000
1000
0001
,
0010
0001
0100
0010
,
1000
0000
0010
0100
,
0001
0000
0100
0001
,
2000
3000
0002
0003
,
0100
0100
0010
0010
,
1000
0000
0001
0000
,
0010
0000
0010
0000
0001
0001
1000
1000
,
1001
0000
1000
0001
,
0100
0000
0010
0000
1000
0100
1000
0000
,
0001
0000
0000
1000
0010
1000
0010
0000
,
0100
0000
0000
0010
1000
0010
1000
0000
,
0100
0000
1000
0000
0010
0000
0100
0001
,
0100
0000
0001
1000
0001
0000
0000
0000
,
1000
0000
0010
1000
0010
0000
1000
0000
,
0001
0000
0010
0001
0010
0000
0001
0000
,
1001
0000
0000
0000
;

//---------------dance-single - ----------------
#NOTES:
     dance-single:
     :
     Easy:
     3:
     0.189376,0.262435,0.047104,0.087478,0.000000,177.000000,7.000000,13.000000,0.000000,0.000000,0.000000,0.189376,0.262435,0.047104,0.087478,0.000000,177.000000,7.000000,13.000000,0.000000,0.000000,0.000000:
// measure 0
0000
0000
0000
0000
,  // measure 1
0000
0000
0000
0000
,  // measure 2
0000
0000
0000
0000
,  // measure 3
0000
0000
0000
0000
,  // measure 4
0001
0000
0100
0100
,  // measure 5
0010
0000
0010
0010
,  // measure 6
1000
0000
0001
0000
,  // measure 7
0010
0000
0010
0000
,  // measure 8
0001
0000
1000
1000
,  // measure 9
0100
0000
0100
0100
,  // measure 10
0010
0000
0001
0000
,  // measure 11
1000
0000
0010
0000
,  // measure 12
0010
0000
0100
0001
,  // measure 13
0100
0000
0001
1000
,  // measure 14
0200
0300
1000
0000
,  // measure 15
0010
0000
0010
0000
,  // measure 16
1000
0000
0010
0010
,  // measure 17
0100
0000
0001
0000
,  // measure 18
1000
1000
0001
0001
,  // measure 19
0010
0000
0001
0000
,  // measure 20
1001
0000
0000
1000
,  // measure 21
1000
0000
0000
0001
,  // measure 22
0001
0000
0100
0000
,  // measure 23
0010
0000
0010
0000
,  // measure 24
1000
0000
0001
0100
,  // measure 25
0001
0000
0100
0000
,  // measure 26
0100
0000
0010
0000
,  // measure 27
1000
1000
0100
0100
,  // measure 28
0010
0000
0001
0000
,  // measure 29
1001
0000
0000
0000
,  // measure 30
0110
0000
0100
0001
,  // measure 31
1000
0000
0010
1000
,  // measure 32
0200
0300
1000
1000
,  // measure 33
0002
0003
0100
0100
,  // measure 34
0010
0000
0100
0001
,  // measure 35
1000
0000
0000
0000
,  // measure 36
0001
1000
0010
0010
,  // measure 37
0200
0300
0200
0300
,  // measure 38
0001
0000
1000
0010
,  // measure 39
0010
0000
0100
0000
,  // measure 40
0000
0001
1000
0001
,  // measure 41
0000
1000
0001
1000
,  // measure 42
0010
0000
0100
0000
,  // measure 43
0001
0000
1000
0000
,  // measure 44
0001
0000
1000
1000
,  // measure 45
0010
0000
0100
0001
,  // measure 46
1000
0000
0000
0000
,  // measure 47
0001
0000
0000
0000
,  // measure 48
0010
0000
0000
0000
,  // measure 49
0010
0000
0000
0000
,  // measure 50
0002
0003
0000
0000
,  // measure 51
0010
0000
0001
0000
,  // measure 52
2000
3000
0000
0000
,  // measure 53
0010
0000
1000
0000
,  // measure 54
0200
0300
0000
0000
,  // measure 55
1000
0000
0001
0000
,  // measure 56
0200
0300
0000
0000
,  // measure 57
0010
0010
0010
0010
,  // measure 58
2002
3003
0000
0000
,  // measure 59
1000
0001
0010
0010
,  // measure 60
0001
0000
0000
0000
,  // measure 61
0100
0001
1000
1000
,  // measure 62
0010
0000
0010
0000
,  // measure 63
0100
0000
0100
0000
,  // measure 64
0001
0000
1000
0000
,  // measure 65
0010
1000
0001
0000
,  // measure 66
2002
3003
0000
0000
,  // measure 67
0001
0000
1000
0000
,  // measure 68
0010
0010
0010
0000
,  // measure 69
0100
0001
1000
0010
,  // measure 70
1001
0000
0000
1000
,  // measure 71
0010
0000
0000
1000
,  // measure 72
0100
0000
1000
0100
,  // measure 73
0010
0000
0001
1000
,  // measure 74
0010
0000
0100
0000
,  // measure 75
0001
0001
1000
0000
,  // measure 76
0001
1000
0010
0010
,  // measure 77
1000
0001
0010
0010
,  // measure 78
1001
0000
0000
0000
;

//---------------dance-single - ----------------
#NOTES:
     dance-single:
     :
     Beginner:
     1:
     0.102859,0.157461,0.033646,0.000000,0.000000,102.000000,5.000000,0.000000,0.000000,0.000000,0.000000,0.102859,0.157461,0.033646,0.000000,0.000000,102.000000,5.000000,0.000000,0.000000,0.000000,0.000000:
// measure 0
0000
0000
0000
0000
,  // measure 1
0000
0000
0000
0000
,  // measure 2
0000
0000
0000
0000
,  // measure 3
0000
0000
0000
0000
,  // measure 4
1000
0000
0000
0000
,  // measure 5
0001
0000
0000
0000
,  // measure 6
0100
0000
0100
0000
,  // measure 7
0100
0000
0000
0000
,  // measure 8
0001
0000
0000
0000
,  // measure 9
1000
0000
0000
0000
,  // measure 10
0010
0000
0010
0000
,  // measure 11
0010
0000
0000
0000
,  // measure 12
1000
0000
0000
0000
,  // measure 13
0001
0000
0000
0000
,  // measure 14
0100
0000
0100
0000
,  // measure 15
0100
0000
0000
0000
,  // measure 16
0001
0000
0001
0000
,  // measure 17
0001
0000
0000
0000
,  // measure 18
1000
0000
1000
0000
,  // measure 19
1000
0000
0000
0000
,  // measure 20
0010
0000
0000
0100
,  // measure 21
0100
0000
0000
0001
,  // measure 22
0001
0000
0000
1000
,  // measure 23
1000
0000
0000
0000
,  // measure 24
0010
0000
0010
0000
,  // measure 25
0010
0000
0000
0000
,  // measure 26
0100
0000
0000
0000
,  // measure 27
0001
0000
0000
0000
,  // measure 28
1000
0000
1000
0000
,  // measure 29
1000
0000
0000
0000
,  // measure 30
1001
0000
0000
0100
,  // measure 31
0100
0000
0000
0000
,  // measure 32
0001
0000
0001
0000
,  // measure 33
0001
0000
0000
0000
,  // measure 34
1000
0000
0000
0010
,  // measure 35
0010
0000
0000
0000
,  // measure 36
1000
0000
1000
0000
,  // measure 37
1000
0000
0000
0000
,  // measure 38
0001
0000
0000
0100
,  // measure 39
0100
0000
0000
0000
,  // measure 40
0000
0000
0010
0010
,  // measure 41
0000
0000
0010
0010
,  // measure 42
0000
0000
1000
0000
,  // measure 43
1000
0000
0000
0000
,  // measure 44
0001
0000
0001
0000
,  // measure 45
0001
0000
0000
0000
,  // measure 46
1001
0000
0000
0000
,  // measure 47
0000
0000
0000
0000
,  // measure 48
0000
0000
0000
0000
,  // measure 49
0000
0000
0000
0000
,  // measure 50
1000
0000
0000
0000
,  // measure 51
0100
0000
0100
0000
,  // measure 52
0000
0000
0000
0000
,  // measure 53
0010
0000
0010
0000
,  // measure 54
0000
0000
0000
0000
,  // measure 55
0001
0000
0001
0000
,  // measure 56
0000
0000
0000
0000
,  // measure 57
0100
0100
0100
0000
,  // measure 58
1001
0000
0000
0000
,  // measure 59
1000
1000
0000
0000
,  // measure 60
0010
0000
0000
0000
,  // measure 61
0100
0100
0000
0000
,  // measure 62
0001
0000
0000
0000
,  // measure 63
1000
1000
0000
0000
,  // measure 64
0100
0000
0100
0000
,  // measure 65
0100
0000
0000
0000
,  // measure 66
1000
0000
0000
0000
,  // measure 67
0001
0000
0001
0000
,  // measure 68
0001
0000
0000
0000
,  // measure 69
0100
0000
0100
0000
,  // measure 70
1001
0000
0000
0000
,  // measure 71
1000
0000
0000
0000
,  // measure 72
0000
0000
0010
0010
,  // measure 73
0000
0000
0010
0010
,  // measure 74
0010
0000
0000
0000
,  // measure 75
0100
0000
0000
0000
,  // measure 76
0001
0000
0001
0000
,  // measure 77
0001
0000
0001
0000
,  // measure 78
1001
0000
0000
0000
;
