#VERSION:0.82;
#TITLE:I Feel It Coming;
#SUBTITLE:;
#ARTIST:The Weeknd feat. Daft Punk;
#TITLETRANSLIT:;
#SUBTITLETRANSLIT:;
#ARTISTTRANSLIT:;
#GENRE:R'n'B;
#ORIGIN:;
#CREDIT:;
#BANNER:I Feel It Coming.png;
#BACKGROUND:I Feel It Coming-bg.png;
#PREVIEWVID:;
#JACKET:jacket.png;
#CDIMAGE:;
#DISCIMAGE:;
#LYRICSPATH:;
#CDTITLE:cdtitle.png;
#MUSIC:I Feel It Coming.ogg;
#OFFSET:-0.240000;
#SAMPLESTART:60.913265;
#SAMPLELENGTH:17.959999;
#SELECTABLE:YES;
#BPMS:0.000=93.000;
#STOPS:;
#DELAYS:;
#WARPS:;
#TIMESIGNATURES:0.000=4=4;
#TICKCOUNTS:0.000=4;
#COMBOS:0.000=1;
#SPEEDS:0.000=1.000=0.000=0;
#SCROLLS:0.000=1.000;
#FAKES:;
#LABELS:0.000=Song Start;
#BGCHANGES:4.000=I Feel It Coming.avi=1.000=0=0=1=====,
99999=-nosongbg-=1.000=0=0=0 // don't automatically add -songbackground-
;
#KEYSOUNDS:;
#ATTACKS:
;

//---------------dance-single - ----------------
#NOTEDATA:;
#CHARTNAME:;
#STEPSTYPE:dance-single;
#DESCRIPTION:;
#CHARTSTYLE:;
#DIFFICULTY:Hard;
#METER:8;
#RADARVALUES:0.431110,0.485930,0.171464,0.212616,0.390938,384.000000,25.000000,31.000000,0.000000,0.000000,0.000000,0.000000,0.000000,0.431110,0.485930,0.171464,0.212616,0.390938,384.000000,25.000000,31.000000,0.000000,0.000000,0.000000,0.000000,0.000000;
#CREDIT:Ben Speirs;
#NOTES:
0000
0000
0000
0000
,
0000
0000
0000
0000
,
0000
0000
0000
0000
,
0000
0000
0000
0000
,
2000
0000
3100
0000
1000
0001
1000
0000
,
0002
0000
0103
0000
0001
1000
0001
0000
,
1000
0010
0000
0100
0001
1000
0000
0001
,
0010
0000
0100
0000
0000
0000
0010
0000
0001
1000
0001
1000
0001
0000
0100
0001
,
2000
0000
0000
0000
3010
0000
0000
0000
1000
0100
1000
0100
1000
0000
0100
1000
,
0002
0000
0000
0000
0103
0000
0000
0000
0001
1000
0001
1000
0001
0000
1000
0001
,
0020
0000
0130
0000
0010
0001
0100
0010
,
1000
0000
0000
0000
0001
0000
0000
0000
0100
0001
0100
0001
0100
0000
0001
1000
,
0020
0000
0000
0000
0130
0000
0000
0000
0010
1000
0010
1000
0010
0000
1000
0001
,
0020
0000
0000
0000
0031
0000
0000
0000
1000
0100
1000
0100
1000
0000
0100
1000
,
0002
0000
0103
0000
0001
0100
0010
1000
,
0001
0000
0010
0000
0001
0010
0100
1000
,
1100
0100
1100
0000
1000
0010
0100
0001
,
1000
0000
0001
1000
0001
0000
0000
0000
1000
0000
0010
0000
0100
0000
0001
0000
,
0101
0100
0101
0000
0001
0100
0010
1000
,
0001
0000
1000
0100
1000
0000
0000
0000
0001
0000
0010
0000
0100
0000
1000
0000
,
1010
0010
1010
0000
1000
0001
0100
0010
,
1000
0000
0100
1000
0100
0000
0000
0000
1000
0000
0100
0000
0010
0000
0001
0000
,
0011
0000
0010
0000
0011
0000
0000
0000
0001
0000
1000
0000
0010
0000
0100
0010
,
0100
0000
0000
0010
0100
0000
0000
0010
0100
0010
0000
0100
0000
0001
1000
0000
,
0020
0000
0000
0000
1030
0000
0000
0000
0010
1000
0000
0001
0000
0010
0001
0000
,
0200
0000
0000
0000
0310
0000
0000
0000
0100
0001
0000
1000
0000
0010
1000
0000
,
0200
0000
0000
0000
0310
0000
0000
0000
0001
0010
0000
0001
0000
1000
0010
0000
,
0200
0000
0000
0000
0310
0000
0000
0000
0100
0001
0000
1000
0000
0010
1000
0000
,
2100
0000
0000
0000
3001
0000
0000
0000
1000
0010
0000
1000
0000
0001
0010
0000
,
0012
0000
0000
0000
0103
0000
0000
0000
0001
0100
0000
0010
0000
1000
0001
0000
,
2001
0000
0000
0000
3100
0000
0000
0000
1000
0010
0000
0100
0000
0001
1000
0000
,
1002
0000
0000
0000
0103
0000
0000
0000
0001
0100
0000
0010
0000
1000
0100
0000
,
0100
0000
1000
0000
0010
0000
0000
0000
0100
0010
0000
1000
0000
0100
0010
0000
,
0001
0000
0001
0000
0100
0000
0000
0000
0001
0100
0000
0010
0000
0010
1000
0000
,
0001
0000
0001
0000
0010
0000
0000
0000
0001
1000
0000
0010
0000
0100
0010
0000
,
0100
0010
0000
0100
0001
0000
0000
0000
0100
0010
0000
1000
0010
1000
0010
0000
,
1002
0000
0000
0000
0103
0000
0000
0000
0001
1000
0000
0001
0100
0001
0100
0000
,
2010
0000
0000
0000
3001
0000
0000
0000
1000
0100
0000
1000
0001
1000
0001
0000
,
0012
0000
0000
0000
0103
0000
0000
0000
0001
0010
0000
0001
0000
1000
0010
0000
,
0100
0001
0000
1000
0010
0000
0000
0000
0100
0000
0100
0000
0010
0000
0010
0000
,
2001
0000
3020
0000
0130
0001
0010
0100
,
2000
0000
3001
0000
1000
0100
0010
0001
,
0200
0010
0320
0000
0130
0001
0010
0001
,
1000
0100
1000
0000
0001
0001
1000
1000
,
0020
0000
0130
0000
0010
0100
0001
0010
,
0200
0000
0310
0000
0001
0010
0100
1000
,
0002
1000
2003
0000
3010
1000
0100
0010
,
0002
0000
0000
0000
0203
0000
0000
0000
0310
0100
0000
0001
0000
1000
0010
0000
,
1000
0100
0000
1100
0000
0100
1000
0000
0010
0100
0000
0110
0000
0100
0001
0000
,
1000
0001
0000
1001
0000
0001
0010
0000
0100
0010
0000
0110
0000
0010
0001
0000
,
0100
0001
0000
0101
0000
1000
0001
0000
0100
0010
0000
1000
0000
0100
0010
0000
,
0001
1000
0000
0010
0100
0000
0000
0000
0001
1000
0000
0001
0000
0100
0010
0000
,
1000
0100
0000
1100
0000
0100
1000
0000
0010
0100
0000
0110
0000
0100
0001
0000
,
1000
0010
0000
1010
0000
1000
0001
0000
0010
0001
0000
0011
0000
0001
0100
0000
,
0020
0000
0030
0000
;

//---------------dance-double - ----------------
#NOTEDATA:;
#CHARTNAME:;
#STEPSTYPE:dance-double;
#DESCRIPTION:;
#CHARTSTYLE:;
#DIFFICULTY:Challenge;
#METER:7;
#RADARVALUES:0.417393,0.485930,0.164606,0.171464,0.377221,377.000000,24.000000,25.000000,0.000000,0.000000,0.000000,0.000000,0.000000,0.417393,0.485930,0.164606,0.171464,0.377221,377.000000,24.000000,25.000000,0.000000,0.000000,0.000000,0.000000,0.000000;
#CREDIT:Ben Speirs;
#NOTES:
00000000
00000000
00000000
00000000
,
00000000
00000000
00000000
00000000
,
00000000
00000000
00000000
00000000
,
00000000
00000000
00000000
00000000
,
20000000
00000000
00000000
00000000
01000000
00000000
00000000
00000000
00010000
30000000
10000000
00000000
00010000
00000000
00000000
00000000
,
02000000
00000000
03100000
01000000
00010000
00000000
00100000
00000000
,
00010000
00100000
00001000
00010000
00000100
00001000
00000010
00000000
,
00000100
00000000
00000010
00000000
00001000
00000000
00000000
00000000
00000001
00001000
00000001
00001000
00000001
00000000
00001000
00000100
,
00000020
00000000
00000000
00000000
00000031
00000000
00000000
00000000
00001000
00000001
00001000
00000001
00001000
00000000
00000001
00000100
,
00000020
00000000
00000000
00000000
00001030
00000000
00000000
00000000
00000001
00001000
00000001
00001000
00000001
00000000
00001000
00000100
,
00000020
00000000
00000031
00000000
00000010
00000100
00001000
00010000
,
00100000
01000000
00100000
00000000
00010000
00000000
00000000
00000000
10000000
01000000
10000000
01000000
10000000
00000000
01000000
10000000
,
00020000
00000000
00000000
00000000
01030000
00000000
00000000
00000000
00010000
01000000
00010000
01000000
00010000
00000000
01000000
00010000
,
20000000
00000000
00000000
00000000
30100000
00000000
00000000
00000000
10000000
00100000
10000000
00100000
10000000
00000000
00100000
10000000
,
00020000
00000000
00130000
00000000
00010000
00100000
00001000
00010000
,
00001000
00000100
00000001
00000000
00000100
00000010
00001000
00000100
,
00001100
00000000
00001000
00000000
00001100
00000000
00000000
00000000
00000100
00000000
00001000
00000000
00000010
00000000
00000100
00000010
,
00000100
00000001
00001000
00000000
00000001
00000100
00000010
00001000
,
00001010
00000000
00000010
00000000
00001010
00000000
00000000
00000000
00001000
00000000
00000010
00000000
00001000
00000000
00000100
00001000
,
00000100
00010000
00001000
00000000
00010000
00001000
00100000
00010000
,
00110000
00000000
00100000
00000000
00110000
00000000
00000000
00000000
00010000
00000000
10000000
00000000
00100000
00000000
01000000
00100000
,
01000000
00100000
10000000
00000000
00100000
10000000
01000000
00100000
,
00110000
00000000
00010000
00000000
00110000
00000000
00000000
00000000
00100000
00000000
00010000
00000000
10000000
00000000
00100000
01000000
,
00100000
00000000
00000000
01000000
00100000
00000000
00000000
00000000
01000000
00100000
00000000
01000000
00000000
00100000
10000000
00000000
,
02000000
00000000
00000000
00000000
13000000
00000000
00000000
00000000
01000000
10000000
00000000
00100000
00000000
01000000
00010000
00000000
,
00200000
00000000
00000000
00000000
00310000
00000000
00000000
00000000
00100000
00010000
00000000
00100000
00000000
00001000
00010000
00000000
,
00000200
00000000
00000000
00000000
00001300
00000000
00000000
00000000
00000010
00001000
00000000
00000001
00000000
00000010
00000001
00000000
,
00000200
00000000
00000000
00000000
00000310
00000000
00000000
00000000
00000100
00000001
00000000
00000100
00000000
00000010
00001000
00000000
,
00000100
00000000
00000000
00000000
00001100
00000000
00000000
00000000
00000100
00001000
00000000
00000010
00000000
00000100
00000001
00000000
,
00001000
00000000
00000000
00000000
00001001
00000000
00000000
00000000
00000001
00000100
00000000
00000010
00000000
00001000
00000100
00000000
,
00010000
00000000
00000000
00000000
00010100
00000000
00000000
00000000
00010000
00001000
00000000
00100000
00000000
00010000
01000000
00000000
,
00100000
00000000
00000000
00000000
01100000
00000000
00000000
00000000
00100000
10000000
00000000
01000000
00000000
01000000
10000000
00000000
,
00100000
00000000
00100000
00000000
01000000
00000000
00000000
00000000
00010000
10000000
00000000
00100000
00000000
00100000
01000000
00000000
,
00010000
00000000
00100000
00000000
00001000
00000000
00000000
00000000
00100000
00001000
00000000
00010000
00000000
00010000
00000100
00000000
,
00001000
00000000
00001000
00000000
00000010
00000000
00000000
00000000
00000100
00000010
00000000
00001000
00000000
00000001
00000010
00000000
,
00000100
00001000
00000000
00000001
00000100
00000000
00000000
00000000
00000010
00001000
00000000
00000001
00000000
00000010
00000100
00000000
,
00000120
00000000
00000000
00000000
00000031
00000000
00000000
00000000
00000010
00000001
00000000
00000100
00000000
00000100
00000010
00000000
,
00002010
00000000
00000000
00000000
00003100
00000000
00000000
00000000
00001000
00000001
00000000
00000100
00000000
00000100
00000010
00000000
,
00000120
00000000
00000000
00000000
00001030
00000000
00000000
00000000
00000010
00001000
00000000
00000100
00000000
00010000
00001000
00000000
,
00010000
00001000
00000000
00100000
00001000
00000000
00000000
00000000
00100000
00000000
00010000
00000000
01000000
00000000
00100000
00000000
,
20010000
00000000
32000000
00000000
13000000
00100000
01000000
00010000
,
00200000
00000000
00300000
00000000
00010000
00100000
00001000
00010000
,
00000020
00000000
00000130
00000000
00000010
00001000
00000100
00000010
,
00000002
00000000
00000103
00000000
00000001
00000100
00000010
00001000
,
00001200
00000000
00010300
00000000
00000100
00010000
00001000
00000000
,
00010000
00001000
00010000
00000000
00001000
00100000
00010000
01000000
,
02000000
00000000
03200000
00000000
10300000
00100000
01000000
00010000
,
10000000
00000000
00010000
00000000
10000000
00000000
00000000
00000000
00000000
00100000
00000000
00100000
00000000
01000000
00100000
00000000
,
10000000
01000000
00000000
11000000
00000000
01000000
10000000
00000000
00100000
01000000
00000000
01100000
00000000
01000000
00010000
00000000
,
00100000
00010000
00000000
00110000
00000000
00100000
00001000
00000000
00010000
00001000
00000000
00011000
00000000
00010000
00000100
00000000
,
00001000
00000010
00000000
00001010
00000000
00000100
00000010
00000000
00001000
00000100
00000000
00001100
00000000
00000100
00001000
00000000
,
00000001
00000100
00000000
00000001
00001000
00000000
00000000
00000000
00000001
00000100
00000000
00000010
00000000
00001000
00000100
00000000
,
00001000
00000001
00000000
00001001
00000000
00001000
00000010
00000000
00000200
00000000
00000000
00000000
00000310
00000000
00000000
00000000
,
00000100
00000001
00000000
00001000
00000000
00000100
00001000
00000000
00000100
00010000
00000000
00010000
00001000
00000000
00100000
00000000
,
00020000
00000000
00030000
00000000
;

//---------------dance-single - ----------------
#NOTEDATA:;
#CHARTNAME:;
#STEPSTYPE:dance-single;
#DESCRIPTION:;
#CHARTSTYLE:;
#DIFFICULTY:Medium;
#METER:4;
#RADARVALUES:0.281201,0.353474,0.068586,0.336070,0.000000,228.000000,10.000000,49.000000,0.000000,0.000000,0.000000,0.000000,0.000000,0.281201,0.353474,0.068586,0.336070,0.000000,228.000000,10.000000,49.000000,0.000000,0.000000,0.000000,0.000000,0.000000;
#CREDIT:Ben Speirs;
#NOTES:
0000
0000
0000
0000
,
0000
0000
0000
0000
,
0000
0000
0000
0000
,
0000
0000
0000
0000
,
0001
0100
0010
0010
,
2000
3000
0002
0003
,
1000
0100
0010
0010
,
0001
1000
0010
0010
,
2002
0000
3003
0000
1000
0100
1000
0000
,
0020
0000
0030
0000
0100
0001
0100
0000
,
0002
0003
1000
0001
,
0010
0000
0000
0000
0001
0100
0001
0000
,
0200
0000
0300
0000
0001
1000
0001
0000
,
2000
0000
3000
0000
0100
1000
0100
0000
,
0020
0030
0001
1000
,
0010
0000
0100
0000
0001
1000
0001
1000
,
0020
0230
0301
1000
,
0100
0000
0000
0000
1000
0100
1000
0100
,
0020
0031
1000
0010
,
0200
0000
0300
0000
0001
0100
0001
0100
,
0020
2030
3100
1000
,
0001
0000
0000
0000
1000
0010
1000
0010
,
0200
0000
0301
0000
1000
0100
1000
0000
,
0001
0001
0001
1001
,
2000
0000
3010
0000
1000
0001
0100
0000
,
0020
0000
0030
0000
0100
0001
1000
0000
,
0200
0000
1300
0000
0100
1000
0001
0000
,
0020
0000
0031
0000
0100
0001
1000
0010
,
0020
0000
0130
0000
0100
0010
1000
0000
,
0200
0000
1300
0000
1000
0100
0010
0001
,
0002
0000
0103
0000
0001
0100
0010
1000
,
2000
3001
1000
0010
,
0202
0000
0303
0000
0001
0100
0010
1000
,
0200
0000
0300
0000
1000
0100
0010
0010
,
0002
0000
0003
0000
1000
0001
1000
0010
,
0020
0000
0130
0000
0010
0100
0001
0000
,
2010
3200
1300
0001
,
0012
0000
0203
0000
0310
0100
0010
0000
,
2002
0000
3003
0000
0001
0010
0100
1000
,
1000
0000
0001
0000
1000
0001
0100
0000
,
0010
0020
0130
0001
,
1000
0000
0000
0000
0001
1000
0001
0000
,
2000
3100
0100
1000
,
0010
0000
0000
0000
0100
0100
0010
0010
,
2000
3002
0013
0001
,
0100
0000
0000
0000
0001
0001
1000
1000
,
0020
0230
0301
1000
,
0100
0100
0010
0110
,
2002
0000
3003
0000
0001
1000
0010
0100
,
0200
0000
0300
0000
0010
1000
0001
0010
,
0010
0001
1000
1100
,
0002
0000
0103
0000
0001
1000
0010
0000
,
2001
0000
3020
0000
0130
0001
1000
1000
,
0200
0000
0310
0000
0010
0001
1000
1000
,
0020
0030
0000
0000
;

//---------------dance-single - ----------------
#NOTEDATA:;
#CHARTNAME:;
#STEPSTYPE:dance-single;
#DESCRIPTION:;
#CHARTSTYLE:;
#DIFFICULTY:Easy;
#METER:2;
#RADARVALUES:0.149909,0.185181,0.013717,0.185181,0.000000,124.000000,2.000000,27.000000,0.000000,0.000000,0.000000,0.000000,0.000000,0.149909,0.185181,0.013717,0.185181,0.000000,124.000000,2.000000,27.000000,0.000000,0.000000,0.000000,0.000000,0.000000;
#CREDIT:Ben Speirs;
#NOTES:
// measure 0
0000
0000
0000
0000
,  // measure 1
0000
0000
0000
0000
,  // measure 2
0000
0000
0000
0000
,  // measure 3
0000
0000
0000
0000
,  // measure 4
0200
0300
0000
0010
,  // measure 5
0020
0030
0000
0000
,  // measure 6
2000
3000
0002
0003
,  // measure 7
0200
0300
0010
0010
,  // measure 8
2000
3000
0100
0100
,  // measure 9
0020
0030
0001
0001
,  // measure 10
2000
3000
0010
0000
,  // measure 11
0100
0000
0001
0001
,  // measure 12
0020
0030
0100
0100
,  // measure 13
2000
3000
0010
0010
,  // measure 14
0200
0300
0001
0000
,  // measure 15
1000
0000
0010
0010
,  // measure 16
0100
0100
0000
0000
,  // measure 17
0001
0000
1000
1000
,  // measure 18
0100
0100
0000
0000
,  // measure 19
1000
0000
0010
0010
,  // measure 20
0100
0100
0000
0000
,  // measure 21
0001
0000
0100
0100
,  // measure 22
0010
0010
0000
0000
,  // measure 23
1000
0000
0001
1001
,  // measure 24
2000
3000
0001
0010
,  // measure 25
0002
0003
1000
0010
,  // measure 26
2000
3000
0100
0100
,  // measure 27
0010
0010
0001
1000
,  // measure 28
0020
0030
1000
0100
,  // measure 29
2000
3000
0001
1000
,  // measure 30
0002
0003
1000
0001
,  // measure 31
0100
0100
0010
0010
,  // measure 32
2000
3000
0000
0010
,  // measure 33
0200
0300
0000
0001
,  // measure 34
0020
0030
0001
1000
,  // measure 35
0010
0010
1000
0001
,  // measure 36
2000
3000
0000
0100
,  // measure 37
0020
0030
0000
0001
,  // measure 38
0200
0300
0000
0010
,  // measure 39
0010
1000
0001
0000
,  // measure 40
0200
0000
0300
0000
,  // measure 41
0020
0000
0030
0000
,  // measure 42
1000
1000
0001
0001
,  // measure 43
0010
0000
0000
0000
,  // measure 44
0002
0000
0003
0000
,  // measure 45
2000
0000
3000
0000
,  // measure 46
0010
0010
0100
0100
,  // measure 47
0001
0000
0000
0000
,  // measure 48
0110
0000
0000
1000
,  // measure 49
0001
0000
0000
0001
,  // measure 50
0010
0000
0000
0100
,  // measure 51
1000
0000
0010
1000
,  // measure 52
0001
0000
0000
0010
,  // measure 53
0001
0000
0000
0100
,  // measure 54
0010
0000
0000
0000
;

//---------------dance-single - ----------------
#NOTEDATA:;
#CHARTNAME:;
#STEPSTYPE:dance-single;
#DESCRIPTION:;
#CHARTSTYLE:;
#DIFFICULTY:Beginner;
#METER:1;
#RADARVALUES:0.077404,0.111109,0.027434,0.000000,0.000000,75.000000,4.000000,0.000000,0.000000,0.000000,0.000000,0.000000,0.000000,0.077404,0.111109,0.027434,0.000000,0.000000,75.000000,4.000000,0.000000,0.000000,0.000000,0.000000,0.000000,0.000000;
#CREDIT:Ben Speirs;
#NOTES:
// measure 0
0000
0000
0000
0000
,  // measure 1
0000
0000
0000
0000
,  // measure 2
0000
0000
0000
0000
,  // measure 3
0000
0000
0000
0000
,  // measure 4
0001
0000
0000
0000
,  // measure 5
1000
0000
0000
0000
,  // measure 6
0010
0000
0010
0000
,  // measure 7
0010
0000
0000
0000
,  // measure 8
1001
0000
0000
0000
,  // measure 9
1000
0000
0000
0000
,  // measure 10
0001
0000
0100
0000
,  // measure 11
0100
0000
0000
0000
,  // measure 12
0001
0000
0000
0000
,  // measure 13
1000
0000
0000
0000
,  // measure 14
0010
0000
1000
0000
,  // measure 15
1000
0000
0000
0000
,  // measure 16
0001
0001
0000
0000
,  // measure 17
0100
0000
0000
0000
,  // measure 18
0001
0001
0000
0000
,  // measure 19
1000
0000
0000
0000
,  // measure 20
1000
1000
0000
0000
,  // measure 21
0100
0000
0000
0000
,  // measure 22
1000
1000
0000
0000
,  // measure 23
0001
0000
0000
0000
,  // measure 24
1001
0000
0000
0100
,  // measure 25
0100
0000
0000
0010
,  // measure 26
0010
0000
0000
1000
,  // measure 27
1000
0000
0000
0000
,  // measure 28
1001
0000
0000
0001
,  // measure 29
0001
0000
0000
1000
,  // measure 30
1000
0000
0000
0010
,  // measure 31
0010
0000
0000
0000
,  // measure 32
0100
0000
0000
0000
,  // measure 33
0001
0000
0000
0000
,  // measure 34
1000
0000
1000
0000
,  // measure 35
1000
0000
0000
0000
,  // measure 36
0100
0000
0000
0000
,  // measure 37
1000
0000
0000
0000
,  // measure 38
0001
0000
0001
0000
,  // measure 39
0001
0000
0000
0000
,  // measure 40
0100
0100
0000
0000
,  // measure 41
0100
0000
0000
0000
,  // measure 42
0010
0010
0000
0000
,  // measure 43
0010
0000
0000
0000
,  // measure 44
1000
1000
0000
0000
,  // measure 45
1000
0000
0000
0000
,  // measure 46
0001
0001
0000
0000
,  // measure 47
0001
0000
0000
0000
,  // measure 48
1001
0000
0000
0100
,  // measure 49
0100
0000
0000
0001
,  // measure 50
0001
0000
0000
0000
,  // measure 51
1000
0000
0000
0010
,  // measure 52
0010
0000
0000
1000
,  // measure 53
1000
0000
0000
0001
,  // measure 54
0001
0000
0000
0000
;
