#TITLE:Starboy;
#SUBTITLE:;
#ARTIST:The Weeknd feat. Daft Punk;
#TITLETRANSLIT:;
#SUBTITLETRANSLIT:;
#ARTISTTRANSLIT:;
#GENRE:Electronic;
#CREDIT:;
#BANNER:Starboy.png;
#BACKGROUND:Starboy-bg.png;
#LYRICSPATH:;
#CDTITLE:;
#MUSIC:Starboy.ogg;
#OFFSET:0.010000;
#SAMPLESTART:51.604210;
#SAMPLELENGTH:13.714000;
#SELECTABLE:YES;
#BPMS:0.000000=93.000000
;
#STOPS:
;
#BGCHANGES:4.000=Starboy.avi=1.000=0=0=1=====,
99999=-nosongbg-=1.000=0=0=0 // don't automatically add -songbackground-
;
#KEYSOUNDS:;
#ATTACKS:;

//---------------dance-single - ----------------
#NOTES:
     dance-single:
     :
     Hard:
     8:
     0.473300,0.497882,0.153927,0.095288,0.326179,418.000000,21.000000,13.000000,0.000000,0.000000,0.000000,0.473300,0.497882,0.153927,0.095288,0.326179,418.000000,21.000000,13.000000,0.000000,0.000000,0.000000:
0000
0000
0000
0000
,
0000
0000
0000
0000
,
1000
0000
0000
0000
0100
0000
1000
0000
0000
0001
0000
0000
0100
0000
0000
0000
,
0001
0000
0000
0000
0100
0000
0001
0000
0000
1000
0000
0000
0100
0000
0000
0000
,
2001
0000
0000
0000
3010
0000
1000
0000
0100
0000
0010
0100
0010
0000
0001
0000
,
0200
0000
0000
0000
0310
0000
0100
0000
0001
0000
1000
0001
1000
0000
0010
0000
,
2000
0000
0000
0000
3001
0000
0010
0000
0001
0000
0100
0001
0100
0000
0010
0000
,
2000
0000
0000
0000
3100
0000
1000
0000
0001
0000
0100
0001
0100
0000
0001
0000
,
2000
0000
0000
0000
3010
0000
0100
0000
0010
0000
0100
0001
0100
0000
0010
0000
,
1000
0000
0001
0000
0010
0100
0010
0000
0001
0000
1000
0100
1000
0000
0010
0000
,
0100
0000
0000
0000
0001
0000
1000
0000
0010
0100
0010
0000
0100
0000
0001
0000
,
1000
0000
0100
0000
1000
0000
0001
0000
1000
0000
0010
0100
0010
0000
0100
0000
,
0001
0000
0000
0000
0101
0000
0100
0010
0100
0000
0010
1000
0010
0000
1000
0000
,
0100
0000
0000
0000
1100
0000
0100
0010
0100
0000
0010
0001
0010
0000
0001
0000
,
1000
0000
0000
0000
1001
0000
0001
0100
0001
0000
1000
0100
1000
0000
0001
0000
,
0100
0000
0010
1000
0010
1000
0010
1000
0001
0000
0010
0001
0010
0001
1000
0000
,
1001
0000
0000
0000
0101
0000
0100
0010
0100
0000
0001
0000
1000
0100
1000
0000
,
0001
0000
0000
0000
1100
0000
0100
1000
0100
0000
1000
0000
0010
0100
0010
0000
,
0100
0000
0000
0000
0101
0000
0100
0010
0100
0000
0001
0000
1000
0010
1000
0000
,
0001
0000
1000
0000
0100
1000
0100
1000
0001
0000
0100
0001
0100
0001
1000
0000
,
0010
0000
1001
0000
0000
0000
1000
0000
0001
0000
0100
0010
0100
0000
0001
0000
,
1000
0000
1010
0000
0000
0000
0001
0000
1000
0000
0000
0000
0001
0010
0100
1000
,
0001
0000
0011
0000
0000
0000
1000
0000
0001
0000
1000
0100
1000
0000
0010
0000
,
0100
0000
0110
0000
0000
0000
0001
0000
0100
0000
0010
1000
0010
1000
0100
0010
,
0100
0000
0010
0001
0000
0000
1000
0000
0100
1000
0100
0000
1000
0000
0010
0000
,
0100
0000
0001
1000
0000
0000
0010
0000
0100
0001
0100
0000
0001
0010
0100
1000
,
0001
0000
1000
0100
0000
0000
1000
0000
0010
0100
0010
0000
1000
0000
0001
0000
,
0010
0000
0001
1000
0000
0000
0001
0000
1000
0000
0010
0100
0010
0100
0010
0100
,
0001
1000
0020
0000
0000
0000
0000
0000
,
0130
0000
0001
0000
,
1000
1000
0010
1000
0001
0010
1001
0000
,
0001
1000
0100
0100
0010
0001
1100
0000
,
0001
0000
0100
0000
0101
0000
0100
0010
0100
0000
0001
0000
1001
0000
0000
0000
,
1000
0000
0010
0000
1010
0000
1000
0100
1000
0000
0001
0000
0100
0000
0000
0000
,
0001
1000
0001
1000
0001
0000
0100
0010
0100
0000
0001
0000
1000
0000
0010
1000
,
0001
0000
1000
0000
0100
0000
0010
0001
1000
0000
0010
0000
0100
0000
0001
0000
,
0201
0000
0000
0000
0010
0010
0310
0000
,
2010
0000
0000
0000
0100
0100
3100
0000
,
1002
0000
0000
0000
0100
0100
0103
0000
,
0001
0000
1000
0000
0010
0000
0010
0000
0100
0000
0001
0000
1000
0100
1000
0000
,
0002
0000
0000
0000
0000
0000
0000
0000
0013
0000
0001
0000
0010
0001
0010
0000
,
0200
0000
0000
0000
0000
0000
0000
0000
1300
0000
0100
0000
1000
0100
1000
0000
,
0020
0000
0000
0000
0000
0000
0000
0000
1030
0000
0010
0000
1000
0010
1000
0000
,
0001
0010
0001
1000
0010
0000
0000
1001
,
1000
0000
0100
0000
1000
0100
1000
0000
0010
0000
0100
0010
0000
0010
1000
0000
,
0001
0000
0010
0000
0001
1000
0001
0000
0100
0000
0000
0000
0001
0010
0100
1000
,
0001
0000
0100
0000
0010
1000
0010
0000
0100
0000
0001
1000
0000
1000
0100
0000
,
1000
0000
0010
0000
0100
0001
0100
0000
0010
0000
1000
0100
1000
0100
1000
0100
,
0010
0000
0001
0100
0000
0100
0010
0000
1000
0000
0001
1000
0000
1000
0010
0000
,
0100
0000
0001
0000
1000
0100
1000
0000
0001
0000
0010
0000
0001
1000
0010
0100
,
0001
0000
0100
0010
0000
0010
1000
0000
0001
0000
1000
0000
0100
0010
0001
0000
,
0100
0000
0010
0100
0010
0000
1000
0000
0001
0000
1000
0010
0100
0001
0010
0100
,
2000
0010
3000
0000
0000
0000
0000
0000
;

//---------------dance-single - ----------------
#NOTES:
     dance-single:
     :
     Challenge:
     10:
     0.689008,0.630415,0.278535,0.153927,0.828276,599.000000,38.000000,21.000000,0.000000,0.000000,0.000000,0.689008,0.630415,0.278535,0.153927,0.828276,599.000000,38.000000,21.000000,0.000000,0.000000,0.000000:
0000
0000
0000
0000
,
0000
0000
0000
0000
,
1000
0000
0100
1000
0010
0010
0100
0000
0010
1000
0000
1000
0100
0010
0001
0000
,
0100
0000
0001
0100
0010
0010
0100
0000
0001
0100
0000
0100
0001
0010
0100
1000
,
0002
0000
1000
0000
1003
0100
1000
0100
0010
0100
0010
0001
1000
0000
0010
0000
,
0200
0000
0301
0000
0100
0010
0100
0000
0001
1000
0001
1000
0010
0000
0100
0000
,
0002
0000
0013
0000
0001
0010
0100
0010
0001
0000
0010
0100
0010
0000
0100
0000
,
2000
0000
3010
0000
1010
0000
0110
0000
0101
0000
0100
0001
1000
0000
0010
0000
,
1002
0000
0013
0000
0001
0010
0100
0000
1000
0000
1100
0000
0110
0000
0001
0000
,
2001
0000
3010
0000
1000
0010
0100
0000
0001
0000
0100
0010
0100
0000
0001
0000
,
0101
0000
0001
0000
1000
0100
0010
0000
0001
1000
0001
0000
0100
0000
0110
0000
,
1010
0000
1000
0000
0001
0010
0100
0000
1000
0001
1000
0000
0010
0000
0110
0000
,
0102
0000
0000
0000
1003
0000
0001
0100
0010
1000
0100
0010
0001
0001
1000
0000
,
2100
0000
0000
3000
0001
1000
0010
0100
0001
0001
0100
0010
1000
1000
0001
0000
,
0010
0000
0000
0000
1001
0000
1000
0100
1000
0001
0100
0001
1000
0010
0100
0000
,
0001
0000
0100
0100
0010
0100
0001
1000
0010
0000
0100
0100
0010
1000
0001
0000
,
2010
0000
0000
0000
3001
0000
1000
0010
0100
0001
0010
0100
1000
1000
0001
0000
,
0012
0000
0000
0003
1000
0001
0100
0010
1000
1000
0010
0100
0001
0001
1000
0000
,
0100
0000
0000
0000
1001
0000
0001
0010
0001
1000
0010
1000
0001
0100
0010
0000
,
1000
0000
0010
0010
0100
0010
1000
0001
0100
0000
0010
0010
0100
0001
1000
0000
,
0101
0000
1000
0100
1000
0001
0100
0000
0101
0000
0100
0010
1000
0000
1100
0000
,
0101
0000
1000
0000
0001
0010
0100
0000
1000
0000
1100
0000
0010
0100
0010
0100
,
0001
0000
1010
0000
0001
1000
0010
0000
1100
0000
0100
1000
0001
0000
0101
0000
,
1001
0000
0010
0000
1000
0010
0100
0000
1001
0000
0001
0010
0100
1000
0010
0100
,
0001
0100
1000
0100
0010
1000
0100
0010
0001
1000
0001
1000
0010
0000
0100
0000
,
0001
1000
0010
0100
0001
1000
0010
0001
0010
0100
0001
0000
1000
0100
1000
0100
,
0010
0001
0100
1000
0100
0010
1000
0100
0010
0001
1000
0001
1000
0000
0010
0000
,
0100
0001
1000
0100
0010
0001
1000
0010
0100
0000
0001
1000
0001
1000
0010
0100
,
0002
0100
2003
0000
0000
0000
0000
0000
,
3002
0000
0013
0000
,
0001
0001
0100
0001
1000
0000
0010
1000
0001
0000
0010
0001
1000
0000
0100
0000
,
1000
0100
1000
0100
1000
0000
0010
0100
0001
0000
0100
0010
0100
0000
0110
0000
,
0001
0100
0010
1000
0100
0010
0001
1000
0010
0000
0100
0001
1000
0000
0010
0000
,
1000
0100
0010
0100
0010
0001
1000
0010
0100
0001
1000
0010
0100
0000
0001
0000
,
0100
0010
0100
0001
1000
0000
0010
1000
0001
0000
0010
0001
1000
0000
0100
1000
,
1100
0000
0010
1000
0001
0000
0100
0001
0101
0000
0100
0001
1000
0000
0010
0000
,
2002
0000
0000
0000
3003
0000
0010
1000
0010
1000
0010
1000
0100
0010
0001
0000
,
2100
0000
0000
0000
3001
0100
0001
0100
0010
0100
0010
1000
0100
0010
0001
0000
,
0012
0000
0000
0000
0000
0000
0103
0001
0100
0001
0100
0010
1000
0001
0010
0000
,
0001
0000
1000
0100
0010
0001
0100
0010
1000
0000
0001
0001
0010
0001
1000
0000
,
2002
0000
0000
0000
3003
0000
0100
0001
0100
0001
0100
0001
0010
0100
1000
0000
,
0012
0000
0000
0000
1003
0010
1000
0010
0100
0010
0100
0001
0010
0100
1000
0000
,
2100
0000
0000
0000
0000
0000
3010
1000
0010
1000
0010
0100
0001
1000
0100
0000
,
1000
0000
0001
0010
0100
1000
0010
0100
0001
0000
1000
1000
0100
1000
1001
0000
,
0001
0000
0100
0010
0100
0001
1000
0010
0100
0010
1000
0100
0010
0001
1000
0001
,
0100
0000
0010
1000
0100
1000
0010
0100
0001
0010
0100
1000
0001
0100
0001
0100
,
0010
0000
0100
0001
0100
0010
1000
0100
1000
0010
0100
0001
0010
0100
1000
0001
,
0100
0000
0001
0010
0100
1000
0010
0100
0001
1000
0010
0010
0100
0100
0001
1000
,
0010
0100
0001
0010
1000
0010
0001
0100
0010
1000
0100
0010
0001
1000
0010
0100
,
0001
1000
0010
0100
1000
0100
0010
0100
0001
0010
0100
1000
0001
0100
0001
0100
,
0010
1000
0100
0001
0100
0010
0001
0100
0010
1000
0001
0010
0100
1000
0010
0100
,
0001
1000
0010
0100
0001
0010
1000
0010
0001
0100
0010
0010
1000
1000
0001
0001
,
0010
1001
0000
0000
0000
0000
0000
0000
;

//---------------dance-double - ----------------
#NOTES:
     dance-double:
     :
     Challenge:
     10:
     0.680631,0.649518,0.227226,0.131938,0.835606,601.000000,31.000000,18.000000,0.000000,0.000000,0.000000,0.680631,0.649518,0.227226,0.131938,0.835606,601.000000,31.000000,18.000000,0.000000,0.000000,0.000000:
00000000
00000000
00000000
00000000
,
00000000
00000000
00000000
00000000
,
00010000
00010000
00001000
00100000
00001000
00000000
00101000
00000000
00100000
00001000
00010000
00000000
00101000
00000000
00100000
00000000
,
00001000
00001000
00010000
00000100
00001000
00000000
00010100
00000000
00000100
00010000
00001000
00000000
00010100
00000100
00001000
00000010
,
00000200
00000000
00000010
00000000
00000301
00000100
00000010
00000100
00000010
00001000
00000010
00001000
00000001
00000000
00000010
00000000
,
00000002
00000000
00000100
00000000
00000103
00000000
00000010
00000000
00001000
00000100
00001000
00000100
00010000
00000000
00001000
00000000
,
00020100
00000000
00000000
00000000
00031000
00010000
00001000
00000000
00100000
00000000
00010000
01000000
00100000
00000000
10000000
00000000
,
00020000
00000000
01000000
00000000
01030000
00000000
01010000
00000000
11000000
00000000
10000000
01000000
00100000
00000000
00010000
00000000
,
10010000
00000000
10000000
00000000
00100000
01000000
00010000
00000000
01000000
00000000
01010000
00000000
00110000
00000000
00011000
00000000
,
00010100
00000000
00001000
00000000
00000010
00001000
00000001
00000000
00000100
00000000
00000010
00001000
00000001
00000000
00000010
00000000
,
00000011
00000000
00000001
00000000
00001000
00000100
00001000
00000000
00000100
00010000
00001000
00000000
00100000
00000000
00110000
00000000
,
10000000
00000000
00100000
00000000
01000000
00010000
00100000
00000000
00010000
00100000
00001000
00000000
00010000
00000000
00000100
00000000
,
00000120
00000000
00000000
00000000
00000031
00000000
00000100
00000001
00000100
00000010
00000100
00000010
00001000
00000100
00001000
00000000
,
00000100
00000000
00010000
00000000
00001000
00010000
00001000
00100000
00001000
00100000
00010000
01000000
00100000
10000000
00010000
00000000
,
10000000
00000000
00100000
00000000
01000000
00000000
00010000
01000000
00100000
01000000
00100000
10000000
01000000
00100000
00010000
00000000
,
10000000
00000000
00100000
01000000
00010000
00100000
00001000
00010000
00000100
00000000
00000010
00000001
00000100
00000010
00001000
00000000
,
00002100
00000000
00000000
00000000
00003010
00000000
00000100
00000001
00000100
00000010
00001000
00000100
00000010
00000001
00001000
00000000
,
00000200
00000000
00000000
00000000
00010300
00000100
00010000
00001000
00010000
00100000
10000000
01000000
00100000
00010000
10000000
00000000
,
00200000
00000000
00000000
00000000
01300000
00000000
00010000
01000000
00100000
10000000
01000000
00100000
00010000
10000000
00100000
00000000
,
01000000
00000000
00010000
00100000
00010000
00100000
00001000
00010000
00000100
00000000
00010000
00000100
00001000
00000010
00000100
00000000
,
00001001
00000000
00001010
00000000
00000100
00001000
00000010
00000000
00000110
00000000
00000100
00000001
00000000
00000001
00001000
00000000
,
00000010
00000000
00001100
00000000
00000001
00000010
00000100
00000000
00001100
00000000
00000101
00000000
00001000
00000010
00000100
00000001
,
00001000
00000000
00001010
00000000
00000010
00001000
00000100
00000000
00001100
00000000
00000100
00010000
00001000
00010000
00000100
00000000
,
00010000
00000000
00011000
00000000
00000100
00010000
00001000
00000000
00101000
00000000
00010000
00010000
00001000
00100000
00010000
01000000
,
00100000
10000000
00100000
00010000
00100000
01000000
00010000
00100000
01000000
10000000
01000000
10000000
00100000
00000000
01000000
00000000
,
00010000
01000000
10000000
01000000
00010000
10000000
01000000
00100000
00010000
10000000
00010000
00000000
10000000
01000000
00010000
00001000
,
00000100
00000001
00000100
00001000
00000100
00000010
00001000
00000100
00000010
00000001
00001000
00000000
00000001
00000010
00000100
00000000
,
00001000
00000010
00000001
00000010
00000100
00000001
00000010
00000100
00001000
00000001
00000100
00000100
00001000
00001000
00010000
00010000
,
00200000
10300000
02000000
00000000
00000000
00000000
03000000
00000000
,
20000000
30000000
00020000
00030000
,
10000000
00100000
01000000
00010000
10000000
00000000
00010000
00100000
00010000
00000000
10000000
00100000
10000000
00000000
00010000
00000000
,
00100000
00010000
00100000
00001000
00010000
00000000
00001000
00010000
00000100
00000000
00001000
00000010
00000100
00000000
00000001
00000000
,
00000101
00000000
00001100
00000000
00010100
00000000
00000100
00010000
00001000
00000000
00001000
00000100
00000001
00000000
00000100
00000000
,
00000010
00001000
00000010
00001000
00000100
00000010
00000001
00000100
00000010
00000100
00000010
00000100
00000001
00000000
00001000
00000000
,
00000001
00000100
00001000
00010000
00001000
00000000
00010000
00001000
00010000
00000000
00001000
00010000
00100000
00000000
00010000
00001000
,
00100000
00010000
10000000
00100000
01000000
00000000
00010000
01000000
00001000
00010000
00001000
00100000
00010000
00000000
01000000
00000000
,
20010000
00000000
00000000
00000000
30000000
00000000
00100000
01000000
00100000
01000000
00100000
01000000
00010000
10000000
01000000
00000000
,
00200000
00000000
00000000
00000000
00310000
10000000
00010000
10000000
00100000
01000000
00010000
00100000
00010000
00100000
00010000
00000000
,
02000000
00000000
00000000
00000000
03000000
00000000
00100000
01000000
00100000
01000000
00100000
01000000
00010000
10000000
01000000
00000000
,
00100000
00000000
00010000
00100000
00001000
00010000
00000100
00001000
00000001
00000000
00000100
00000100
00000010
00000100
00000001
00000000
,
00002000
00000000
00000000
00000000
00003000
00000010
00000100
00000010
00000100
00000001
00000010
00000100
00001000
00000001
00001000
00000000
,
00000002
00000000
00000000
00000000
00000000
00000103
00000010
00000100
00000010
00000100
00000001
00000010
00000100
00001000
00000010
00000000
,
00002000
00000000
00000000
00000000
00003000
00000001
00000100
00000010
00000100
00000000
00000001
00000100
00000010
00001000
00000001
00000000
,
00001000
00000000
00000100
00000000
00000000
00001000
00000100
00010000
00001000
00000000
00010000
00010000
00001000
00100000
00110000
00010000
,
10000000
00100000
01000000
01000000
00010000
10000000
01000000
01000000
00100000
00100000
00010000
10000000
10000000
00100000
01000000
01000000
,
00010000
10000000
01000000
00100000
00010000
10000000
00100000
00100000
01000000
01000000
00010000
00100000
00001000
00010000
00000100
00000010
,
00000001
00000100
00000010
00000010
00000100
00000001
00001000
00001000
00000100
00000100
00000010
00000001
00000001
00001000
00000010
00000010
,
00000100
00000001
00000010
00000010
00000100
00000010
00000001
00000100
00000010
00001000
00000001
00000001
00000100
00000100
00001000
00001000
,
00010000
00001000
00010000
00100000
10000000
01000000
00100000
00010000
10000000
10000000
10000000
00100000
01000000
00010000
10000000
01000000
,
00100000
00010000
01000000
00010000
00100000
00001000
00010000
00000010
00000100
00000100
00000100
00000010
00001000
00001000
00001000
00000010
,
00000100
00000001
00000010
00000100
00001000
00000010
00000100
00000001
00000010
00000010
00000010
00000001
00000100
00000010
00001000
00000100
,
00010000
00001000
00000100
00000001
00000010
00000100
00001000
00000010
00000100
00001000
00010000
00010000
00001000
00001000
00100000
00010000
,
01000000
10000000
01000000
00000000
00000000
00000000
00000000
00000000
00000000
00000000
00000000
00000000
00000000
00000000
00000000
00000000
;

//---------------dance-single - ----------------
#NOTES:
     dance-single:
     :
     Medium:
     5:
     0.319373,0.343863,0.073299,0.205236,0.014660,267.000000,10.000000,28.000000,0.000000,0.000000,0.000000,0.319373,0.343863,0.073299,0.205236,0.014660,267.000000,10.000000,28.000000,0.000000,0.000000,0.000000:
0000
0000
0000
0000
,
0000
0000
0000
0000
,
0001
0000
0100
0100
0000
0010
0010
0000
,
1000
0000
0100
0100
0000
0010
0010
0000
,
2002
0000
3003
0000
1000
0100
0010
0010
,
0002
0000
0103
0010
2000
0000
3010
1000
,
0002
0000
0003
0000
1000
0001
1000
1000
,
0020
0000
0130
0010
2000
0000
3010
1000
,
0002
0000
0013
0001
0100
0100
0010
1000
,
0200
0000
1300
0010
0200
0000
0301
1000
,
0020
0000
1030
0001
0010
0010
0001
1000
,
0200
0000
1300
0010
0200
0000
0310
1000
,
0002
0000
0003
0100
0010
0100
0001
0001
,
1000
0000
0010
1000
1100
0000
0010
0001
,
0101
0000
0000
1000
1000
0100
1000
0010
,
0200
0301
2000
3010
,
1002
0000
0013
0001
0100
0100
0010
1000
,
0100
0000
1000
0010
1010
0000
0001
0010
,
0011
0000
0001
1000
1000
1000
0100
1000
,
0010
0100
0000
0010
0010
0000
0000
0000
,
0100
0000
0001
0000
0000
0000
1000
0000
1000
0000
0000
0100
0000
0000
1000
0000
,
0000
0001
0000
0100
0100
0000
0001
1000
,
0000
0000
0010
0000
0000
0000
0100
0000
0100
0000
0000
0001
0000
0000
1000
0000
,
0000
0010
0000
1000
1000
0001
0010
0100
,
2000
0000
0100
0000
0001
0001
3001
0000
,
0002
0000
0100
0000
1000
1003
0010
0010
,
0200
0000
0010
0000
0001
0001
0301
0000
,
0100
0001
1000
0000
0010
1000
0001
0000
,
1000
1100
0000
0000
0000
0000
0000
0000
,
0001
0000
1000
0000
,
0010
0000
0010
0000
0100
0010
1000
1000
,
0100
0000
0100
0000
0010
0100
0010
0010
,
0001
0001
0001
0000
0100
0001
1000
0000
,
0010
0010
0010
0000
1000
0001
0010
0000
,
0001
0000
1000
0000
0100
1000
0010
0000
,
0100
0001
0010
0000
0100
1000
0010
0000
,
2001
0000
0010
3010
,
0002
0000
0100
0103
,
2000
0000
3000
0000
0100
1000
0100
0000
,
1000
0000
0001
0000
0100
0000
0010
0010
,
0020
0000
0030
0000
0100
0001
0100
0100
,
0010
0000
1000
0010
0100
0000
0001
1000
,
0100
0000
0000
0000
1000
1000
0001
0001
,
0010
0000
0001
0000
1000
0000
0000
1001
,
0000
0000
0001
0000
0000
0000
0100
0000
0100
0000
0000
0010
0000
0000
1000
0000
,
0000
0001
0000
1000
1000
0000
0100
0010
,
0000
0000
0001
0000
0000
0000
1000
0000
1000
0000
0000
0010
0000
0000
0100
0000
,
0000
0001
0000
1000
1000
0001
0010
0100
,
2000
0000
3100
0000
1000
0100
0010
0000
,
0002
0000
0103
0000
0001
0100
0010
0010
,
2000
0000
0001
0000
0100
0100
3100
0000
,
0002
0000
0100
0000
1003
0010
0100
0001
,
1000
1001
0000
0000
0000
0000
0000
0000
;

//---------------dance-single - ----------------
#NOTES:
     dance-single:
     :
     Easy:
     3:
     0.205236,0.267449,0.036649,0.219896,0.000000,161.000000,5.000000,30.000000,0.000000,0.000000,0.000000,0.205236,0.267449,0.036649,0.219896,0.000000,161.000000,5.000000,30.000000,0.000000,0.000000,0.000000:
// measure 0
0000
0000
0000
0000
,  // measure 1
0000
0000
0000
0000
,  // measure 2
0100
0000
0010
0010
,  // measure 3
1000
0000
0001
0001
,  // measure 4
0020
0030
0001
1000
,  // measure 5
0020
0030
2000
3000
,  // measure 6
0002
0003
0010
0001
,  // measure 7
0200
0300
0020
0030
,  // measure 8
2000
3000
0100
1000
,  // measure 9
0020
0130
0200
0301
,  // measure 10
0002
0003
0100
0001
,  // measure 11
2000
3010
0020
0130
,  // measure 12
0002
0003
0100
0010
,  // measure 13
1000
0000
0001
1000
,  // measure 14
0100
0000
0010
0001
,  // measure 15
0100
0100
0010
0010
,  // measure 16
1000
0000
0010
0100
,  // measure 17
0001
0000
1000
0100
,  // measure 18
0010
0000
0001
1000
,  // measure 19
0010
0010
0100
0000
,  // measure 20
0001
0000
0100
0010
,  // measure 21
1000
0000
0000
0000
0001
0000
0010
0010
,  // measure 22
0010
0000
0001
1000
,  // measure 23
0010
0000
0000
0000
1000
0000
0100
0100
,  // measure 24
0100
1000
0010
0100
,  // measure 25
0001
0000
1000
0000
0010
0000
0100
0100
,  // measure 26
0100
0000
0001
1000
,  // measure 27
0010
0000
1000
0000
0001
0000
0010
0010
,  // measure 28
0010
0010
0000
0000
0000
0000
0000
0000
,  // measure 29
0001
0000
0000
0000
,  // measure 30
1000
1000
0100
1000
,  // measure 31
0001
0001
0100
0001
,  // measure 32
0010
0010
0010
0000
0001
0000
0000
0000
,  // measure 33
1000
1000
1000
0000
0010
0000
0000
0000
,  // measure 34
0100
0100
0001
0000
,  // measure 35
1000
0000
1000
0000
,  // measure 36
2002
0000
3003
0000
,  // measure 37
2000
3000
0020
0030
,  // measure 38
0220
0000
0330
0000
,  // measure 39
0200
0300
0002
0003
,  // measure 40
2002
3003
1000
0001
,  // measure 41
0020
0030
0002
0003
,  // measure 42
0202
0303
0100
0001
,  // measure 43
2000
3000
2200
3300
,  // measure 44
0001
1000
0010
0010
,  // measure 45
0100
0000
0001
0000
1000
0000
0010
0010
,  // measure 46
0010
0000
1000
0001
,  // measure 47
0010
0010
0001
0100
,  // measure 48
0010
0010
0000
0000
0100
0000
0001
0000
,  // measure 49
1000
0000
1000
0000
0001
0000
0010
0010
,  // measure 50
0010
0000
0001
1000
,  // measure 51
0010
0000
0010
0000
1000
0000
0100
0100
,  // measure 52
0100
0100
0000
0000
0000
0000
0000
0000
;

//---------------dance-single - ----------------
#NOTES:
     dance-single:
     :
     Beginner:
     1:
     0.101571,0.133404,0.021990,0.000000,0.000000,94.000000,3.000000,0.000000,0.000000,0.000000,0.000000,0.101571,0.133404,0.021990,0.000000,0.000000,94.000000,3.000000,0.000000,0.000000,0.000000,0.000000:
// measure 0
0000
0000
0000
0000
,  // measure 1
0000
0000
0000
0000
,  // measure 2
0001
0000
0000
0000
,  // measure 3
1000
0000
0000
0000
,  // measure 4
0010
0000
0100
0000
,  // measure 5
0001
0000
1000
0000
,  // measure 6
0010
0000
0000
0000
,  // measure 7
1000
0000
0001
0000
,  // measure 8
0100
0000
0100
0000
,  // measure 9
0001
0000
1000
0000
,  // measure 10
0010
0000
0000
0000
,  // measure 11
1000
0000
0001
0000
,  // measure 12
0100
0000
0001
0001
,  // measure 13
0001
0000
1000
1000
,  // measure 14
1000
0000
0010
0010
,  // measure 15
0010
0000
0000
0000
,  // measure 16
0100
0000
0001
0001
,  // measure 17
0001
0000
0010
0010
,  // measure 18
0010
0000
0100
0100
,  // measure 19
0100
0000
1000
0000
,  // measure 20
1001
0000
0000
0001
,  // measure 21
0001
0000
0000
1000
,  // measure 22
1000
0000
0000
0010
,  // measure 23
0010
0000
0100
0000
,  // measure 24
0001
0000
0000
1000
,  // measure 25
1000
0000
0000
0010
,  // measure 26
0010
0000
0000
0100
,  // measure 27
0100
0000
0001
0000
,  // measure 28
1000
0000
0000
0000
,  // measure 29
0000
0000
0000
0000
,  // measure 30
0001
0000
0000
0000
,  // measure 31
1000
0000
0000
0000
,  // measure 32
0010
0010
0010
0000
,  // measure 33
0010
0010
0010
0000
,  // measure 34
0100
0100
0100
0000
,  // measure 35
0100
0000
0100
0000
,  // measure 36
1001
0000
0000
0000
,  // measure 37
1000
0000
1000
0000
,  // measure 38
1000
0000
0000
0000
,  // measure 39
0001
0000
0001
0000
,  // measure 40
0001
0000
0000
0000
,  // measure 41
0100
0000
0100
0000
,  // measure 42
0100
0000
0000
0000
,  // measure 43
0010
0000
0010
0000
,  // measure 44
0110
0000
0000
0000
,  // measure 45
0100
0000
0100
0000
,  // measure 46
0001
0000
0000
0000
,  // measure 47
1000
0000
0000
0010
,  // measure 48
0010
0000
0100
0000
,  // measure 49
0001
0000
0000
1000
,  // measure 50
1000
0000
0100
0000
,  // measure 51
0010
0000
0000
0001
,  // measure 52
0001
0000
0000
0000
;
