#VERSION:0.82;
#TITLE:Giants;
#SUBTITLE:;
#ARTIST:Take That;
#TITLETRANSLIT:;
#SUBTITLETRANSLIT:;
#ARTISTTRANSLIT:;
#GENRE:Pop;
#ORIGIN:;
#CREDIT:;
#BANNER:Giants.png;
#BACKGROUND:Giants-bg.png;
#PREVIEWVID:;
#JACKET:jacket.png;
#CDIMAGE:;
#DISCIMAGE:;
#LYRICSPATH:;
#CDTITLE:cdtitle.png;
#MUSIC:Giants.ogg;
#OFFSET:0.000000;
#SAMPLESTART:83.393257;
#SAMPLELENGTH:17.959999;
#SELECTABLE:YES;
#BPMS:0.000=105.000;
#STOPS:;
#DELAYS:;
#WARPS:;
#TIMESIGNATURES:0.000=4=4;
#TICKCOUNTS:0.000=4;
#COMBOS:0.000=1;
#SPEEDS:0.000=1.000=0.000=0;
#SCROLLS:0.000=1.000;
#FAKES:;
#LABELS:0.000=Song Start;
#BGCHANGES:4.000=Giants.avi=1.000=0=0=1=====,
99999=-nosongbg-=1.000=0=0=0 // don't automatically add -songbackground-
;
#KEYSOUNDS:;
#ATTACKS:
;

//---------------dance-single - ----------------
#NOTEDATA:;
#CHARTNAME:;
#STEPSTYPE:dance-single;
#DESCRIPTION:;
#CHARTSTYLE:;
#DIFFICULTY:Hard;
#METER:8;
#RADARVALUES:0.414462,0.461021,0.099515,0.183719,0.172237,342.000000,13.000000,24.000000,0.000000,0.000000,0.000000,0.000000,0.000000,0.414462,0.461021,0.099515,0.183719,0.172237,342.000000,13.000000,24.000000,0.000000,0.000000,0.000000,0.000000,0.000000;
#CREDIT:Ben Speirs;
#NOTES:
0000
0000
0000
0000
,
0000
0000
0000
0000
,
0000
0000
0000
0000
,
0000
0000
0000
0000
,
1010
0000
0010
0000
0100
0000
0001
1000
0001
0000
0100
0000
0010
0000
0000
0000
,
0100
0000
0001
0000
0010
0000
0001
1000
0001
0000
1000
0000
0100
0000
0000
0000
,
1000
0000
0010
0000
0100
0000
0010
1000
0010
0000
1000
0000
0100
0000
0000
0000
,
1000
0000
0001
0000
0010
0000
0001
1000
0001
0000
1000
0000
0010
0100
0000
0000
,
0202
0000
0000
0000
0303
0000
0001
1000
,
0002
0000
0000
0000
0000
0000
0000
0000
0003
0000
0000
0000
1000
0100
0000
0000
,
2200
0000
0000
0000
3300
0000
1000
0001
,
2000
0000
0000
0000
3000
0000
0001
0010
,
0002
0000
0103
0000
0010
0000
0100
0001
,
2000
0000
3010
0000
1000
0000
0001
0010
,
0200
0000
0310
0000
0001
0000
0010
0001
,
0200
0000
0310
0000
0100
0000
0001
1000
,
0010
0000
0100
0000
0010
0000
1000
0000
0010
0000
0000
0000
1000
0000
0010
0100
,
0010
0000
0100
0000
0001
0000
0100
0000
0010
0000
0000
0000
0100
0000
0001
0100
,
0001
0000
1000
0000
0001
0000
0100
0000
0001
0000
0000
0000
0100
0000
0001
1000
,
0001
0000
1000
0000
0100
0000
1000
0000
0001
0000
0000
0000
1000
0000
0010
0100
,
0010
0000
1000
0000
0100
0000
0010
0000
0001
0000
1000
0000
0010
0000
0100
0001
,
0100
0000
0010
0000
1000
0000
0001
0000
0010
0000
0100
0000
1000
0000
0001
1000
,
0001
0000
0100
0000
0010
0000
1000
0000
0001
0000
0000
0000
1000
0000
0100
0010
,
0001
0100
0010
0000
0100
0001
1001
0000
,
1000
0010
1010
1000
0100
0010
0110
0010
,
0002
0000
0103
0010
2000
0000
3001
0000
,
1000
0001
0101
0100
0010
1000
1100
0100
,
0020
0000
0031
1000
0010
0100
0001
1000
,
0000
0000
0000
0000
,
2100
0010
0100
3001
,
0002
0000
0000
0000
0100
0000
0000
0000
0010
0000
0000
0000
0013
0000
0000
0001
,
0200
0010
1000
0310
,
0020
0000
0000
0000
1000
0000
0000
0000
0100
0000
0000
0000
1030
0000
0000
0001
,
1000
0010
0100
0000
0010
1000
0100
0000
,
0010
0000
0001
0000
0100
0000
0000
0000
0001
1000
0001
0000
1000
0000
0000
0000
,
0001
0010
0100
1000
0010
0100
0001
1000
,
0100
0100
0010
0010
0001
0010
0100
1000
,
0000
0000
2001
0000
3010
1000
0100
0010
,
0001
0000
0100
0000
0010
0000
0000
0000
0100
0000
0001
0000
1000
0000
0010
0100
,
0010
0000
2001
0000
3010
1000
0100
0010
,
0002
0000
0000
0000
0103
0000
0001
0000
1000
0000
0010
0100
0010
0000
1000
0000
,
1200
0000
0000
0000
0310
0000
0001
0000
1000
0000
0010
1000
0010
0000
1000
0000
,
0102
0000
0000
0000
0103
0000
0001
0000
1000
0000
0010
0000
0100
0010
0100
0010
,
1000
0000
0001
0000
0010
0000
0000
0000
0001
0000
1000
0000
0100
1000
0100
1000
,
0001
0000
0100
0000
0010
0000
0000
0000
0100
0000
0100
0000
0001
1000
0001
1000
,
0020
0000
0000
0000
0130
0000
0001
1000
0000
1000
0001
0000
0100
0000
0010
1000
,
0010
0000
0000
0000
0100
0000
0001
0010
0000
0010
0100
0000
1000
0000
0001
1000
,
0001
0000
0000
0000
1000
0000
0010
0100
0000
0100
0010
0000
1000
0000
0100
1000
,
0100
0000
0000
0000
1000
0000
0001
0100
0000
0100
0010
0000
1000
0000
0001
0010
,
0001
0000
0100
0000
0010
0000
1000
0100
1000
0000
0010
0000
0100
0000
0001
1000
,
0001
0000
0100
0000
0010
0000
1000
0000
0001
0000
0010
0000
0001
0010
0100
1000
,
0001
0000
0100
0000
0100
0000
0000
0000
0001
0000
1000
0000
1000
0100
0010
0001
,
1000
0000
0010
0000
0010
0000
0000
0000
1000
0000
0001
0000
1000
0100
0010
0001
,
0200
0010
0000
0000
0000
0000
0000
0000
,
0000
0000
0000
0300
;

//---------------dance-double - ----------------
#NOTEDATA:;
#CHARTNAME:;
#STEPSTYPE:dance-double;
#DESCRIPTION:;
#CHARTSTYLE:;
#DIFFICULTY:Challenge;
#METER:8;
#RADARVALUES:0.419930,0.463126,0.061240,0.130135,0.195202,359.000000,8.000000,17.000000,0.000000,0.000000,0.000000,0.000000,0.000000,0.419930,0.463126,0.061240,0.130135,0.195202,359.000000,8.000000,17.000000,0.000000,0.000000,0.000000,0.000000,0.000000;
#CREDIT:Ben Speirs;
#NOTES:
00000000
00000000
00000000
00000000
,
00000000
00000000
00000000
00000000
,
00000000
00000000
00000000
00000000
,
00000000
00000000
00000000
00000000
,
00010010
00000000
00000010
00000000
00001000
00000000
00000001
00001000
00000001
00000000
00000100
00000000
00000010
00000000
00001000
00000000
,
00000100
00000000
00000100
00000000
00010000
00000000
00001000
00010000
00001000
00000000
00100000
00000000
00010000
00000000
00000000
00000000
,
00101000
00000000
00100000
00000000
00010000
00000000
10000000
00010000
10000000
00000000
00100000
00000000
01000000
00000000
00010000
00000000
,
10000000
00000000
10000000
00000000
00010000
00000000
01000000
00100000
01000000
00000000
00010000
00000000
00100000
00000000
00000000
00000000
,
00202000
00000000
00303000
00000000
00000000
00000000
00001000
00010000
,
00000200
00000000
00000300
00000000
00000000
00000000
00001000
00000100
,
00020000
00000000
00030000
00000000
00000000
00000000
00001000
00010000
,
00002000
00000000
00003000
00000000
00000000
00000000
00010000
00001000
,
00100000
00000000
00010000
00100000
01000000
00000000
00100000
00010000
,
01000000
00000000
00100000
10000000
00010000
00000000
10000000
01000000
,
00100000
00000000
00010000
01000000
00001000
00000000
00010000
00001000
,
00020000
00000000
00031000
00010000
00000100
00000000
00001000
00000010
,
00000100
00000000
00000000
00000010
00000100
00000000
00000000
00000010
00000100
00000000
00000001
00000000
00000010
00000000
00000100
00001000
,
00000100
00000000
00000000
00001000
00000100
00000000
00000000
00001000
00000100
00000000
00001000
00000000
00000010
00000000
00000100
00000001
,
00000100
00000000
00000000
00000001
00000100
00000000
00000000
00000001
00000100
00000000
00000010
00000000
00001000
00000000
00000100
00010000
,
00000100
00000000
00000000
00010000
00000100
00000000
00000000
00010000
00000100
00000000
00010000
00000000
00001000
00000000
00100000
00010000
,
00100000
00000000
00010000
00000000
10000000
00000000
00100000
00000000
01000000
00000000
00010000
00000000
10000000
00000000
00100000
01000000
,
00100000
00000000
10000000
00000000
01000000
00000000
00100000
00000000
00010000
00000000
10000000
00000000
00100000
00000000
10000000
00010000
,
10000000
00000000
00100000
00000000
01000000
00000000
00010000
00000000
00100000
00000000
00000000
00000000
00001000
00000000
00100000
00010000
,
01000000
00010000
10000000
00000000
00100000
10000000
00010000
00000000
,
10000000
01000000
00010000
00001000
00000100
00000001
00000100
00001000
,
00020000
00000000
00031000
00010000
00000100
00000000
00001001
00000000
,
00000001
00000100
00001000
00010000
01000000
10000000
01000000
00010000
,
00002000
00000000
00013000
00001000
01000000
00000000
10010000
00000000
,
00000000
00000000
00000000
00000000
,
20100000
00010000
01000000
00100000
,
30002000
00000000
00010000
00000000
00103000
00010000
00100000
00001000
,
00020000
00001000
00000100
00000010
,
00030002
00000000
00000000
00000000
00000100
00000000
00000000
00000000
00001000
00000000
00000000
00000000
00001003
00000000
00000010
00000100
,
00000010
00000000
00000100
00000000
00000001
00000000
00000100
00000000
00000010
00000000
00000100
00000000
00000001
00000000
00001000
00000100
,
00001000
00000001
00001000
00000100
00001000
00000001
00001000
00000010
,
00000100
00000100
00001000
00001000
00010000
00010000
00100000
00100000
,
10000000
01000000
00010000
00001000
00000010
00000001
00000100
00001000
,
00010000
00000000
00000000
00000000
00002001
00000000
00000000
00000000
00003010
00000000
00000100
00000000
00000010
00000000
00001000
00000100
,
00001000
00000000
00000001
00000000
00000100
00000000
00000000
00000000
00000001
00000000
00000010
00000000
00000100
00000000
00001000
00000001
,
00001000
00000000
00000000
00000000
00002001
00000000
00000000
00000000
00003010
00000000
00001000
00000000
00000001
00000000
00000100
00000001
,
00000100
00000000
00000010
00000000
00001000
00000000
00000100
00000000
00010000
00000000
00001000
00000000
00100000
00000000
00001000
01000000
,
00020000
00000000
00000000
00000000
01030000
00000000
00100000
00000000
10000000
00000000
01000000
00000000
00100000
00000000
00010000
00100000
,
00002000
00000000
00000000
00000000
00013000
00000000
00001000
00000000
00100000
00000000
00010000
00000000
10000000
01000000
10000000
01000000
,
10000000
00000000
00100000
00000000
01000000
00000000
00000000
00000000
00010000
00000000
10000000
00000000
00010000
01000000
00010000
01000000
,
00010000
00000000
10000000
00000000
00100000
00000000
00000000
00000000
01000000
00000000
00100000
00000000
10000000
00010000
10000000
00010000
,
10000000
00000000
00000000
00000000
00010000
00000000
01000000
00100000
00000000
00100000
10000000
00000000
00010000
00000000
00100000
01000000
,
00100000
00000000
00000000
00000000
00010000
00000000
00100000
00001000
00000000
00001000
00010000
00000000
00000100
00000000
00001000
00000010
,
00001000
00000000
00000000
00000000
00000001
00000000
00001000
00000010
00000000
00000010
00000100
00000000
00000001
00000000
00001000
00000100
,
00001000
00000000
00000000
00000000
00000001
00000000
00000010
00000100
00000000
00000100
00001000
00000000
00000001
00000000
00000100
00000010
,
00000100
00000000
00000001
00000000
00001000
00000000
00000100
00000000
00010000
00000000
00001000
00000000
00100000
00000000
01000000
00100000
,
01000000
00000000
00100000
00000000
00010000
00000000
10000000
00000000
00100000
00000000
01000000
00000000
00010000
01000000
00010000
01000000
,
00001000
00000000
00010000
00000000
00000100
00000000
00001000
00000000
00000010
00000000
00000000
00000000
00001000
00000100
00001000
00000100
,
00010000
00000000
00001000
00000000
00100000
00000000
00010000
00000000
01000000
00000000
00000000
00000000
00010000
01000000
00010000
01000000
,
00001000
00010000
00000200
00000000
00000000
00000000
00000000
00000000
,
00000000
00000000
00000000
00000000
,
00000300
00000000
00000000
00000000
;

//---------------dance-single - ----------------
#NOTEDATA:;
#CHARTNAME:;
#STEPSTYPE:dance-single;
#DESCRIPTION:;
#CHARTSTYLE:;
#DIFFICULTY:Medium;
#METER:5;
#RADARVALUES:0.277766,0.378921,0.061240,0.237304,0.015310,215.000000,8.000000,31.000000,0.000000,0.000000,0.000000,0.000000,0.000000,0.277766,0.378921,0.061240,0.237304,0.015310,215.000000,8.000000,31.000000,0.000000,0.000000,0.000000,0.000000,0.000000;
#CREDIT:Ben Speirs;
#NOTES:
0000
0000
0000
0000
,
0000
0000
0000
0000
,
0000
0000
0000
0000
,
0000
0000
0000
0000
,
0101
0000
1000
0000
0010
0010
0100
0000
,
0001
0000
1000
0000
0100
0100
0010
0000
,
0001
0000
1000
0000
0001
0001
0100
0000
,
0001
0000
1000
0000
1000
1000
0010
0000
,
2002
0000
3003
0000
,
0002
0000
0003
0000
,
0200
0000
0000
0000
0300
0000
0010
1000
,
0020
0000
0030
0000
,
2000
3100
1000
0001
,
0002
0103
0001
1000
,
2000
3010
1000
0001
,
0002
0000
0013
0000
0001
0000
1000
0010
,
0100
0000
0100
0000
0010
0000
0100
0001
,
1000
0000
1000
0000
0100
0000
1000
0001
,
0010
0000
0010
0000
0001
0000
1000
0010
,
0100
0000
0100
0000
0010
0000
1000
0001
,
0100
0000
0001
0000
1000
0000
0010
1000
,
0001
0000
0010
0000
0001
0000
0100
0100
,
0100
0000
0010
0000
1000
0000
0001
1000
,
0001
1000
0100
0000
,
1001
0000
1000
0000
0001
0100
0001
0000
,
2000
0000
0000
0000
0002
3000
0000
0000
0203
0000
0000
0000
0320
0000
0000
0000
,
1030
0000
0001
1000
0001
0000
0010
0000
,
0002
2003
3200
0320
,
0030
0000
0000
0000
,
0012
0203
0010
0310
,
0100
0001
1000
0001
,
2000
3200
0010
0310
,
0001
1000
0010
0010
,
0100
0100
0001
0000
1000
1000
0010
0000
,
1000
1000
0001
0000
0001
0001
0010
0000
,
0001
0010
0001
0000
1000
0010
1000
0000
,
0001
0100
0001
0000
1000
0100
0010
0001
,
0000
0000
1001
0000
0001
0000
0100
0010
,
0100
0000
0001
0000
1000
0000
0100
1000
,
0100
2000
0001
3100
,
0002
0000
0103
0000
0001
0000
1000
0010
,
0200
0000
0310
0000
0100
0000
0001
1000
,
0020
0000
0130
0000
0001
0000
1000
1000
,
0100
0000
1000
0000
0001
0000
0001
0001
,
0100
0000
0001
0000
1000
0000
0010
0010
,
0100
0000
0000
0000
0001
0000
0000
0001
0000
0000
0001
0000
0000
0000
0000
0000
,
0100
0000
0000
0000
0010
0000
0000
0010
0000
0000
0010
0000
0000
0000
0000
0000
,
1000
0000
0000
0000
0100
0000
0000
0100
0000
0000
0100
0000
0000
0000
0000
0000
,
1000
0000
0000
0000
0001
0000
0000
0001
0000
0000
0001
0000
0000
0000
0000
0000
,
0102
0000
1003
0000
0010
1000
0100
0000
,
2100
0000
3001
0000
0010
0001
0100
0000
,
2002
0000
3003
0000
0001
1000
0010
0100
,
0002
0000
0003
0000
0100
0001
0010
0100
,
2000
0000
0000
0000
,
0000
0000
0000
0000
,
3000
0000
0000
0000
;

//---------------dance-single - ----------------
#NOTEDATA:;
#CHARTNAME:;
#STEPSTYPE:dance-single;
#DESCRIPTION:;
#CHARTSTYLE:;
#DIFFICULTY:Easy;
#METER:3;
#RADARVALUES:0.155287,0.210512,0.015310,0.137790,0.000000,122.000000,2.000000,18.000000,0.000000,0.000000,0.000000,0.000000,0.000000,0.155287,0.210512,0.015310,0.137790,0.000000,122.000000,2.000000,18.000000,0.000000,0.000000,0.000000,0.000000,0.000000;
#CREDIT:Ben Speirs;
#NOTES:
// measure 0
0000
0000
0000
0000
,  // measure 1
0000
0000
0000
0000
,  // measure 2
0000
0000
0000
0000
,  // measure 3
0000
0000
0000
0000
,  // measure 4
1001
1000
0010
0000
,  // measure 5
0100
0100
0001
0000
,  // measure 6
1000
1000
0001
0000
,  // measure 7
0001
0001
0100
0000
,  // measure 8
0002
0000
0003
0000
,  // measure 9
2000
0000
3000
0000
,  // measure 10
0020
0000
0030
0000
,  // measure 11
0200
0000
0300
0000
,  // measure 12
0001
0001
0000
0000
,  // measure 13
1000
1000
0000
0000
,  // measure 14
0010
0010
0000
0000
,  // measure 15
0010
0010
0000
0000
,  // measure 16
1000
0100
0010
0000
,  // measure 17
0001
0100
0010
0000
,  // measure 18
1000
0001
1000
0000
,  // measure 19
0001
1000
0001
0000
,  // measure 20
0100
0100
0010
0000
,  // measure 21
1000
1000
0100
0000
,  // measure 22
0010
0010
0001
0000
,  // measure 23
0001
0001
0100
0000
,  // measure 24
0001
1000
0001
1000
,  // measure 25
0020
0030
0020
0030
,  // measure 26
1000
0001
1000
0001
,  // measure 27
0200
0300
0200
0300
,  // measure 28
0000
0000
0000
0000
,  // measure 29
0001
0200
0000
0300
,  // measure 30
0010
0000
0010
0010
,  // measure 31
1000
0200
0000
0300
,  // measure 32
0020
0030
0001
0000
,  // measure 33
1000
1000
0100
0010
,  // measure 34
0001
0001
0100
0000
,  // measure 35
0010
0010
0000
0000
,  // measure 36
0010
0010
1000
0001
,  // measure 37
0000
2002
0000
3003
,  // measure 38
0001
0000
1000
0001
,  // measure 39
0100
0100
0000
0000
,  // measure 40
0010
0000
0010
1000
,  // measure 41
0100
0000
0010
0001
,  // measure 42
0100
0000
0000
0001
,  // measure 43
1000
0000
0000
1000
,  // measure 44
0001
0000
0000
0001
,  // measure 45
0100
0100
0010
0000
,  // measure 46
0010
1000
0100
0000
,  // measure 47
1000
1000
0001
0000
,  // measure 48
0001
0001
0100
0000
,  // measure 49
0002
0003
0100
0100
,  // measure 50
0020
0030
0000
1000
,  // measure 51
0200
0300
0000
0010
,  // measure 52
0002
0003
0000
0100
,  // measure 53
0020
0000
0000
0000
,  // measure 54
0000
0000
0000
0000
,  // measure 55
0030
0000
0000
0000
;

//---------------dance-single - ----------------
#NOTEDATA:;
#CHARTNAME:;
#STEPSTYPE:dance-single;
#DESCRIPTION:;
#CHARTSTYLE:;
#DIFFICULTY:Beginner;
#METER:1;
#RADARVALUES:0.092953,0.121714,0.022965,0.000000,0.000000,82.000000,3.000000,0.000000,0.000000,0.000000,0.000000,0.000000,0.000000,0.092953,0.121714,0.022965,0.000000,0.000000,82.000000,3.000000,0.000000,0.000000,0.000000,0.000000,0.000000,0.000000;
#CREDIT:Ben Speirs;
#NOTES:
// measure 0
0000
0000
0000
0000
,  // measure 1
0000
0000
0000
0000
,  // measure 2
0000
0000
0000
0000
,  // measure 3
0000
0000
0000
0000
,  // measure 4
0010
0000
0000
0000
,  // measure 5
0100
0000
0000
0000
,  // measure 6
0001
0000
0000
0000
,  // measure 7
1000
0000
0000
0010
,  // measure 8
0010
0000
0000
0000
,  // measure 9
1000
0000
0000
0001
,  // measure 10
0001
0000
0000
0000
,  // measure 11
0100
0000
0000
0001
,  // measure 12
0001
0000
0000
1000
,  // measure 13
1000
0000
0000
0010
,  // measure 14
0010
0000
0000
0000
,  // measure 15
0100
0000
0000
0000
,  // measure 16
0001
0000
0001
0000
,  // measure 17
0001
0000
0000
0000
,  // measure 18
0100
0100
0000
0000
,  // measure 19
0010
0010
0000
0000
,  // measure 20
1000
0000
1000
0000
,  // measure 21
1000
0000
0000
0100
,  // measure 22
0100
0000
0000
0010
,  // measure 23
0010
0000
0000
0000
,  // measure 24
0001
0000
0001
0000
,  // measure 25
1000
0000
1000
0000
,  // measure 26
0010
0000
0010
0000
,  // measure 27
0100
0100
0100
0100
,  // measure 28
0000
0000
0000
0000
,  // measure 29
1001
0000
0000
0000
,  // measure 30
0001
0000
0000
0000
,  // measure 31
1000
0000
0000
0000
,  // measure 32
0010
0000
0000
0000
,  // measure 33
0100
0100
0000
0000
,  // measure 34
0001
0001
0000
0000
,  // measure 35
1000
0000
1000
0000
,  // measure 36
0010
0000
0010
0010
,  // measure 37
0000
1001
0000
0000
,  // measure 38
0000
0000
0100
0100
,  // measure 39
0100
0000
0000
0000
,  // measure 40
0001
0000
1000
1000
,  // measure 41
1000
0000
0000
0000
,  // measure 42
0010
0000
0000
0100
,  // measure 43
0100
0000
0000
0100
,  // measure 44
0100
0000
0000
0001
,  // measure 45
0001
0000
0000
0000
,  // measure 46
1000
0000
0000
0010
,  // measure 47
0010
0000
0000
0010
,  // measure 48
0010
0000
0000
0000
,  // measure 49
1001
0000
0000
0000
,  // measure 50
0100
0000
0000
0001
,  // measure 51
0001
0000
0000
1000
,  // measure 52
1000
0000
0000
0010
,  // measure 53
0010
0000
0000
0000
;
