#TITLE:A Dream Is a Wish Your Heart Makes;
#SUBTITLE:;
#ARTIST:Disney Grooves;
#TITLETRANSLIT:;
#SUBTITLETRANSLIT:;
#ARTISTTRANSLIT:;
#CREDIT:;
#BANNER:;
#BACKGROUND:;
#LYRICSPATH:;
#CDTITLE:./CDTITLES/DanceDanceRevolution Disney Grooves.png;
#MUSIC:A Dream Is a Wish Your Heart Makes.mp3;
#OFFSET:-0.064;
#SAMPLESTART:13.300;
#SAMPLELENGTH:15.000;
#SELECTABLE:YES;
#BPMS:0.000=105.000;
#STOPS:;
#BGCHANGES:;

//---------------dance-single - ----------------
#NOTES:
     dance-single:
     :
     Beginner:
     1:
     0.057,0.081,0.000,0.000,0.000:
0000
0000
0000
0000
,
0000
0000
0000
0000
,
0000
0000
0000
0000
,
0000
0000
0000
0000
,
0001
0000
0000
0000
,
0001
0000
0000
0000
,
1000
0000
0000
0000
,
0100
0000
0000
0000
,
0001
0000
0000
0000
,
0100
0000
0000
0000
,
1000
0000
0000
0000
,
0100
0000
0000
0000
,
0010
0000
0000
0000
,
0010
0000
0000
0000
,
0001
0000
0000
0000
,
0100
0000
0000
0000
,
1000
0000
1000
0000
,
0001
0000
0000
0000
,
0010
0000
0000
0000
,
0010
0000
0000
0000
,
0001
0000
0000
0000
,
0001
0000
0000
0000
,
0100
0000
0000
0000
,
1000
0000
0000
0000
,
0001
0000
0000
0000
,
1000
0000
0000
0000
,
0001
0000
0000
0000
,
1000
0000
0000
0000
,
0001
0000
0000
0000
,
0001
0000
0000
0000
,
0100
0000
0000
0000
,
1000
0000
0000
0000
,
0010
0000
0000
0000
,
1000
0000
0000
0000
,
0100
0000
0000
0000
,
0001
0000
0001
0000
,
1000
0000
0000
0000
,
0010
0000
0000
0000
,
0010
0000
0000
0000
,
1000
0000
0000
0000
,
0001
0000
0000
0000
;

//---------------dance-single - ----------------
#NOTES:
     dance-single:
     :
     Easy:
     2:
     0.094,0.102,0.000,0.000,0.000:
0000
0000
0000
0000
,
0000
0000
0000
0000
,
0000
0000
0000
0000
,
0000
0000
0000
0000
,
0001
0000
0001
0000
,
0001
0000
0000
0000
,
1000
0000
1000
0000
,
0100
0000
0010
0000
,
0001
0000
0001
0000
,
0100
0000
0010
0000
,
1000
0000
1000
0000
,
0100
0000
0010
0000
,
0010
0000
0010
0000
,
0010
0000
0000
0000
,
0001
0000
0001
0000
,
0100
0000
0010
0000
,
1000
0000
1000
0000
,
0001
0000
0000
0000
,
0010
0000
0010
0000
,
0010
0000
0000
0000
,
0001
0000
0001
0000
,
0001
0000
0000
0000
,
0100
0000
0001
0000
,
0010
0000
1000
0000
,
0001
0000
0000
0000
,
1000
0000
1000
0000
,
0001
0000
0001
0000
,
1000
0000
1000
0000
,
0001
0000
0001
0000
,
0001
0000
0001
0000
,
0100
0000
0010
0000
,
1000
0000
1000
0000
,
0010
0000
0100
0000
,
1000
0000
1000
0000
,
0100
0000
0010
0000
,
0001
0000
0001
0000
,
1000
0000
0000
0000
,
0010
0000
0010
0000
,
0010
0000
0000
0000
,
1000
0000
0001
0000
,
0001
0000
0000
0000
;

//---------------dance-single - ----------------
#NOTES:
     dance-single:
     :
     Medium:
     4:
     0.163,0.187,0.020,0.132,0.000:
0000
0000
0000
0000
,
0000
0000
0000
0000
,
0000
0000
0000
0000
,
0000
0000
0000
0000
,
1000
0010
0100
0000
,
1000
0000
0100
0000
,
0001
0010
1000
0000
,
0010
0000
0100
0000
,
1000
0010
0001
0000
,
0010
0000
0100
0000
,
0001
0010
1000
0000
,
0010
0000
0100
0000
,
1000
0010
0001
0010
,
0100
0001
1000
0000
,
1000
0010
0001
0000
,
0010
0000
0100
0000
,
0001
0010
0001
0000
,
1000
0100
0010
0001
,
0100
0001
0010
0000
,
0100
1000
0010
0000
,
1000
0010
0001
0100
,
2000
0000
0001
3000
,
0020
0000
1000
0030
,
0002
0000
1000
0003
,
2002
0000
0000
3003
,
0200
0000
2000
0300
,
0020
3000
0000
0030
,
0200
0000
0002
0300
,
0020
0003
0000
0030
,
1000
0010
0001
0000
,
0010
0000
0100
0000
,
0001
0010
1000
0010
,
0100
1000
0001
0000
,
0001
0010
1000
0000
,
0010
0000
0100
0000
,
1000
0010
1000
0000
,
0001
0100
0010
1000
,
0100
1000
0010
0000
,
0100
0001
0010
0000
,
0001
0010
1000
0100
,
2002
0000
0000
3003
;

//---------------dance-single - ----------------
#NOTES:
     dance-single:
     :
     Hard:
     6:
     0.219,0.228,0.081,0.132,0.000:
0000
0000
0000
0000
,
0000
0000
0000
0000
,
0000
0000
0000
0000
,
0000
0000
0000
0000
,
0001
0100
0010
0000
,
0001
0000
0010
0000
,
1000
0000
0100
0000
0001
0100
1000
0000
,
0100
0001
0010
1000
,
0001
0000
0100
0000
1000
0100
0001
0000
,
0100
1000
0010
0001
,
1000
0000
0100
0000
0001
0100
1000
0000
,
0100
0001
0010
1000
,
0001
0100
1000
0100
,
0010
1000
0001
0110
,
0001
0000
0100
0000
1000
0100
0001
0000
,
0100
1000
0010
0001
,
1000
0000
0100
0000
1000
0001
0100
0000
,
0001
0010
0100
1000
,
0010
1000
0101
0000
,
0010
0001
1100
0000
,
0001
0100
1000
0010
,
0002
0000
1000
0013
,
0200
0000
0001
0310
,
2000
0000
0001
3010
,
0202
0000
0000
0303
,
0020
0000
0002
0030
,
0200
0003
0000
0300
,
0020
0000
2000
0030
,
0200
3000
0000
0300
,
0001
0000
0100
0000
1000
0100
0001
0000
,
0100
1000
0010
0001
,
1000
0100
0001
0100
,
0010
0001
1000
0110
,
1000
0000
0100
0000
0001
0100
1000
0000
,
0100
0001
0010
1000
,
0001
0000
0100
0000
0001
1000
0100
0000
,
1000
0010
0100
0001
,
0010
0001
1100
0000
,
0010
1000
0101
0000
,
1000
0100
0001
0010
,
2200
0000
0000
3300
;
