#VERSION:0.82;
#TITLE:Symphony;
#SUBTITLE:;
#ARTIST:Clean Bandit feat. Zara Larsson;
#TITLETRANSLIT:;
#SUBTITLETRANSLIT:;
#ARTISTTRANSLIT:;
#GENRE:Pop;
#ORIGIN:;
#CREDIT:;
#BANNER:Symphony.png;
#BACKGROUND:Symphony-bg.png;
#PREVIEWVID:;
#JACKET:jacket.png;
#CDIMAGE:;
#DISCIMAGE:;
#LYRICSPATH:;
#CDTITLE:;
#MUSIC:Symphony.ogg;
#OFFSET:-0.010000;
#SAMPLESTART:52.704372;
#SAMPLELENGTH:13.714000;
#SELECTABLE:YES;
#BPMS:0.000=61.500,
56.000=123.000;
#STOPS:;
#DELAYS:;
#WARPS:;
#TIMESIGNATURES:0.000=4=4;
#TICKCOUNTS:0.000=4;
#COMBOS:0.000=1;
#SPEEDS:0.000=1.000=0.000=0;
#SCROLLS:0.000=1.000;
#FAKES:;
#LABELS:0.000=Song Start;
#BGCHANGES:1.500=Symphony.avi=1.000=0=0=1=====,
99999=-nosongbg-=1.000=0=0=0 // don't automatically add -songbackground-
;
#KEYSOUNDS:;
#ATTACKS:
;

//---------------dance-single - ----------------
#NOTEDATA:;
#CHARTNAME:;
#STEPSTYPE:dance-single;
#DESCRIPTION:;
#CHARTSTYLE:;
#DIFFICULTY:Challenge;
#METER:9;
#RADARVALUES:0.492053,0.572876,0.199261,0.028466,0.491037,452.000000,28.000000,4.000000,0.000000,0.000000,0.000000,0.000000,0.000000,0.492053,0.572876,0.199261,0.028466,0.491037,452.000000,28.000000,4.000000,0.000000,0.000000,0.000000,0.000000,0.000000;
#CREDIT:Ben Speirs;
#NOTES:
0000
0000
0000
0000
,
0000
0000
0000
0000
,
1000
0000
0010
0000
0100
0010
0100
0000
0000
0001
0000
0000
0000
0000
0000
0000
,
1000
0001
0010
0100
1000
0001
0000
0000
,
0001
0000
0100
0000
0010
0100
0010
0000
0000
1000
0000
0000
0000
0000
0000
0000
,
0001
0010
0100
1000
0010
0100
0000
0000
,
0010
1000
0010
1000
0001
1000
0001
0000
0000
0010
0000
0000
0000
0000
0000
0000
,
0001
0010
0001
0010
0100
0000
1000
0001
0000
1000
0000
0000
0000
0000
0000
0000
,
0001
0100
0001
0100
0010
0100
0010
0000
0000
1000
0000
0000
0000
0000
0000
0000
,
1000
0100
1000
0100
0010
0000
0001
1000
0000
0001
0000
0000
0100
0000
0100
0000
,
1001
0000
0000
0010
1010
0000
0000
0000
0001
0000
0000
0100
0101
0000
0001
1000
,
0100
0000
0000
0000
0000
0000
0100
0000
0110
0000
0000
0000
0010
0000
0001
0000
0100
0000
0000
0010
0000
0000
1000
0000
1100
0000
0000
0100
0000
0000
0010
0000
,
0001
0000
0000
0000
0100
0000
0001
0000
1001
0000
0000
0000
1000
0000
0000
0000
0010
0000
0000
0000
1000
0000
0100
0000
1100
0000
0000
1000
0000
0000
0001
0000
,
0001
0000
0000
0000
0100
0000
0100
0000
0010
0000
0000
0000
0000
0000
0000
0000
1000
0000
0010
0000
0100
0000
0001
0000
0010
0000
0001
1000
0001
0000
1000
0000
,
0010
0000
1000
0100
1000
0000
0001
0000
0010
0000
0001
0100
0001
0000
1000
0000
,
0010
0000
0100
0010
0100
0000
0001
0000
1000
0000
0100
0000
0010
0000
0001
1000
,
0010
0000
0010
0100
0000
0100
0001
0000
1000
0000
0100
0000
0010
0000
0010
0001
,
0000
0001
1000
0000
1000
0010
0000
0100
0001
0000
0100
0000
0010
1000
0001
0000
,
0100
0000
0001
0010
0001
0000
1000
0000
0100
0000
1000
0010
1000
0000
0001
0000
,
0100
0000
0010
0100
0010
0000
1000
0000
0001
0000
0010
0000
0100
0000
1000
0001
,
0100
0000
0100
0010
0000
0010
1000
0000
0001
0000
0010
0000
0100
0000
0100
1000
,
0000
1000
0001
0000
0001
0100
0000
0010
1000
0000
0001
0010
0001
0000
1000
0001
,
0100
0000
0000
0010
0000
0000
1000
0000
0000
0000
0000
0000
0100
0000
0000
1000
,
0000
0001
0000
0000
0000
0000
0000
0000
,
1001
0000
1000
0000
0001
0100
0010
1000
,
1100
0000
0000
0000
0001
0000
0000
0000
1000
0000
0010
0000
0100
0000
0001
1000
,
0001
0000
0000
0100
0000
0000
0010
0000
0000
0000
1000
0000
0100
0000
0000
0010
,
0000
0001
0000
0000
0100
0000
0100
0000
,
0101
0000
0000
0100
0000
0000
0110
0000
0000
0000
0010
0000
1000
0000
0100
0000
,
1100
0000
0000
0100
0000
0000
0110
0000
0000
0000
0010
0000
0001
0000
1000
0001
,
1000
0000
0000
0010
0000
0000
0100
0000
0000
0000
0001
0000
0010
0000
0000
0100
,
0000
1000
0000
0000
0001
0000
1001
0000
,
1000
0000
0000
0010
0000
0000
0100
0000
0000
0001
0000
0000
1000
0000
0100
0000
,
0010
0000
0000
0001
0000
0000
1000
0000
0000
0010
0000
0000
0100
0000
0100
0000
,
0001
0000
0000
1000
0000
0000
0001
0000
0000
0010
0000
0000
0100
0000
0100
0000
,
1000
0000
0000
0010
0000
0000
1000
0000
0000
0001
0000
0000
0010
0000
0001
0000
,
0201
0000
0000
0310
0000
0000
0210
0000
0000
0301
0000
0000
0100
0000
0001
0000
,
2001
0000
0000
3100
0000
0000
0010
0000
0000
0001
0000
0000
1000
0000
0010
0000
,
0100
0001
0010
0100
1000
0001
0100
0010
,
1000
0100
1000
0000
0001
0010
0001
0000
1000
0001
1000
0001
0100
0000
0100
0000
,
1001
0000
1000
0100
0010
0000
0001
0000
1000
0000
0001
0100
0010
0000
1000
0000
,
0001
0000
0010
0100
0010
0000
0001
0000
1000
0001
0000
0001
0100
0000
0010
1000
,
0010
0000
0100
0001
0000
1000
0100
0000
0010
0000
0001
0000
1000
0000
0010
0100
,
0000
0010
1000
0000
0001
0010
0000
0010
0100
0000
1000
0001
1000
0000
0001
0000
,
0100
0000
0010
1000
0010
0000
0100
0000
0001
0000
0010
0100
1000
0000
0001
0000
,
0100
0000
0010
0100
0000
0100
0001
0000
1000
0010
0000
0010
0100
0000
0001
1000
,
0001
0000
0100
0010
0000
0010
1000
0000
0001
0000
0010
0000
0001
0000
0100
0010
,
0000
0010
1000
0000
1000
0001
0000
0001
0010
0000
0001
1000
0001
0000
0100
0000
,
0010
1000
0010
1000
0010
0000
0100
0001
0100
0001
0100
0000
0010
0000
1000
0000
,
0001
0000
0010
0000
0100
0000
1000
0000
0001
0100
0000
0100
0010
0000
1000
0100
,
0010
0000
0000
0110
0000
0000
0011
0000
0001
0000
0100
0000
0101
0000
0000
1001
,
0000
0000
1010
0000
0010
0000
0100
0000
0001
0000
1000
0100
0010
0000
0001
0000
,
0100
0001
0100
0001
0100
0000
0010
1000
0010
1000
0010
0000
0100
0000
0001
0000
,
1000
0000
0100
0000
0010
0000
0001
0000
1000
0010
0000
0010
0100
0000
0001
0010
,
0100
0000
0000
0110
0000
0000
1100
0000
1000
0000
0010
0000
1010
0000
0000
1001
,
0000
0000
0101
0000
0100
0000
0010
0000
1000
0000
0001
0010
0100
0000
1000
0010
,
0100
0000
0000
0001
0000
0000
1000
0000
0000
0000
0100
0000
0100
0000
0000
0010
,
0000
0002
0000
0000
0003
0000
0000
0000
;

//---------------dance-single - ----------------
#NOTEDATA:;
#CHARTNAME:;
#STEPSTYPE:dance-single;
#DESCRIPTION:;
#CHARTSTYLE:;
#DIFFICULTY:Hard;
#METER:7;
#RADARVALUES:0.324308,0.388737,0.113864,0.099631,0.160121,289.000000,16.000000,14.000000,0.000000,0.000000,0.000000,0.000000,0.000000,0.324308,0.388737,0.113864,0.099631,0.160121,289.000000,16.000000,14.000000,0.000000,0.000000,0.000000,0.000000,0.000000;
#CREDIT:Ben Speirs;
#NOTES:
0000
0000
0000
0000
,
0000
0000
0000
0000
,
0001
1000
0010
0010
0000
0000
0000
0000
,
1000
0100
0010
0010
0002
0000
1003
0000
,
0001
0100
0010
0010
0000
0000
0000
0000
,
1000
0100
1000
1000
0020
0000
0130
0000
,
0001
0000
0000
0100
0000
0000
0010
0000
0000
1000
0000
0000
0000
0000
0000
0000
,
0100
1000
0010
0000
0100
0001
1000
0000
,
0001
0000
0000
1000
0000
0000
0100
0000
0000
0010
0000
0000
0000
0000
0000
0000
,
0100
1000
0010
0000
1000
0001
0010
0000
,
1001
0000
1000
0000
0100
0000
1000
0010
,
0100
0000
0010
1000
0001
0000
1000
0100
,
0110
0000
0010
0000
0001
0000
0100
0010
,
1000
0000
0001
0000
2000
0000
3000
1100
,
0101
0000
1000
0000
0010
1000
0100
0000
,
1000
0000
0001
0000
0010
0001
0100
0000
,
0001
0000
0000
0010
0000
0000
0100
0000
0000
0000
0000
0000
1000
0000
0000
0010
,
0000
0100
0000
0000
0001
1000
0001
0000
,
1100
0000
0001
0000
0100
0001
1000
0000
,
0010
0000
1000
0000
0001
0010
0100
0000
,
1000
0000
0000
0100
0000
0000
0010
0000
0000
0000
0000
0000
0001
0000
0000
1000
,
0000
0010
0000
0000
0100
0100
0010
0000
,
0100
0000
0000
0001
0000
0000
1000
0000
,
0000
0020
0000
0000
0030
0000
0000
0000
,
1000
0000
1100
0000
1001
0000
1000
0001
,
0100
0101
1001
0000
,
0001
0000
0000
0010
0000
0000
0001
0000
0000
0000
0000
0000
1000
0000
0000
0010
,
0000
1000
0000
0000
0010
0000
0010
0000
,
1000
1100
0001
0101
,
1000
1010
0001
0011
,
1000
0000
0000
0100
0000
0000
0010
0000
0000
0000
0000
0000
0001
0000
0000
1000
,
0000
0020
0000
0000
0130
0000
0100
0000
,
0002
0000
0103
0001
1000
0000
0010
0000
,
2000
0000
3100
1000
0001
0000
0010
0001
,
0200
0000
0300
0000
0010
0100
0010
0000
,
1000
0000
0001
0000
1000
0100
0010
0001
,
1000
0000
0000
1000
0000
0000
1000
0000
0000
1000
0000
0000
1000
0000
0000
0000
,
0001
0000
0000
0001
0000
0000
0001
0000
0000
0001
0000
0000
0001
0000
0000
0000
,
0100
0000
0000
0001
0000
0000
0010
0000
0000
0100
0000
0000
1000
0000
1000
0000
,
0001
0000
0100
0000
0010
0000
1000
0000
0100
0000
1000
0001
1000
0000
0000
0000
,
1100
0000
0000
0100
0010
0000
0000
0010
0001
0000
0000
0001
1000
0000
0000
1000
,
0010
0000
0000
0010
0100
0000
0000
0100
0001
0000
0000
0001
1000
0000
0001
0100
,
0001
0000
0000
0100
0000
0000
0010
0000
0000
0000
1000
0000
1000
0000
0000
0100
,
0000
0020
0000
0000
0031
0010
0100
0000
,
0011
0000
0000
0010
0001
0000
0000
0001
0100
0000
0000
0100
0010
0000
0000
0010
,
1000
0000
0000
1000
0001
0000
0000
0001
0010
0000
0000
0010
0001
0000
1000
0100
,
1000
0000
0000
0001
0000
0000
0100
0000
0000
0000
0001
0000
1000
0000
0000
0010
,
0000
0200
0000
0000
0310
0100
0001
0000
,
0100
0010
0100
1000
0100
0010
0100
0000
,
0001
0100
0001
0010
0001
1000
0001
0000
,
1000
0000
0000
0001
0000
0000
0100
0000
0000
0000
0010
0000
0010
0000
0000
0100
,
0000
0001
0000
0000
0100
0001
1000
0000
,
0010
1000
0010
0100
0010
0001
0010
0100
,
0001
0000
0010
0000
0100
0000
1000
0000
0001
0000
0000
0000
1000
0000
0100
0010
,
0100
0000
0000
0010
0000
0000
0001
0000
0100
0000
0010
0000
1000
0000
0000
0001
,
0000
2000
0000
0000
3001
1000
0010
0000
,
2010
0000
0000
0000
0000
0000
3002
0000
0000
0000
0000
0000
0013
0000
0000
0001
,
0000
0200
0000
0000
0300
0000
0000
0000
;

//---------------dance-single - ----------------
#NOTEDATA:;
#CHARTNAME:;
#STEPSTYPE:dance-single;
#DESCRIPTION:;
#CHARTSTYLE:;
#DIFFICULTY:Medium;
#METER:4;
#RADARVALUES:0.247043,0.306898,0.085398,0.092514,0.000000,218.000000,12.000000,13.000000,0.000000,0.000000,0.000000,0.000000,0.000000,0.247043,0.306898,0.085398,0.092514,0.000000,218.000000,12.000000,13.000000,0.000000,0.000000,0.000000,0.000000,0.000000;
#CREDIT:Ben Speirs;
#NOTES:
0000
0000
0000
0000
,
0000
0000
0000
0000
,
1000
0000
0001
0100
0000
0000
0000
0000
,
0001
0010
0100
0000
1000
0000
0000
0000
,
0001
0000
0100
0010
0000
0000
0000
0000
,
1000
0100
0010
0001
1000
0000
0000
0000
,
0010
0010
0100
0100
0000
0000
0000
0000
,
0001
0010
0100
0000
1000
0000
0000
0000
,
0001
0001
0100
0100
0000
0000
0000
0000
,
0010
1000
0100
0000
0010
0000
0001
0000
,
1001
0000
1000
0000
0100
0000
1000
0010
,
1000
0000
0001
0010
0001
0000
0100
0100
,
0020
0130
0200
0301
,
0002
1003
1000
0000
,
1100
0001
1000
0010
,
0100
0100
0010
0000
,
1000
0000
0001
0010
0001
0000
0100
0000
,
0010
1000
0010
0000
0100
0000
0000
0000
,
0101
0100
0010
1000
,
0001
0001
0010
0000
,
0001
0000
0100
0001
0100
0000
0001
0000
,
1000
0100
1000
0000
0001
0000
0000
0000
,
0200
0000
0300
0000
,
0000
0000
0000
0000
,
0010
0010
1000
0100
,
0010
0010
0001
0000
,
1000
0100
1000
0000
0001
0000
0001
0100
,
0001
1000
0000
0000
,
0010
1001
0000
1001
,
0100
1001
0000
1001
,
0001
0000
0100
0010
0100
0000
0001
0000
,
0010
0100
0010
0000
0001
0000
1000
0000
,
0200
0000
0300
0000
1000
0000
0010
0100
,
0020
0000
0030
0000
0100
0000
0001
0100
,
0002
0000
0003
0000
0100
0000
0010
1000
,
0020
0030
1000
0100
,
1001
1000
0100
0010
,
0011
0001
0100
0010
,
2000
0010
0001
3100
,
0001
1000
0001
1000
0010
0100
0010
0000
,
0201
0310
1000
0100
,
0010
0010
0001
0000
,
1000
0100
0010
0000
0001
0000
1000
0100
,
0010
0001
1000
0000
,
1020
0130
0001
1000
,
0001
0010
0100
0000
,
0010
0001
0100
0000
0001
0000
0010
0001
,
0100
0010
0100
0000
,
1001
0000
0000
0000
1000
0000
0010
0100
,
0010
0000
1000
0001
,
0010
0100
0010
0000
0001
0000
0100
0010
,
0100
0001
1000
1000
,
0020
0000
0030
0000
1000
0000
0001
0010
,
0001
0100
0010
0000
,
1000
0010
0100
0000
0001
0000
1000
0010
,
0100
0001
1000
1000
,
0001
0000
0000
0100
0000
0000
0010
0000
,
0000
2000
0000
0000
3000
0000
0000
0000
;

//---------------dance-single - ----------------
#NOTEDATA:;
#CHARTNAME:;
#STEPSTYPE:dance-single;
#DESCRIPTION:;
#CHARTSTYLE:;
#DIFFICULTY:Easy;
#METER:3;
#RADARVALUES:0.152496,0.245518,0.021349,0.120980,0.000000,130.000000,3.000000,17.000000,0.000000,0.000000,0.000000,0.000000,0.000000,0.152496,0.245518,0.021349,0.120980,0.000000,130.000000,3.000000,17.000000,0.000000,0.000000,0.000000,0.000000,0.000000;
#CREDIT:Ben Speirs;
#NOTES:
0000
0000
0000
0000
,
0000
0000
0000
0000
,
1000
0010
0010
0000
,
1000
0100
0010
0000
,
0001
0100
0100
0000
,
0001
1000
0010
0000
,
1000
0000
0100
0100
0000
0000
0000
0000
,
0010
0001
1000
0000
,
0001
0000
0100
0100
0000
0000
0000
0000
,
0001
1000
0010
0000
,
2002
3003
1000
0100
,
0200
0300
1000
0001
,
0020
0030
0002
0003
,
2000
3000
0000
0000
,
1001
0000
0000
0000
,
0001
0000
0000
0000
,
1000
0100
1000
0100
,
1000
0100
1000
0000
,
0010
0000
0000
0000
,
1000
0000
0000
0000
,
0001
0100
0001
0100
,
0001
0100
0001
0000
,
0100
0000
0000
0000
,
0000
0000
0000
0000
,
0010
0000
0000
0010
,
1000
0000
0000
0000
,
1000
0100
1000
0001
,
0100
0001
0000
0000
,
0000
0001
0000
1000
,
0000
0010
0000
0000
,
1000
0010
1000
0001
,
0010
0001
0000
0000
,
0200
0300
0000
0100
,
0002
0003
0000
0001
,
2000
3000
0000
1000
,
0020
0030
0000
0010
,
2000
3000
0002
0003
,
0200
0300
0020
0030
,
1000
0100
0010
0001
,
0100
0100
0010
0010
,
2002
3003
0000
0000
,
0001
0000
0000
0000
,
0100
0001
0100
0001
,
0100
0001
0100
0000
,
0001
0000
0000
0000
,
1000
0000
0000
0000
,
0010
1000
0010
1000
,
0010
1000
0010
0000
,
1000
0000
0001
0000
,
0010
0000
0001
0000
,
0100
0100
0100
0010
,
0010
0010
0000
0000
,
1000
0000
0001
0000
,
0010
0000
0001
0000
,
1000
1000
1000
0001
,
0001
0001
0000
0000
,
1000
0000
0000
0020
,
0000
0000
0030
0000
;

//---------------dance-single - ----------------
#NOTEDATA:;
#CHARTNAME:;
#STEPSTYPE:dance-single;
#DESCRIPTION:;
#CHARTSTYLE:;
#DIFFICULTY:Beginner;
#METER:1;
#RADARVALUES:0.090481,0.121158,0.035582,0.000000,0.000000,84.000000,5.000000,0.000000,0.000000,0.000000,0.000000,0.000000,0.000000,0.090481,0.121158,0.035582,0.000000,0.000000,84.000000,5.000000,0.000000,0.000000,0.000000,0.000000,0.000000,0.000000;
#CREDIT:Ben Speirs;
#NOTES:
0000
0000
0000
0000
,
0000
0000
0000
0000
,
0001
0000
0000
0000
,
0100
0000
0000
0000
,
0010
0010
0010
0000
,
1000
0000
1000
0000
,
0100
0000
0000
0000
,
0010
0000
0010
0000
,
0001
0001
0001
0000
,
0100
0000
0100
0000
,
0010
0000
1000
0000
,
0100
0100
0100
0000
,
0100
0000
0010
0000
,
0001
0000
0000
0000
,
1001
0000
0000
0000
,
1000
0000
0000
0000
,
0010
0010
0000
0010
,
0010
0000
0000
0000
,
1000
0000
0000
0000
,
0001
0000
0000
0000
,
0100
0100
0000
0100
,
0100
0000
0000
0000
,
0010
0000
0000
0000
,
0000
0000
0000
0000
,
1000
0000
0000
0100
,
0100
0000
0000
0000
,
1000
0000
0000
0000
,
0001
0000
0000
0000
,
0000
0001
0000
0001
,
0000
0001
0000
0000
,
0100
0100
0000
0100
,
0100
0000
0000
0000
,
1001
0000
0000
0000
,
1000
0000
0000
0000
,
0010
0000
0010
0000
,
0010
0000
0000
0000
,
1000
0000
0000
0000
,
0001
0000
0000
0000
,
1001
0000
0000
0000
,
0100
0000
0100
0000
,
0110
0000
0000
0000
,
0010
0000
0000
0000
,
1000
1000
0000
1000
,
1000
0000
0000
0000
,
0100
0000
0000
0000
,
0010
0000
0000
0000
,
0001
0001
0000
0001
,
0001
0000
0000
0000
,
1001
0000
0000
0000
,
1000
0000
0000
0000
,
0010
0010
0000
0010
,
0010
0000
0000
0000
,
1000
0000
0000
0000
,
0001
0000
0000
0000
,
0100
0100
0000
0100
,
0100
0000
0000
0000
,
0010
0000
0000
0100
;

//---------------dance-double - ----------------
#NOTEDATA:;
#CHARTNAME:;
#STEPSTYPE:dance-double;
#DESCRIPTION:;
#CHARTSTYLE:;
#DIFFICULTY:Challenge;
#METER:8;
#RADARVALUES:0.409706,0.487834,0.185028,0.099631,0.298892,363.000000,26.000000,14.000000,0.000000,0.000000,0.000000,0.000000,0.000000,0.409706,0.487834,0.185028,0.099631,0.298892,363.000000,26.000000,14.000000,0.000000,0.000000,0.000000,0.000000,0.000000;
#CREDIT:Ben Speirs;
#NOTES:
// measure 0
00000000
00000000
00000000
00000000
,  // measure 1
00000000
00000000
00000000
00000000
,  // measure 2
00000001
00000000
00000100
00000000
00000010
00001000
00000010
00000000
00000000
00000100
00000000
00000000
00000000
00000000
00000000
00000000
,  // measure 3
00000001
00000010
00000100
00001000
00000010
00010000
00000000
00000000
,  // measure 4
00001000
00010000
00001000
00000000
00010000
00000000
00001000
00000000
00000000
00100000
00000000
00000000
00000000
00000000
00000000
00000000
,  // measure 5
00010000
01000000
00100000
10000000
00010000
00000000
00000000
00000000
,  // measure 6
10000000
01000000
10000000
01000000
10000000
00010000
10000000
00000000
00000000
00010000
00000000
00000000
00000000
00000000
00000000
00000000
,  // measure 7
10000000
00010000
01000000
00100000
01000000
00010000
00000000
00000000
,  // measure 8
00100000
00010000
00100000
00010000
00100000
00001000
00100000
00000000
00000000
00001000
00000000
00000000
00000000
00000000
00000000
00000000
,  // measure 9
00010000
00000100
00001000
00000010
00000100
00000100
00000010
00001000
,  // measure 10
00001100
00000000
00000000
00000000
00000101
00000000
00000000
00000000
00000010
00000000
00000100
00000010
00001000
00000000
00000100
00000010
,  // measure 11
00000002
00000000
00000000
00000000
00000103
00000000
00000010
00001000
00000010
00000000
00001000
00000100
00001000
00000000
00000100
00000000
,  // measure 12
00020100
00000000
00031000
00010000
00201000
00000000
00310000
10000000
,  // measure 13
10200000
00000000
01300000
00010000
10000000
00000000
00000000
00100000
,  // measure 14
10010000
00000000
10000000
00000000
01000000
00100000
00010000
00000000
,  // measure 15
10000000
00000000
00000000
00000000
00100000
00000000
00000000
00000000
01000000
00000000
00010000
00000000
00100000
00000000
00010000
10000000
,  // measure 16
00010000
00000000
00000000
01000000
00000000
00000000
00001000
00000000
00000000
00000000
00010000
00000000
00000100
00000000
00000000
00001000
,  // measure 17
00000000
00000020
00000000
00000000
00000130
00000010
00001000
00000000
,  // measure 18
00000101
00000000
00000000
00000100
00000010
00000000
00001000
00000000
00000100
00000000
00000000
00000000
00001100
00000000
00000000
00000000
,  // measure 19
00000001
00000000
00000000
00000001
00001000
00000000
00000000
00000000
00000010
00001000
00000000
00001000
00000001
00000000
00000000
00000000
,  // measure 20
00000010
00000000
00000000
00000001
00000000
00000000
00001000
00000000
00000000
00000000
00000100
00000000
00010000
00000000
00000000
00001000
,  // measure 21
00000000
00000000
00200000
00000000
00000000
00000000
00000000
00000000
01300000
00000000
00100000
00000000
00010000
00000000
10000000
01000000
,  // measure 22
10000000
00000000
00000000
00000000
00000000
00000000
00010000
00000000
00000000
00000000
00000000
00000000
01000000
00000000
00000000
00001000
,  // measure 23
00000000
00020000
00000000
00000000
00030000
00000000
00000000
00000000
,  // measure 24
00011000
00000000
00010100
00000000
00001100
00001000
00000010
00000100
,  // measure 25
00000110
00000000
00000000
00000000
00001010
00000000
00000000
00000000
00001001
00000000
00000000
00000000
00000000
00000000
00001000
00000100
,  // measure 26
00001000
00000000
00000000
00000100
00000000
00000000
00010000
00000000
00000000
00000000
00001000
00000000
00001000
00000000
00000000
00100000
,  // measure 27
00000000
00000000
00010000
02000000
00000000
00000000
00000000
00000000
00100000
00000000
00000000
00000000
03100000
00000000
00000000
00000000
,  // measure 28
01000000
00000000
01100000
00100000
10000000
00000000
10100000
10000000
,  // measure 29
01000000
00000000
00000000
00000000
11000000
00000000
01000000
00000000
00100000
00000000
00000000
00000000
00010000
00000000
00100000
00010000
,  // measure 30
00100000
00000000
00000000
00001000
00000000
00000000
00010000
00000000
00000000
00000000
00000100
00000000
00000100
00000000
00000000
00001000
,  // measure 31
00000000
00000000
00000010
00000200
00000000
00000000
00000000
00000000
00000310
00000000
00000000
00000000
00000010
00000000
00000000
00000000
,  // measure 32
00000110
00000000
00000000
00000100
00000000
00000000
00000001
00000000
00000000
00000001
00000000
00000000
00001000
00000000
00000100
00000000
,  // measure 33
00010000
00000000
00000000
00010000
00000000
00000000
00001000
00000000
00000000
00001000
00000000
00000000
00100000
00000000
00010000
00000000
,  // measure 34
01000000
00000000
00000000
01000000
00000000
00000000
00100000
00000000
00000000
00100000
00000000
00000000
10000000
00000000
00100000
00000000
,  // measure 35
01000000
00000000
00000000
00010000
00000000
00000000
00100000
00000000
01000000
00000000
00000000
10000000
00000000
00000000
00100000
00000000
,  // measure 36
02100000
00000000
00000000
03010000
00000000
00000000
01020000
00000000
00000000
10030000
00000000
00000000
00100000
00000000
10000000
00000000
,  // measure 37
21000000
00000000
00000000
30010000
00000000
00000000
10000000
00000000
00000000
01000000
00000000
00000000
00100000
00000000
00010000
00000000
,  // measure 38
01000000
00010000
00100000
00001000
00010000
00000100
00001000
00000010
,  // measure 39
00000100
00000001
00000010
00000100
00001000
00000010
00000100
00000010
,  // measure 40
00001010
00000000
00000000
00001000
00000100
00000000
00010000
00000000
00001000
00000000
00100000
00000000
00010000
00000000
01000000
00000000
,  // measure 41
00100000
00000000
00000000
00100000
10000000
00000000
01000000
00000000
00100000
00000000
00010000
00000000
01000000
00000000
00010000
10000000
,  // measure 42
00010000
00000000
00000000
10000000
00000000
00000000
01000000
00000000
10000000
00000000
00100000
00000000
01000000
00000000
00000000
00010000
,  // measure 43
00000000
00200000
00000000
00000000
00310000
00100000
00001000
00000000
,  // measure 44
00101000
00000000
00000000
00100000
00001000
00000000
00010000
00000000
00000100
00000000
00001000
00000000
00000010
00000000
00000100
00000000
,  // measure 45
00000001
00000000
00001000
00000100
00001000
00000000
00000010
00000000
00000100
00000000
00000001
00001000
00000001
00000000
00000100
00000010
,  // measure 46
00000100
00000000
00000000
00000001
00000000
00000000
00000010
00000000
00000100
00000000
00000010
00000000
00001000
00000000
00000000
00000010
,  // measure 47
00000000
00000000
00000001
00000000
00000100
00000000
00000000
00000000
00000010
00000000
00000000
00000100
00000010
00000000
00001000
00000000
,  // measure 48
00001100
00000000
00000000
00000100
00010000
00000000
00000000
00010000
00001000
00000000
00000000
00001000
00100000
00000000
00010000
00000000
,  // measure 49
01000000
00000000
00100000
10000000
00100000
00000000
01000000
00000000
00010000
10000000
00000000
10000000
00010000
00000000
01000000
00100000
,  // measure 50
01000000
00000000
00000000
00010000
00000000
00000000
00100000
00000000
01000000
00000000
00100000
00000000
00001000
00000000
00000000
00010000
,  // measure 51
00000000
00000000
00000200
00000000
00000000
00000000
00000000
00000000
00001300
00000000
00000010
00000100
00000010
00000000
00001000
00000000
,  // measure 52
00000001
00000000
00000000
00000001
00000010
00000000
00000000
00000010
00000100
00000000
00000000
00000100
00001000
00000000
00000010
00000100
,  // measure 53
00000010
00000000
00000000
00000010
00001000
00000000
00001000
00000000
00000000
00000100
00000000
00010000
00001000
00000000
00100000
00010000
,  // measure 54
00100000
00000000
00010000
01000000
00000000
01000000
00100000
00000000
10000000
00000000
00010000
00000000
01000000
00000000
00000000
00010000
,  // measure 55
10000000
00000000
01000000
00000000
10000000
00100000
00000000
00000000
00100000
00000000
10000000
00010000
10000000
00000000
00010000
00100000
,  // measure 56
00001000
00000000
00000000
00000000
00000000
00000000
00011000
00000000
00000000
00000000
00000000
00000000
00000100
00000000
00000000
00001000
,  // measure 57
00000000
00000110
00000000
00000000
00000000
00000000
00000000
00000000
;
