#TITLE:Why You Always Lying?;
#SUBTITLE:;
#ARTIST:Fraser;
#TITLETRANSLIT:;
#SUBTITLETRANSLIT:;
#ARTISTTRANSLIT:;
#GENRE:Pants on Fire;
#CREDIT:;
#BANNER:Why You Always Lying.png;
#BACKGROUND:Why You Always Lying-bg.png;
#LYRICSPATH:;
#CDTITLE:;
#MUSIC:Why You Always Lying.ogg;
#OFFSET:-0.053000;
#SAMPLESTART:24.181046;
#SAMPLELENGTH:13.714000;
#SELECTABLE:YES;
#BPMS:0.000000=99.500000
;
#STOPS:
;
#BGCHANGES:0.000=Why You Always Lying.avi=1.000=0=0=1=====,
99999=-nosongbg-=1.000=0=0=0 // don't automatically add -songbackground-
;
#KEYSOUNDS:;
#ATTACKS:;

//---------------dance-single - ----------------
#NOTES:
     dance-single:
     :
     Hard:
     7:
     0.397888,0.357413,0.163836,0.170960,0.053425,344.000000,23.000000,24.000000,0.000000,0.000000,0.000000,0.397888,0.357413,0.163836,0.170960,0.053425,344.000000,23.000000,24.000000,0.000000,0.000000,0.000000:
0000
0000
0000
0000
,
0000
0000
0000
0000
,
1000
0100
1100
0000
0001
0100
0101
0000
,
1000
0000
0001
0000
0010
0001
1000
0000
,
0010
1000
1010
0000
0001
0010
0011
0000
,
1000
0000
0010
0100
0200
0000
0301
0000
,
0101
0100
0010
1000
0100
0010
0001
0000
,
1100
0100
1000
0010
0100
0001
1000
0000
,
0001
0100
0002
0000
1003
0100
2000
0000
,
3010
0100
0001
1000
0100
0010
0001
0000
,
1000
0100
0001
0100
2000
0000
3001
0000
,
1000
0000
0010
0100
0010
0000
1000
0000
0100
0000
0010
0000
0001
0000
0000
0000
,
1000
0010
0100
0001
1000
0100
0010
0000
,
0001
0000
0001
0200
0000
0000
0310
0000
2000
0000
0000
0000
3001
0000
0000
0000
,
0001
0000
0100
0000
1000
0000
0100
0000
0001
0000
0000
0001
1000
0000
0000
0000
,
1000
0000
0010
0000
0001
0000
0010
0000
1000
0000
0000
1000
0100
0000
0000
0000
,
0010
0001
0010
0001
1000
0100
1000
0002
,
0000
0100
0200
0000
0303
0000
1001
0000
,
0010
1000
0010
1000
0001
0100
0001
0000
,
1000
0100
0010
0001
1000
0000
0001
0000
,
0100
0010
0100
0001
1000
0100
0010
0000
,
0001
1000
0001
0000
1100
0000
0101
0000
,
1000
0100
1000
0001
1000
0010
1000
0001
,
0002
0000
0103
0010
2000
0000
3100
0010
,
0001
0000
1000
1000
0001
1000
0010
0000
,
0100
0000
0001
0000
1000
0000
0100
0000
0010
0000
0000
0010
0000
0000
0001
0000
,
1000
0100
1000
0100
0010
0010
0001
0000
,
1000
0010
1000
0001
0100
0000
0010
1000
,
0002
0000
0013
0001
1000
1000
0100
0010
,
0002
0000
0103
0010
2000
0000
3001
0000
,
0001
0010
1000
0010
0002
0000
1003
0000
,
0001
0000
0100
0010
0100
0000
0001
0000
0010
0000
0100
0000
1000
0000
0000
0000
,
0001
0100
0010
1000
0001
0010
0100
0000
,
1000
0000
1000
0020
0000
0000
0130
0000
0002
0000
0000
0000
1003
0000
0000
0000
,
1000
0000
0010
0000
0001
0000
0010
0000
1000
0000
0000
1000
0001
0000
0000
0000
,
0001
0000
0100
0000
1000
0000
0100
0000
0001
0000
0000
0001
0010
0000
0000
0000
,
0100
1000
0100
1000
0001
0010
0001
2000
,
0000
0010
0020
0000
3030
0000
1001
0000
,
0010
0000
1000
0100
1000
0000
0010
0000
1000
0000
0100
0000
0010
0000
0000
0000
,
0001
0000
0100
0010
0100
0000
0001
0000
1000
0000
0100
0000
0010
0000
0000
0000
,
0001
0100
0010
1000
0100
0010
0001
0000
,
0011
0000
0000
1010
0000
0000
0001
0000
1002
0000
0000
0000
0103
0000
0000
0000
,
0010
0000
1000
0000
0010
0000
1000
0000
0001
0000
0000
0001
0100
0000
0000
0000
,
0001
0000
0010
0000
0001
0000
0010
0000
0100
0000
0000
0100
1000
0000
0000
0000
,
1000
0010
0100
0001
1000
0100
0010
0002
,
0000
2003
0200
0000
0000
0000
3300
0000
,
0001
0100
0010
0100
1000
0100
0000
0110
,
0000
0010
1000
0100
0010
0001
0001
0000
,
1000
0010
0100
0010
0001
0010
0000
0110
,
0000
0100
0001
0010
0100
1000
0001
0000
,
1000
0100
1000
0001
0100
0001
1000
1010
,
0000
0011
0000
1100
0000
0101
0000
1000
,
0001
0100
0001
1000
0100
1000
0001
0011
,
0000
1010
0000
1100
0000
0101
0000
0000
,
1000
0010
0001
0010
2000
0000
3001
0000
,
0000
0000
0100
0010
0100
0000
0001
0000
2000
0000
0000
0000
3100
0000
0000
0000
;

//---------------dance-single - ----------------
#NOTES:
     dance-single:
     :
     Medium:
     5:
     0.296127,0.297844,0.185206,0.156713,0.000000,243.000000,26.000000,22.000000,0.000000,0.000000,0.000000,0.296127,0.297844,0.185206,0.156713,0.000000,243.000000,26.000000,22.000000,0.000000,0.000000,0.000000:
0000
0000
0000
0000
,
0000
0000
0000
0000
,
2000
3200
0320
0031
,
0200
0000
0310
1000
0001
0000
0000
0000
,
0002
0023
0230
1300
,
0001
0000
1000
0010
0200
0000
0300
0000
,
0001
0000
1000
0000
0010
0100
0001
0000
,
1000
0100
1000
0000
0001
0000
0000
0000
,
1000
0000
0001
0000
0100
0010
1000
0000
,
0001
0010
0001
0000
1000
0000
0000
0000
,
0001
0100
0001
0100
0002
0000
1003
0000
,
0000
1100
0110
0011
,
1000
0100
1000
0100
2000
0000
3000
0000
,
0010
1000
1010
0101
,
1000
0100
1000
0001
1000
0000
0000
0000
,
0001
0100
0001
1000
0001
0000
0000
0000
,
2000
3010
0200
0301
,
1000
0100
0020
0000
0000
0000
0031
0000
,
1100
0001
1000
0000
,
0101
1000
0001
0000
,
1000
0010
1000
0000
0001
0010
0001
0000
,
1000
0001
0100
0000
,
0010
0000
0010
0000
1000
0100
0010
0001
,
0000
1000
0001
0100
,
0010
0000
1000
0001
1000
0000
0000
0000
,
0010
0100
0001
0000
,
1010
0001
0100
1000
,
0100
1000
0100
1000
0001
0000
0000
0000
,
0011
1000
0100
0001
,
1000
0100
1000
0000
0001
0100
0001
0000
,
1000
0010
1000
0010
2000
0000
3001
0000
,
0000
1010
0110
0101
,
0001
0100
0001
0100
0001
0000
0000
0000
,
2000
3001
1001
0110
,
0001
0010
0001
0010
0200
0000
1300
0000
,
0000
0000
1000
0010
2000
0000
3001
0000
,
0100
0000
0000
0000
0001
0010
0100
2000
,
0000
3001
0000
1001
,
0100
0100
0100
0000
0010
0000
1000
0000
,
0100
0010
0001
0010
0001
0000
0000
0000
,
1100
0000
0001
0100
1000
0000
0000
0000
,
0010
1000
0010
0000
1001
0000
0000
0000
,
0100
0000
0001
1000
0100
0000
0000
0000
,
0010
0000
0001
1000
0010
0000
0000
0000
,
0100
0001
0100
0000
0010
1000
0010
0000
,
2002
0000
0000
3003
,
0010
0100
0010
0100
0010
0100
0000
0110
,
0000
0110
0000
0001
1000
0000
0001
0000
,
1000
0100
1000
0100
1000
0100
0000
1100
,
0000
1001
0000
1000
0001
0000
0100
0000
,
0010
1000
0010
1000
0010
1000
0000
1010
,
0000
1010
0000
1000
0001
0000
0010
0000
,
0001
0010
0001
0010
0001
0010
0000
0011
,
0000
1001
0000
1000
0100
0000
1000
0000
,
0001
0100
0010
1000
0002
0000
1003
0000
,
0000
1000
0010
0100
0002
0000
1003
0000
;

//---------------dance-single - ----------------
#NOTES:
     dance-single:
     :
     Easy:
     3:
     0.176048,0.198563,0.014247,0.156713,0.000000,149.000000,2.000000,22.000000,0.000000,0.000000,0.000000,0.176048,0.198563,0.014247,0.156713,0.000000,149.000000,2.000000,22.000000,0.000000,0.000000,0.000000:
0000
0000
0000
0000
,
0000
0000
0000
0000
,
0100
0100
0010
0000
,
1000
0010
0001
0000
,
0100
0100
0010
0000
,
0001
0100
1000
0000
,
0010
1000
0010
0000
,
1000
0100
0010
0000
,
0001
0100
0001
0000
,
0010
0001
1000
0000
,
0010
0100
0002
0003
,
0000
0010
0200
0300
,
1000
0100
0010
0000
,
0001
1000
0020
0030
,
0100
0100
0002
0003
,
1000
1000
0200
0300
,
0010
0000
0001
1000
,
0020
0000
0030
0000
,
1000
0000
0001
0000
,
0100
0100
0001
0000
,
1000
0000
0010
0010
,
0100
0000
0001
1000
,
0001
0000
1000
0000
,
0010
0010
0100
0100
,
0001
0000
1000
0000
,
0100
0100
1000
1000
,
0010
0000
1000
0000
,
0001
0000
0100
0000
,
0001
0010
0100
1000
,
0001
0000
1000
0000
,
0010
0100
0002
0003
,
0000
1000
0200
0300
,
0010
0001
2000
3000
,
0010
1000
0002
0003
,
0100
0001
2000
3000
,
0100
0000
0010
0010
,
0002
0003
1000
0001
,
0200
0000
0300
0000
,
0001
0100
0020
0030
,
0000
1000
0200
0300
,
0010
0001
2000
3000
,
0010
0100
0002
0003
,
1000
0100
2000
3000
,
0000
0001
0200
0300
,
0001
0010
0100
1000
,
0020
0000
0030
0000
,
1001
0000
0100
0100
,
0100
0100
0010
0000
,
1001
0000
0010
0010
,
0010
0010
0100
0000
,
0001
0010
0001
0100
,
0010
0000
0010
0000
,
1000
0100
1000
0010
,
0100
0000
0100
0000
,
0001
1000
0200
0300
,
0000
1000
0020
0030
;

//---------------dance-single - ----------------
#NOTES:
     dance-single:
     :
     Beginner:
     1:
     0.105832,0.118603,0.000000,0.000000,0.000000,104.000000,0.000000,0.000000,0.000000,0.000000,0.000000,0.105832,0.118603,0.000000,0.000000,0.000000,104.000000,0.000000,0.000000,0.000000,0.000000,0.000000:
0000
0000
0000
0000
,
0000
0000
0000
0000
,
1000
0000
0001
0000
,
0100
0100
0000
0000
,
0001
0000
1000
0000
,
0010
0010
0000
0000
,
1000
0000
0100
0000
,
0010
0010
0000
0000
,
0001
0000
0100
0000
,
0010
0010
0000
0000
,
1000
1000
1000
0000
,
0000
0001
0001
0000
,
0100
0000
0000
0000
,
0010
0010
0010
0000
,
1000
0000
1000
0000
,
0001
0000
0001
0000
,
0100
0000
0000
0000
,
0010
0010
0000
0000
,
1000
0000
0000
0000
,
0001
0000
1000
0000
,
0010
0000
0000
0000
,
0100
0000
0100
0000
,
0001
0000
1000
0000
,
0100
0000
0000
0000
,
1000
1000
1000
0000
,
0010
0000
0000
0000
,
0100
0000
0001
0000
,
1000
0000
0010
0000
,
0100
0000
0000
0000
,
0001
0000
1000
0000
,
0010
0010
0010
0000
,
0000
0100
0100
0000
,
0001
0000
0000
0000
,
1000
1000
1000
0000
,
0100
0000
0100
0000
,
0010
0000
0010
0000
,
0001
0000
0000
0000
,
1000
1000
0000
0000
,
0001
0001
0001
0000
,
0000
0100
0100
0000
,
0010
0000
0000
0000
,
1000
1000
1000
0000
,
0100
0000
0100
0000
,
0010
0000
0010
0000
,
0001
0000
0000
0000
,
1000
0000
0000
0000
,
0010
0000
0010
0000
,
0010
0000
0010
0000
,
0100
0000
0100
0000
,
0100
0000
0100
0000
,
0001
0000
0001
0000
,
0001
0000
0001
0000
,
1000
0000
1000
0000
,
1000
0000
1000
0000
,
0010
0010
0010
0000
,
0000
0100
0100
0000
;

//---------------dance-double - ----------------
#NOTES:
     dance-double:
     :
     Challenge:
     7:
     0.394835,0.377269,0.106850,0.292056,0.049863,332.000000,15.000000,41.000000,0.000000,0.000000,0.000000,0.394835,0.377269,0.106850,0.292056,0.049863,332.000000,15.000000,41.000000,0.000000,0.000000,0.000000:
// measure 0
00000000
00000000
00000000
00000000
,  // measure 1
00000000
00000000
00000000
00000000
,  // measure 2
20000000
32000000
03020000
00031000
,  // measure 3
00001000
00010000
01000000
10000000
00010000
00000000
10010000
00000000
,  // measure 4
20000000
30200000
00320000
00031000
,  // measure 5
00001000
00010000
00100000
00010000
00002000
00000000
00013000
00000000
,  // measure 6
00002000
00003200
00000302
00001003
,  // measure 7
00000001
00000100
00001000
00010000
00002000
00000000
00003100
00000000
,  // measure 8
00000002
00000023
00002030
00023000
,  // measure 9
00031000
00000010
00000001
00001000
00000020
00000000
00000130
00000000
,  // measure 10
00000001
00000100
00001000
00000100
00000002
00000000
00001003
00000000
,  // measure 11
00001000
00000000
00000010
00000100
00000010
00000000
00001000
00000000
00000100
00000000
00000010
00000000
00000001
00000000
00000000
00000000
,  // measure 12
00001000
00000100
00010000
00001000
00100000
00010000
01000000
00000000
,  // measure 13
00100000
00000000
00100000
20000000
00000000
00000000
31000000
00000000
00200000
00000000
00000000
00000000
00310000
00000000
00000000
00000000
,  // measure 14
10000000
00000000
01000000
00000000
10000000
00000000
00010000
00000000
10000000
00000000
00100000
01000000
00100000
00000000
00000000
00000000
,  // measure 15
01000000
00000000
00010000
00000000
01000000
00000000
00100000
00000000
10000000
00000000
00010000
01000000
00010000
00000000
00000000
00000000
,  // measure 16
20000000
00000000
30010000
00100000
00001000
00010000
00001000
00200000
,  // measure 17
00000000
00302000
00020000
00000000
00000000
00000000
00033000
00000000
,  // measure 18
00001000
00010000
00000100
00001000
00000010
00000100
00000001
00000000
,  // measure 19
00001000
00000100
00000010
00000001
00001000
00000000
00000010
00000000
,  // measure 20
00000100
00000001
00000100
00000010
00000100
00001000
00000100
00000010
,  // measure 21
00002000
00000000
00003100
00000000
00010000
00001000
00010000
00000000
,  // measure 22
00001000
00001000
00100000
00100000
00010000
01000000
00100000
10000000
,  // measure 23
00010000
00000000
01000000
00000000
00100000
10000000
00010000
00000000
,  // measure 24
10000000
01000000
00010000
01000000
10000000
00100000
01000000
00000000
,  // measure 25
00010000
00000000
01000000
00000000
00010000
00000000
00000000
00000000
10000000
00000000
00000000
01000000
00000000
00000000
00010000
00000000
,  // measure 26
00001000
00000100
00001000
00000100
00000001
00000100
00000001
00000000
,  // measure 27
00001000
00000010
00001000
00000010
00000001
00000010
00000001
00000000
,  // measure 28
00000010
00001000
00000100
00000010
00000001
00000100
00000010
00002000
,  // measure 29
00000000
00000000
00003100
00010000
00011000
00000000
01010000
00000000
,  // measure 30
10000000
00100000
00010000
00100000
20000000
00000000
30010000
00000000
,  // measure 31
00010000
00000000
01000000
00100000
01000000
00000000
00010000
00000000
00100000
00000000
01000000
00000000
10000000
00000000
00000000
00000000
,  // measure 32
00010000
00100000
00001000
00010000
00000100
00001000
00000010
00000000
,  // measure 33
00000100
00000000
00000100
00000002
00000000
00000000
00000013
00000000
00000200
00000000
00000000
00000000
00001300
00000000
00000000
00000000
,  // measure 34
00000001
00000000
00000010
00000000
00000001
00000000
00001000
00000000
00000001
00000000
00000100
00000010
00000100
00000000
00000000
00000000
,  // measure 35
00000010
00000000
00001000
00000000
00000010
00000000
00000100
00000000
00000001
00000000
00001000
00000010
00001000
00000000
00000000
00000000
,  // measure 36
00000002
00000000
00001003
00000100
00010000
00001000
00010000
00000200
,  // measure 37
00000000
00020300
00002000
00000000
00000000
00000000
00033000
00000000
,  // measure 38
00100000
00100000
00001000
00001000
00010000
00100000
20000000
00000000
,  // measure 39
30010000
00000000
00100000
01000000
00100000
00000000
00010000
00000000
10000000
00000000
00100000
00000000
01000000
00000000
00000000
00000000
,  // measure 40
00010000
01000000
10000000
01000000
00020000
00000000
00130000
00000000
,  // measure 41
00001000
00000000
00001000
00020000
00000000
00000000
00000100
00000000
00030200
00000000
00000000
00000000
00002300
00000000
00000000
00000000
,  // measure 42
00003001
00000000
00000010
00000000
00000100
00000000
00001000
00000000
00000010
00000100
00000000
00000000
00000001
00000000
00000000
00000000
,  // measure 43
00001000
00000000
00000010
00000000
00000100
00000000
00000001
00000000
00001000
00000100
00000000
00000000
00000010
00000000
00000000
00000000
,  // measure 44
00000001
00001000
00000100
00010000
00001000
00100000
00010000
02000000
,  // measure 45
00000000
00001000
00002000
00000000
00000000
00000000
03003000
00000000
,  // measure 46
01000000
00010000
01000000
10000000
01000000
00100000
00000000
01100000
,  // measure 47
00000000
01010000
00000000
01001000
00000000
00011000
00000000
00010000
,  // measure 48
00001000
00000100
00000001
00001000
00000100
00000010
00000000
00000011
,  // measure 49
00000000
00001010
00000000
00000010
00000100
00000001
00001000
00000000
,  // measure 50
00000010
00001000
00000010
00000001
00000010
00000100
00000000
00000110
,  // measure 51
00000000
00001010
00000000
00010010
00000000
00011000
00000000
00001000
,  // measure 52
00010000
00100000
10000000
00010000
00100000
01000000
00000000
11000000
,  // measure 53
00000000
01010000
00000000
01000000
00100000
10000000
00010000
00000000
,  // measure 54
10000000
01000000
00010000
01000000
20000000
00000000
30010000
00000000
,  // measure 55
00100000
00000000
00001000
00010000
00001000
00000000
00100000
00000000
00000200
00000000
00000000
00000000
00001300
00000000
00000000
00000000
;
