#TITLE:Groovejet;
#SUBTITLE:(If This Ain't Love);
#ARTIST:Spiller ft. Sophie Ellis-Bextor;
#TITLETRANSLIT:;
#SUBTITLETRANSLIT:;
#ARTISTTRANSLIT:;
#GENRE:WHY DOES IT FEEL SO GOOD;
#CREDIT:;
#BANNER:Goovejet (If This Ain't Love).png;
#BACKGROUND:Goovejet (If This Ain't Love)-bg.png;
#LYRICSPATH:;
#CDTITLE:;
#MUSIC:Groovejet (If This Ain't Love).ogg;
#OFFSET:-0.010000;
#SAMPLESTART:37.543930;
#SAMPLELENGTH:13.714000;
#SELECTABLE:YES;
#BPMS:0.000000=123.000000
;
#STOPS:
;
#BGCHANGES:6.500=Groovejet (If This Ain't Love).avi=1.000=0=0=1=====,
99999=-nosongbg-=1.000=0=0=0 // don't automatically add -songbackground-
;
#KEYSOUNDS:;
#ATTACKS:;

//---------------dance-single - ----------------
#NOTES:
     dance-single:
     :
     Hard:
     6:
     0.358009,0.440367,0.122776,0.209441,0.000000,301.000000,17.000000,29.000000,0.000000,0.000000,0.000000,0.358009,0.440367,0.122776,0.209441,0.000000,301.000000,17.000000,29.000000,0.000000,0.000000,0.000000:
0000
0000
0000
0000
,
0000
0000
0000
0000
,
0000
0000
0000
0000
,
2002
0000
0000
3003
,
0100
0001
0000
0001
1000
0000
0100
0000
,
1000
0010
0000
0010
0100
0000
0001
0000
,
0010
0100
0000
0100
1000
0000
0001
0000
,
1000
0010
0000
0010
0100
0001
1000
0000
,
0010
0000
0100
0000
0001
0100
1000
0000
,
0010
0000
1000
0000
0100
0001
0010
0000
,
0001
0000
1000
0000
0010
1000
0001
0000
,
0100
0000
0010
0000
1000
0000
0000
0000
0200
0000
0000
0000
0000
0300
0000
0000
,
0010
0000
0001
0000
1000
0010
0100
0000
,
0001
0000
1000
0000
0100
0010
0001
0000
,
1000
0000
0001
0000
0100
0010
1000
0000
,
0200
0000
0310
0000
0010
0001
1000
0000
,
0010
0000
0100
0000
0001
0100
1000
0000
,
0010
1000
0100
0000
1000
0100
0001
0000
,
0010
0001
0100
0000
0010
0000
1000
0000
,
0001
1100
0101
1000
,
0020
0000
0030
1000
0100
1000
0000
0000
,
0020
0000
0030
0100
0001
0100
0000
0000
,
0020
0000
0030
1000
0001
1000
0000
0000
,
0001
0010
0100
1000
0001
0000
1000
0000
,
0110
0000
1000
0000
0100
0001
1000
0000
,
0010
0000
0101
0000
0010
0100
1000
0000
,
0001
1000
0001
0000
0010
0000
1100
0000
,
0101
0000
1000
0000
0010
1000
0001
0000
,
0220
0000
0330
0000
1000
0100
0010
0000
,
2002
0000
3003
0000
0001
0100
0010
0000
,
0202
0000
0303
0000
1000
0001
0100
0000
,
2020
3030
0202
0303
,
1000
0000
0010
0000
0001
0100
1000
0000
,
0010
0000
1000
0000
0100
0001
0010
0000
,
0001
1000
0010
0000
0100
0100
0100
0000
,
0010
0000
1000
0010
0100
0001
1000
0000
,
0200
0010
0010
0310
,
0002
1000
1000
1003
,
0200
0010
0010
0310
,
2000
0100
0100
3100
,
1000
0000
0001
0000
0100
1000
0010
0000
,
0100
0000
0001
0000
1000
0100
0010
0000
,
0001
0000
1000
0000
0010
0001
0100
0000
,
0010
1000
0001
0100
,
0002
0000
0003
1000
0100
1000
0000
0000
,
0002
0000
0003
1000
0100
1000
0000
0000
,
0002
0000
0003
1000
0100
1000
0000
0000
,
0010
1000
0100
0010
0001
0000
1000
0000
,
0010
0000
0110
0000
1000
0100
0010
0000
,
0001
0000
1001
0000
0100
0010
1000
0000
,
0001
0000
0101
0000
1000
0100
0010
0000
,
0001
1000
0010
0000
0100
0010
1000
0000
,
0200
0000
0310
0010
,
0200
0000
0310
0010
,
0002
0000
1003
1000
,
0001
0100
0010
1000
,
0101
0000
1000
0000
0100
0010
0001
0000
,
1000
0000
0100
0001
0010
1000
0100
0000
,
1000
0000
0001
0000
0100
0010
1000
0000
,
0010
0010
0001
0000
0100
0100
1000
0000
,
0010
0010
0010
0000
0100
0000
0001
0000
,
1000
1000
0100
0000
1000
0100
0010
0001
,
0100
0100
0010
0000
0100
0000
0001
1000
,
0100
0000
0010
0000
0001
1000
0001
0100
,
0010
1000
0100
0001
,
0010
1000
0100
0001
,
0010
1000
0100
0001
,
2200
0000
0000
3300
;

//---------------dance-single - ----------------
#NOTES:
     dance-single:
     :
     Challenge:
     8:
     0.509673,0.562691,0.223885,0.115553,0.335827,447.000000,31.000000,16.000000,0.000000,0.000000,0.000000,0.509673,0.562691,0.223885,0.115553,0.335827,447.000000,31.000000,16.000000,0.000000,0.000000,0.000000:
0000
0000
0000
0000
,
0000
0000
0000
0000
,
0000
0000
0000
0000
,
2002
0000
0000
3003
,
0010
0000
1000
0000
0100
0010
0000
0010
0001
0000
0001
1000
0000
0000
0000
0000
,
0010
0000
1000
0000
0001
0100
0000
0100
0010
0000
0010
1000
0000
0000
0000
0000
,
0001
0000
1000
0000
0100
0010
0000
0010
0001
0000
0001
1000
0000
0000
0000
0000
,
0010
0000
1000
0000
0001
0100
0000
0100
0010
0000
0010
1000
0000
0000
0000
0000
,
0001
0000
1000
0000
0100
0010
0000
0001
1000
0000
0010
0100
0000
0000
0000
0000
,
0001
0000
1000
0000
0010
1000
0000
0001
0100
0000
0001
1000
0000
0000
0000
0000
,
0100
0000
1000
0000
0100
0010
0000
0001
1000
0000
0010
1000
0000
0000
0000
0000
,
0001
1000
0020
0000
1030
0001
0020
0000
,
0031
0000
0000
1000
0000
0000
0100
0000
0100
0000
0000
1000
0000
0000
0001
0000
,
0001
0000
0000
0100
0000
0000
0010
0000
0010
0000
0000
1000
0000
0000
0100
0000
,
0100
0000
0000
0010
0000
0000
0001
0000
0001
0000
0000
1000
0000
0000
0010
0000
,
0010
0000
0100
0000
0001
1000
0000
1000
0100
0000
0100
0010
0000
0000
0000
0000
,
0001
0000
0000
1000
0000
0000
0010
0000
0010
0000
0000
1000
0000
0000
0100
0000
,
0100
0000
0000
0010
0000
0000
0001
0000
0001
0000
0000
0100
0000
0000
0010
0000
,
0010
0000
0000
1000
0000
0000
0001
0000
0001
0000
0000
0010
0000
0000
0001
0000
,
0001
1000
0010
0100
0001
0010
0100
1000
,
0102
0000
1003
0100
0010
0001
1000
0000
,
0101
0100
0010
1000
0001
1000
0100
0000
,
0101
0100
0010
1000
0001
1000
0100
0000
,
0010
0001
0100
0100
0010
1000
0100
0000
,
0010
0000
0001
0000
1000
0010
0000
0010
0100
0000
0100
0001
0000
0000
0000
0000
,
1000
0000
0100
0000
0010
0001
0000
0001
1000
0000
1000
0010
0000
0000
0000
0000
,
0100
0000
0001
0000
1000
0100
0000
0100
0010
0000
0010
0001
0000
0000
0000
0000
,
1000
0001
0100
0010
1000
0100
0010
0001
,
2010
0000
3001
0010
0100
1000
0001
0000
,
1010
0010
0100
0001
1000
0001
0010
0000
,
1010
0010
0100
0001
1000
0001
0010
0000
,
0100
1000
0010
0010
0100
0001
0010
0000
,
0001
0000
1000
0000
0000
0010
0000
0000
0100
0000
0000
0101
0000
0000
0000
0000
,
0100
0000
0010
0000
0000
1000
0000
0000
0001
0000
0000
1001
0000
0000
0000
0000
,
1000
0000
0100
0000
0000
0010
0000
0000
0001
0000
0000
0011
0000
0000
0000
0000
,
0001
0100
0010
1000
0100
0010
0001
0000
,
1000
0000
0000
0100
0000
0000
0010
0000
0001
0000
0000
1000
0000
0000
0010
0000
,
0100
0000
0000
0001
0000
0000
0010
0000
0100
0000
0000
1000
0000
0000
0010
0000
,
1000
0000
0000
0001
0000
0000
0100
0000
0010
0000
0000
1000
0000
0000
0100
0000
,
0010
0000
0000
0000
0001
0000
1000
0010
0000
0000
0100
0000
0000
0001
0000
0000
,
1000
0100
0010
0001
1000
0010
0100
0001
,
1000
0100
0010
0001
1000
0010
0100
0001
,
1000
0100
0010
0001
1000
0010
0100
0001
,
1000
0000
0001
0100
1000
0100
0001
1000
,
2100
0000
3001
1000
0010
1000
0001
0000
,
2100
0000
3001
1000
0010
1000
0001
0000
,
2100
0000
3001
1000
0010
1000
0001
0000
,
1000
0100
0010
0001
0100
1000
0001
0010
,
1000
0000
0001
0000
0100
0010
0000
0000
0100
0000
0000
0000
0110
0000
0000
0000
,
0001
0000
1000
0000
0100
0010
0000
0000
0100
0000
0000
0000
0110
0000
0000
0000
,
0001
0000
0010
0000
0100
1000
0000
0000
0001
0000
0000
0000
0101
0000
0000
0000
,
1000
0001
1000
0010
0001
0010
1000
0001
,
0100
0010
0100
0010
0100
0010
0100
0010
0100
0000
0000
0000
1000
0000
0000
0000
,
0010
0100
0010
0100
0010
0100
0010
0100
0010
0000
0000
0000
1000
0000
0000
0000
,
0100
0010
0100
0010
0100
0010
0100
0010
0100
0000
0000
0000
1000
0000
0000
0000
,
0001
0100
1000
0100
0001
0010
1000
0010
,
0002
0000
0000
0000
0103
0000
0000
0000
0010
1000
0000
0000
0200
0000
0000
0000
,
2300
0000
0000
0000
3010
0000
0000
0000
0100
0001
0000
0000
2000
0000
0000
0000
,
3200
0000
0000
0000
0310
0000
0000
0000
0001
1000
0000
0000
0020
0000
0000
0000
,
0230
0000
0000
0000
0301
0000
0000
0000
1000
0100
0000
0000
0010
0000
0000
0000
,
0101
1100
0101
1000
0001
0000
0100
0000
,
1010
1000
0001
0000
0100
0101
1100
1001
,
0110
0110
1000
0001
0100
0000
0010
0000
,
1010
1000
0001
0100
0110
1001
0100
0001
,
1000
0100
0000
0010
0000
0001
0000
1000
0000
0010
0100
0000
0001
0000
0000
0000
,
1000
0100
0000
0010
0000
0001
0000
1000
0000
0010
0100
0000
0001
0000
0000
0000
,
1000
0100
0000
0010
0000
0001
0000
1000
0000
0010
0100
0000
0001
0000
1000
0000
,
0101
0100
0010
1010
1000
0001
0011
0000
;

//---------------dance-single - ----------------
#NOTES:
     dance-single:
     :
     Medium:
     4:
     0.247615,0.440367,0.151664,0.057777,0.000000,211.000000,21.000000,8.000000,0.000000,0.000000,0.000000,0.247615,0.440367,0.151664,0.057777,0.000000,211.000000,21.000000,8.000000,0.000000,0.000000,0.000000:
0000
0000
0000
0000
,
0000
0000
0000
0000
,
0000
0000
0000
0000
,
1000
0100
0001
0010
,
1100
0000
0001
0001
,
0100
0000
0010
0010
,
1000
0000
0100
0100
,
0010
0000
0001
0001
,
1000
0000
0010
1000
,
0100
0000
0010
0001
,
0100
0000
0001
1000
,
0100
0000
0010
0000
,
0001
0001
1000
1000
,
0010
0010
0100
0000
,
0010
1000
0100
0010
,
0001
0000
1000
0000
,
0001
0001
0100
0100
,
0010
0010
1000
0000
,
0100
0010
0001
1000
,
0010
0000
0100
0100
,
1001
0000
0000
0000
0100
0010
0000
0000
,
1001
0000
0000
0000
0100
0010
0000
0000
,
1001
0000
0000
0000
0100
0010
0000
0000
,
0001
1000
0010
0010
,
0101
0000
1000
1000
,
0100
0000
0010
0010
,
0001
0000
1000
1000
,
0001
0000
0100
0000
,
1010
0000
0000
0000
0100
0010
0000
0000
,
1010
0000
0000
0000
0100
0010
0000
0000
,
0101
0000
0000
0000
0100
0010
0000
0000
,
0001
0100
1000
0010
,
1001
0000
0100
0010
,
0001
0000
0100
0001
,
1000
0000
0010
1000
,
0100
0000
0000
0000
,
1000
0100
0010
0000
,
0001
1000
0010
0000
,
0100
0000
0001
0000
,
1000
0000
0000
0000
,
0110
0000
0001
1000
,
0010
0000
0100
0010
,
1000
0000
0100
0010
,
0001
0000
0000
0000
0100
0010
1000
0000
,
1001
0000
0000
0000
0100
0010
0000
0000
,
1001
0000
0000
0000
0100
0010
0000
0000
,
1001
0000
0000
0000
0100
0010
0000
0000
,
0001
0100
0001
0000
1000
0000
0100
0000
,
0010
0000
0001
1000
,
0010
0000
0100
0100
,
0100
0000
0001
1000
,
0001
0000
1000
0000
0010
0100
0001
0000
,
2002
0000
3003
0000
0010
1000
0100
0000
,
2200
0000
3300
0000
0010
1000
0001
0000
,
0202
0000
0303
0000
1000
0001
0100
0000
,
0010
0010
0100
0010
,
1001
0000
1000
0100
,
0010
0000
0100
1000
,
0001
0000
0100
0010
,
0100
0000
0000
0000
0001
1000
0001
0000
,
0100
0010
1000
0100
,
0010
0001
1000
0010
,
0100
0100
0001
0000
1000
0000
0100
0000
,
0010
0000
0001
0000
1000
1000
0010
0000
,
0101
1000
0100
0001
,
0101
1000
0100
0001
,
0101
1000
0100
0001
,
2002
0000
0000
3003
;

//---------------dance-single - ----------------
#NOTES:
     dance-single:
     :
     Easy:
     2:
     0.138252,0.293578,0.057777,0.137220,0.000000,107.000000,8.000000,19.000000,0.000000,0.000000,0.000000,0.138252,0.293578,0.057777,0.137220,0.000000,107.000000,8.000000,19.000000,0.000000,0.000000,0.000000:
0000
0000
0000
0000
,
0000
0000
0000
0000
,
0000
0000
0000
0000
,
0100
0000
0000
0000
,
0001
0000
1000
1000
,
0000
0000
0010
0010
,
0000
0000
0100
0100
,
0000
0000
0001
0001
,
0000
0000
1000
0100
,
0000
0000
0010
0001
,
0000
0000
1000
0001
,
0000
0000
0100
0000
,
0010
0000
0010
0000
,
1000
0000
0001
0000
,
0100
0000
0100
0000
,
0001
0000
0000
0000
,
0010
0000
0010
0000
,
0100
0000
1000
0000
,
0001
0000
1000
0000
,
0010
0000
0000
0000
,
2002
3003
0000
0000
,
0020
0030
0000
0000
,
0200
0300
0000
0000
,
0001
0000
1000
0000
,
0100
0000
0010
0000
,
0001
0000
1000
0000
,
0010
0000
0010
0000
,
1000
0000
0001
0000
,
2002
3003
0000
0000
,
0200
0300
0000
0000
,
0020
0030
0000
0000
,
0001
0000
1000
0000
,
0010
0000
0100
0000
,
0100
0000
0001
0000
,
1000
0000
0100
0000
,
0010
0000
0001
0000
,
1000
0000
0000
0000
,
0001
0000
0000
0000
,
0100
0000
0000
0000
,
0100
0000
0000
0000
,
1001
0000
0100
0000
,
1000
0000
0001
0000
,
0100
0000
0010
0000
,
0010
0000
1000
1000
,
1000
0000
0000
0000
,
0001
0000
0000
0000
,
0100
0000
0000
0000
,
0010
0000
0010
0000
,
0010
0000
0000
0000
,
1000
0000
0000
0000
,
0001
0000
0000
0000
,
0010
0000
0000
0000
,
0220
0330
0000
0000
,
2002
3003
0000
0000
,
0220
0330
0000
0000
,
2002
3003
0200
0300
,
0010
0000
0010
0000
,
0001
0000
1000
0000
,
0010
0000
0010
0000
,
1000
0000
0001
0000
,
0100
0100
0000
0000
,
0001
0001
0000
0000
,
1000
1000
0000
0000
,
0010
0010
0000
0000
,
1000
0000
0100
0000
,
0001
0000
0010
0000
,
1000
0000
0100
0000
,
2002
0000
0000
3003
;

//---------------dance-single - ----------------
#NOTES:
     dance-single:
     :
     Beginner:
     1:
     0.098014,0.145164,0.072221,0.000000,0.000000,85.000000,10.000000,0.000000,0.000000,0.000000,0.000000,0.098014,0.145164,0.072221,0.000000,0.000000,85.000000,10.000000,0.000000,0.000000,0.000000,0.000000:
0000
0000
0000
0000
,
0000
0000
0000
0000
,
0000
0000
0000
0000
,
0000
0000
0000
0000
,
1001
0000
0000
0000
,
0010
0000
0000
0000
,
1000
0000
0000
0000
,
0001
0000
0000
0000
,
0010
0000
0000
0000
,
0100
0000
0000
0000
,
1000
0000
0000
0000
,
0001
0000
0000
0000
,
0100
0000
0100
0000
,
0100
0000
0000
0000
,
0001
0000
0001
0000
,
0001
0000
0000
0000
,
1000
0000
1000
0000
,
1000
0000
0000
0000
,
0010
0000
0010
0000
,
0010
0000
0000
0000
,
1001
0000
0000
0000
,
0010
0010
0000
0000
,
0010
0010
0000
0000
,
1000
0000
0001
0000
,
0100
0000
0000
0000
,
0001
0000
0000
0000
,
1000
0000
0000
0000
,
0100
0000
0000
0000
,
1001
0000
0000
0000
,
0100
0100
0000
0000
,
0100
0100
0000
0000
,
0010
0000
1000
0000
,
0001
0000
0000
0000
,
1000
0000
0000
0000
,
0100
0000
0000
0000
,
0010
0000
0000
0000
,
1001
0000
0000
0000
,
0100
0000
0000
0000
,
0001
0000
0000
0000
,
1000
0000
0000
0000
,
0100
0000
0100
0000
,
0100
0000
0000
0000
,
0010
0000
0010
0000
,
0010
0000
0000
0000
,
0110
0000
0000
0000
,
0001
0001
0000
0000
,
0001
0001
0000
0000
,
1000
0000
0010
0000
,
0100
0000
0000
0000
,
0001
0000
0000
0000
,
1000
0000
0000
0000
,
0100
0000
0000
0000
,
0110
0000
0000
0000
,
0110
0000
0000
0000
,
0110
0000
0000
0000
,
1001
0000
0100
0000
,
0010
0000
0000
0000
,
1000
0000
0000
0000
,
0001
0000
0000
0000
,
0100
0000
0000
0000
,
0010
0010
0000
0000
,
1000
0000
0000
0000
,
0001
0001
0000
0000
,
0100
0000
0000
0000
,
0001
0000
1000
0000
,
0001
0000
1000
0000
,
0001
0000
1000
0000
,
1001
0000
0000
0000
;

//---------------dance-double - ----------------
#NOTES:
     dance-double:
     :
     Challenge:
     8:
     0.464277,0.538227,0.173330,0.101109,0.245551,412.000000,24.000000,14.000000,0.000000,0.000000,0.000000,0.464277,0.538227,0.173330,0.101109,0.245551,412.000000,24.000000,14.000000,0.000000,0.000000,0.000000:
// measure 0
00000000
00000000
00000000
00000000
,  // measure 1
00000000
00000000
00000000
00000000
,  // measure 2
00000000
00000000
00000000
00000000
,  // measure 3
00000000
00000000
00000000
00000000
,  // measure 4
00001000
00000000
00000010
00000000
00000000
00000100
00000000
00000000
00000001
00000000
00000000
00001000
00000000
00000000
00000000
00000000
,  // measure 5
00000001
00000000
00000010
00000000
00000000
00000001
00000000
00000000
00001000
00000000
00000000
00000100
00000000
00000000
00000000
00000000
,  // measure 6
00010000
00000000
00001000
00000000
00000000
00010000
00000000
00000000
00100000
00000000
00000000
10000000
00000000
00000000
00000000
00000000
,  // measure 7
01000000
00000000
10000000
00000000
00000000
00010000
00000000
00000000
00100000
00000000
00000000
00010000
00000000
00000000
00000000
00000000
,  // measure 8
10000000
00000000
01000000
00000000
00100000
00010000
00000000
00000000
10000000
00000000
10000000
00100000
00000000
00000000
00000000
00000000
,  // measure 9
01000000
00000000
00010000
00000000
10000000
01000000
00000000
00000000
00100000
00000000
00100000
00001000
00000000
00000000
00000000
00000000
,  // measure 10
00010000
00000000
00000010
00000000
00001000
00000001
00000000
00000000
00001000
00000000
00001000
00000010
00000000
00000000
00000000
00000000
,  // measure 11
00000100
00000001
00001000
00000000
00000100
00000010
00000001
00000000
,  // measure 12
00001000
00000000
00000000
00000100
00000000
00000000
00000010
00000000
00000001
00000000
00000000
00000100
00000000
00000000
00000010
00000000
,  // measure 13
00000010
00000000
00000000
00001000
00000000
00000000
00000001
00000000
00000010
00000000
00000000
00000100
00000000
00000000
00000000
00000000
,  // measure 14
00001000
00000000
00000000
00000010
00000000
00000000
00010000
00000000
00010000
00000000
00000000
00001000
00000000
00000000
00100000
00000000
,  // measure 15
00010000
00000000
10000000
00000000
00000000
00010000
00000000
00000000
01000000
00000000
00000000
10010000
00000000
00000000
00000000
00000000
,  // measure 16
00010000
00000000
00000000
00100000
00000000
00000000
01000000
00000000
10000000
00000000
00000000
00100000
00000000
00000000
01000000
00000000
,  // measure 17
01000000
00000000
00000000
00010000
00000000
00000000
10000000
00000000
01000000
00000000
00000000
00100000
00000000
00000000
00000000
00000000
,  // measure 18
00010000
00000000
00000000
01000000
00000000
00000000
00001000
00000000
00001000
00000000
00000000
00010000
00000000
00000000
00000100
00000000
,  // measure 19
00001000
00000000
00000001
00000100
00000000
00000000
00000010
00000000
00001000
00000000
00000100
00000000
00000010
00000000
00000001
00000000
,  // measure 20
00002100
00000000
00003001
00000010
00000001
00001000
00000001
00000000
,  // measure 21
00002100
00000000
00003001
00000010
00000001
00001000
00000001
00000000
,  // measure 22
00002100
00000000
00003001
00000010
00000001
00001000
00000001
00000000
,  // measure 23
00001000
00000000
00000100
00000000
00000010
00000000
00000001
00000000
00000100
00000000
00000010
00001000
00000000
00000000
00000100
00000000
,  // measure 24
00010000
00000000
00010000
00000000
00000000
00001000
00000000
00000000
00100000
00000000
00000000
00101000
00000000
00000000
00000000
00000000
,  // measure 25
00010000
00000000
00010000
00000000
00000000
00001000
00000000
00000000
00010000
00000000
00000000
00010010
00000000
00000000
00000000
00000000
,  // measure 26
00010000
00001000
00010000
00001000
00100000
00100000
00100000
00000000
,  // measure 27
00010000
00100000
01000000
10000000
00100000
01000000
00010000
00000000
,  // measure 28
20100000
00000000
30010000
00100000
00010000
01000000
00010000
00000000
,  // measure 29
20100000
00000000
30010000
00100000
00010000
01000000
00010000
00000000
,  // measure 30
20100000
00000000
30010000
00100000
00010000
01000000
00010000
00000000
,  // measure 31
10000000
01000000
00010000
01000000
10000000
00010000
01000000
10000000
,  // measure 32
02000000
00000000
03100000
00000000
10000000
01000000
00100000
00000000
,  // measure 33
00020000
00000000
10030000
00000000
00100000
10000000
00010000
00100000
,  // measure 34
00002000
00000000
00013000
00000000
00000010
00010000
00000010
00000000
,  // measure 35
00001000
00000100
00000010
00000001
00000100
00000010
00001000
00000000
,  // measure 36
00000001
00000000
00000000
00000001
00000100
00000000
00000000
00000000
00001000
00000000
00000000
00001000
00000100
00000000
00000000
00000000
,  // measure 37
00000001
00000000
00000000
00000001
00000010
00000000
00000000
00000000
00001000
00000000
00000000
00001000
00000010
00000000
00000000
00000000
,  // measure 38
00001000
00000000
00000000
00000000
00000100
00000000
00000000
00000000
00010000
00000000
00000000
00001000
00000000
00000000
00000000
00000000
,  // measure 39
00100000
00000000
00000000
00000000
00010000
00000000
10000000
01000000
10000000
00000000
00010000
00000000
00000000
01000000
00000000
00000000
,  // measure 40
00100000
10000000
01000000
00100000
00010000
10000000
00010000
10000000
,  // measure 41
00100000
10000000
01000000
00100000
00010000
10000000
00010000
10000000
,  // measure 42
00100000
10000000
01000000
00100000
00010000
10000000
00010000
10000000
,  // measure 43
00200000
00000000
01300000
00010000
00100000
00001000
00010000
00000010
,  // measure 44
00002010
00000000
00003001
00000100
00001000
00000100
00000001
00000000
,  // measure 45
00002010
00000000
00003001
00000100
00001000
00000100
00000001
00000000
,  // measure 46
00002010
00000000
00003001
00000100
00001000
00000100
00000001
00000000
,  // measure 47
00001000
00001000
00000100
00000010
00000001
00000001
00001000
00000010
,  // measure 48
00002010
00000000
00003001
00000000
00001000
00000100
00000001
00000000
,  // measure 49
00000010
00001000
00000100
00000010
00000001
00001000
00000010
00000000
,  // measure 50
00011000
00000000
00010010
00000000
00010000
00001000
00100000
00000000
,  // measure 51
00010000
00100000
01000000
10000000
00100000
01000000
00010000
00000000
,  // measure 52
10000000
00100000
10000000
00100000
10000000
00100000
10000000
00100000
10000000
00000000
00000000
00000000
00010000
00000000
00000000
00000000
,  // measure 53
10000000
00100000
10000000
00100000
10000000
00100000
10000000
00100000
10000000
00000000
00000000
00000000
00010000
00000000
00000000
00000000
,  // measure 54
10000000
00100000
10000000
00100000
10000000
00100000
10000000
00100000
10000000
00000000
00000000
00000000
00010000
00000000
00000000
00000000
,  // measure 55
10000000
01000000
00010000
00000000
01000000
10000000
00010000
00000000
,  // measure 56
01010000
00000000
00110000
00000000
10000000
00010000
00100000
00000000
,  // measure 57
00110000
00000000
11000000
00000000
10000000
01000000
00010000
00001000
,  // measure 58
00000100
00000001
00001000
00000000
00000010
00000000
00001001
00000000
,  // measure 59
00000100
00000100
00000100
00000000
00000010
00000010
00000010
00000000
,  // measure 60
00001000
00000001
00001001
00000100
00000100
00000000
00001000
00000000
,  // measure 61
00000001
00000010
00000100
00000000
00001000
00000100
00000100
00000100
,  // measure 62
00000010
00000001
00001000
00000000
00000010
00000010
00010000
00000000
,  // measure 63
00001000
00010000
00100000
10000000
01000000
00100000
00010000
00000000
,  // measure 64
10000000
00100000
00000000
00100000
00000000
00100000
00000000
00100000
00000000
00100000
01000000
00000000
00010000
00000000
00000000
00000000
,  // measure 65
10000000
01000000
00000000
01000000
00000000
01000000
00000000
01000000
00000000
01000000
00100000
00000000
00010000
00000000
00000000
00000000
,  // measure 66
00100000
00001000
00000000
00001000
00000000
00001000
00000000
00001000
00000000
00001000
00010000
00000000
00000010
00000000
00000000
00000000
,  // measure 67
00001010
00001000
00000001
00000011
00000001
00001000
00001100
00000000
;
