#TITLE:The Hills;
#SUBTITLE:;
#ARTIST:The Weeknd;
#TITLETRANSLIT:;
#SUBTITLETRANSLIT:;
#ARTISTTRANSLIT:;
#GENRE:17.30;
#CREDIT:;
#BANNER:The Hills.png;
#BACKGROUND:The Hills-bg.png;
#LYRICSPATH:;
#CDTITLE:;
#MUSIC:The Hills.ogg;
#OFFSET:-0.041000;
#SAMPLESTART:34.065025;
#SAMPLELENGTH:13.714000;
#SELECTABLE:YES;
#BPMS:0.000000=56.500000
;
#STOPS:
;
#BGCHANGES:2.000=The Hills.avi=1.000=0=0=1=====,
99999=-nosongbg-=1.000=0=0=0 // don't automatically add -songbackground-
;
#KEYSOUNDS:;
#ATTACKS:;

//---------------dance-single - ----------------
#NOTES:
     dance-single:
     :
     Hard:
     7:
     0.378198,0.387510,0.135968,0.511881,0.255941,250.000000,17.000000,64.000000,0.000000,0.000000,0.000000,0.378198,0.387510,0.135968,0.511881,0.255941,250.000000,17.000000,64.000000,0.000000,0.000000,0.000000:
0000
0000
0000
0000
,
0000
0000
0000
0000
,
1000
0100
1000
0001
0100
0200
0310
0000
,
0100
0001
0100
0010
1000
2000
3100
0000
,
1000
0001
0101
0100
0020
2030
3100
0000
,
0001
1000
1010
0010
0200
0302
0013
0000
,
0001
0100
0001
0000
1000
0100
1000
0000
0020
0000
0230
0000
0301
0000
0000
0000
,
1000
0100
1000
0000
0001
0100
0001
0000
2000
0000
3200
0000
0310
0000
0000
0000
,
0000
0000
0000
0000
0000
0000
0000
0000
2100
0000
3100
1000
0002
0000
0203
0000
,
0000
0010
0310
0100
0001
0010
0100
1000
0002
0000
0103
0000
0020
0000
2030
0000
,
0000
0100
3100
0010
0001
1000
0010
0000
0201
0000
0320
0000
2030
0000
3002
0000
,
2003
3200
0320
0032
0203
0320
2030
3002
,
0003
1000
0100
0000
1100
0000
0000
0000
0012
0000
0013
0001
2000
0000
3020
0000
,
0000
0100
0130
0010
1000
0100
0010
0001
2000
0000
3010
0000
0200
0000
0302
0000
,
0000
0010
0013
0100
1000
0001
0100
0000
1020
0000
0230
0000
0302
0000
2003
0000
,
3002
0023
0230
2300
3020
0230
0302
2003
,
3000
0001
0010
0000
0011
0000
0000
0000
2000
0000
0000
0000
0100
0000
0100
0000
,
3002
0000
0100
0100
1003
0010
0100
0001
,
1000
0000
0100
0000
0010
0000
0001
0000
1000
0100
1000
0100
1000
0000
0000
0000
,
0001
0100
0001
0100
0001
0000
0000
0000
1000
0010
1000
0000
0001
0010
0001
0000
,
2002
0000
0000
0000
0000
0000
3003
0000
1100
0000
0100
0010
0001
0000
0100
0010
,
2000
0000
3001
0000
0100
0010
0100
0100
0002
0000
0013
0001
2000
0000
3100
1000
,
0002
0000
0103
0010
0100
0100
0001
0000
0201
0000
0310
1000
0200
0000
0320
0000
,
0032
0000
1003
0010
0200
0000
0302
0000
2003
0000
3100
0010
0002
0000
2003
0000
,
3000
0010
0010
0100
0001
0010
0100
1000
1001
0000
0010
1000
1010
0000
0001
0100
,
0101
0000
0010
0010
1000
0100
0010
0000
0011
0000
0001
1000
1100
0000
1000
0001
,
1001
0000
0100
0100
0100
0010
1000
0000
0001
0010
0001
0100
0001
1000
0001
0100
,
0001
0010
0001
0100
0001
1000
0001
0000
1000
0100
1000
0010
1000
0001
1000
0010
,
1000
0100
1000
0010
0200
0000
0000
0000
0301
0000
0000
0000
0000
0000
0000
0000
;

//---------------dance-single - ----------------
#NOTES:
     dance-single:
     :
     Challenge:
     9:
     0.543874,0.718033,0.287933,0.247942,0.919787,409.000000,36.000000,31.000000,0.000000,0.000000,0.000000,0.543874,0.718033,0.287933,0.247942,0.919787,409.000000,36.000000,31.000000,0.000000,0.000000,0.000000:
// measure 0
0000
0000
0000
0000
,  // measure 1
0000
0000
0000
0000
,  // measure 2
0100
0001
0100
0001
1000
0100
1000
0100
0020
0000
0032
0000
1003
0000
0000
0000
,  // measure 3
0001
0100
0001
0100
0010
1000
0010
1000
0200
0000
0320
0000
0031
0000
0000
0000
,  // measure 4
1000
0100
0010
0001
1001
1000
0010
0100
0002
0000
1003
0100
1100
0100
0020
0000
,  // measure 5
0031
0100
0010
1000
1001
0001
0010
0100
2000
0000
3001
0100
0101
0100
0020
0000
,  // measure 6
1030
0100
1000
0001
0101
0100
0010
1000
0100
0010
0100
0010
0011
0001
1000
0000
,  // measure 7
0001
0010
0001
1000
1010
0010
0100
0001
0010
0100
0010
0100
1100
0000
0000
0000
,  // measure 8
0000
0001
0001
1000
1000
0010
0100
0001
0101
0100
0010
1000
0100
0010
0110
0010
,  // measure 9
0001
1000
1000
0010
0100
0100
0001
1000
1100
0100
0010
0001
1000
0001
0101
0100
,  // measure 10
0010
0000
1000
0000
1000
0000
0100
0000
0010
0000
0010
0000
0001
0000
1000
0000
0010
0000
0000
0010
0000
0000
0100
0000
0001
0000
0000
0001
0000
0000
1000
0000
,  // measure 11
0100
0000
0000
0100
0000
0000
1000
0001
1000
0000
0000
0010
0000
0000
0100
0000
0001
0000
0000
0001
0000
0000
1000
0100
1000
0000
0000
0001
0000
0000
0200
0000
,  // measure 12
0000
0010
0310
0100
0101
0010
1000
0100
1100
1000
0001
0010
0011
0001
1000
0010
,  // measure 13
1010
0100
0100
0010
0010
1000
0100
0010
0011
0001
1000
0100
1100
0100
1000
0001
,  // measure 14
1001
0000
0100
0000
0100
0000
0010
0000
0010
0000
1000
0000
0100
0000
0010
0000
0001
0000
0000
0001
0000
0000
1000
0000
0010
0000
0000
0010
0000
0000
0100
0000
,  // measure 15
0001
0000
0000
0001
0000
0000
1000
0100
1000
0000
0000
0001
0000
0000
0100
0000
0010
0000
0000
0010
0000
0000
0100
0001
0100
0000
0000
0010
0000
0000
2000
0000
,  // measure 16
0000
0100
3100
0010
0011
0000
0000
0000
2000
0000
3002
0000
0203
0000
0320
0000
,  // measure 17
2030
0000
3200
0000
0320
0000
0032
0000
1003
0100
1000
0100
1000
0100
1000
0100
,  // measure 18
0010
0001
0010
0001
0010
0001
0010
0001
1000
0010
1000
0010
0100
0001
0100
0001
,  // measure 19
1000
0100
1000
0100
0010
0001
0010
0001
1000
0010
0100
0001
0010
0100
1000
0001
,  // measure 20
0000
0000
0100
0000
0100
0000
0010
0000
0010
0000
1000
0000
0100
0000
0010
0000
0011
0000
0001
1000
0001
0000
1000
0000
1010
0000
1000
0001
1000
0000
0001
0000
,  // measure 21
1001
0000
0100
0000
0100
0000
0010
0000
1000
0000
0100
0000
0010
0000
0001
0000
0011
0000
0001
1000
0001
0000
1000
0000
1010
0000
1000
0001
1000
0000
0001
0000
,  // measure 22
1001
0000
0100
0000
0100
0000
0010
0000
0010
0000
1000
0000
0100
0000
0010
0000
0001
0010
0100
1000
0000
0000
0001
0000
1000
0100
0010
0001
0000
1000
0001
0000
,  // measure 23
1100
0000
0000
0101
0000
0000
1000
0100
1000
0000
0000
0001
0000
1000
0010
0000
1010
0000
0000
0011
0000
0000
0001
1000
0001
0000
0000
1000
0000
0000
0010
0000
,  // measure 24
0010
0000
0100
0000
0100
0000
0001
0000
1001
0000
0000
0000
0000
0000
0000
0000
1000
0100
1000
0100
0010
0001
0100
0010
1000
0001
1000
0001
0100
0010
1000
0100
,  // measure 25
0010
0001
2000
0000
3020
0000
0230
0000
0302
0000
2003
0000
3200
0000
0310
0000
0001
0010
0001
0010
0100
1000
0010
0100
0001
1000
0001
1000
0010
0100
0001
0010
,  // measure 26
0100
1000
0002
0000
0203
0000
0320
0000
2030
0000
3002
0000
0023
0000
0130
0000
1000
0010
0100
0001
0000
0000
1000
0000
0001
0010
0100
1000
0000
0001
0100
0000
,  // measure 27
0110
0000
0000
0101
0000
0000
1000
0100
1000
0000
0000
0001
0000
1000
0010
0000
1010
0000
0000
0011
0000
0000
1000
0001
1000
0000
0010
0100
0000
0100
0001
0000
,  // measure 28
1000
0010
1000
0000
0001
0000
0100
0000
0100
0000
0000
0000
0010
0000
0000
0000
1002
0000
0000
0000
0000
0000
0000
0000
0000
0000
0000
0000
0000
0000
0000
0000
0103
0000
0000
0000
0000
0000
0000
0000
0000
0000
0000
0000
0000
0000
0000
0000
0000
0000
0000
0000
0000
0000
0000
0000
0000
0000
0000
0000
0000
0000
0000
0000
;

//---------------dance-double - ----------------
#NOTES:
     dance-double:
     :
     Challenge:
     8:
     0.483316,0.626855,0.135968,0.495885,0.615857,344.000000,17.000000,62.000000,0.000000,0.000000,0.000000,0.483316,0.626855,0.135968,0.495885,0.615857,344.000000,17.000000,62.000000,0.000000,0.000000,0.000000:
00000000
00000000
00000000
00000000
,
00000000
00000000
00000000
00000000
,
10000000
01000000
00100000
00100000
01000000
00100000
00010000
00010000
00200000
00000000
00302000
00000000
00023000
00000000
00030200
00000000
,
00001300
00000100
00000010
00000010
00000100
00000010
00000001
00000001
00000200
00000000
00000320
00000000
00002030
00000000
00003001
00000000
,
00000001
00000100
00000010
00000000
00001010
00001000
00000100
00000010
00000002
00000000
00002003
00000000
00003100
00010000
00001000
00000000
,
00100000
00001000
00010000
00000000
00011000
00001000
00100000
00010000
02000000
00000000
03020000
00000000
10030000
01000000
00100000
00000000
,
00010000
01000000
00010000
01000000
00100000
10000000
00100000
10000000
02000000
00000000
03200000
00000000
00310000
10000000
00010000
00000000
,
01000000
00010000
01000000
00010000
00100000
00001000
00100000
00001000
00020000
00000000
00030200
00000000
00001300
00000000
00000000
00000000
,
00000000
00000001
00000001
00001000
00001000
00000010
00000100
00000001
00000201
00000000
00000310
00001000
00000200
00000000
00000320
00000000
,
00000000
00000001
00000031
00001000
00000001
00000100
00000010
00001000
00002010
00000000
00003100
00001000
00000002
00000000
00000203
00000000
,
00000000
00000010
00000310
00000100
00000001
00000010
00000100
00001000
00000200
00000000
00020300
00000000
00031000
00100000
00001000
00010000
,
00200000
00000000
20300000
00000000
31000000
00100000
00010000
10000000
00200000
00000000
02300000
00000000
03010000
00100000
10000000
00100000
,
00010000
10000000
10000000
00100000
02100000
00000000
00000000
00000000
03010000
00100000
00001000
00010000
00000100
00001000
00000010
00000100
,
00000002
00000000
00002003
00000000
00003100
00000010
00000002
00000000
00000103
00000010
00001000
00000100
00010000
00001000
00100000
00010000
,
02000000
00000000
03200000
00000000
10300000
01000000
00100000
00000000
00010000
10000000
00200000
00000000
01300000
00010000
00200000
00000000
,
01300000
10000000
00010000
00100000
00001000
00010000
00001000
00100000
00020000
00000000
00230000
00000000
00302000
00000000
00023000
00000000
,
00030100
00001000
00001000
00000010
00001010
00000000
00000000
00000000
00000002
00000000
00000000
00000000
00000100
00000000
00000100
00000000
,
00002003
00000000
00000000
00000000
00000100
00000000
00000100
00000000
00003001
00000100
00000001
00000000
00001000
00000100
00001000
00000000
,
00000010
00000100
00000010
00000100
00000001
00001000
00000001
00000000
00001000
00000100
00002000
00000000
00003200
00000000
00020300
00000000
,
00031000
00100000
00002000
00000000
00203000
00000000
00320000
00000000
10030000
00100000
01000000
00010000
10000000
01000000
00100000
00010000
,
00000000
01000000
01000000
00010000
00010000
00100000
00001000
00010000
00011000
00000000
00000100
00010000
00011000
00000000
00100000
00001000
,
00011000
00000100
00000100
00001000
00001000
00000100
00010000
00001000
00011000
00000000
00100000
00001000
00011000
00000000
00000100
00010000
,
00011000
00000000
00100000
00000000
00100000
00000000
00010000
00000000
00010000
00000000
00100000
00000000
00001000
00000000
00010000
00000000
00000100
00000000
00000100
00001000
00000000
00000000
00000010
00000000
00000100
00000000
00000100
00000001
00000000
00000000
00001000
00000000
,
00000100
00000000
00000000
00000100
00000000
00000000
00010000
00001000
00010000
00000000
00000000
00000100
00000000
00000000
00001000
00000000
00000010
00000000
00000000
00000010
00000000
00000000
00001000
00000100
00001000
00000000
00000000
00000001
00000000
00000000
00000100
00000000
,
00000100
00000000
00000010
00000000
00000010
00000000
00001000
00000000
00001100
00000000
00000000
00000000
00000000
00000000
00000000
00000000
00000001
00000100
00000001
00000000
00000010
00000000
00000100
00000000
00001000
00000100
00001000
00000000
00000001
00000000
00000100
00000000
,
00000010
00001000
00000020
00000000
00002030
00000000
00003200
00000000
00020300
00000000
00032000
00000000
00203000
00000000
00320000
00000000
10030000
01000000
10000000
00000000
00100000
00000000
01000000
00000000
00010000
10000000
00010000
00000000
01000000
00000000
00100000
00000000
,
10000000
01000000
20000000
00000000
30020000
00000000
00230000
00000000
00302000
00000000
00023000
00000000
00030200
00000000
00002300
00000000
00003001
00000010
00000100
00001000
00000000
00000000
00000010
00000000
00001000
00000100
00000010
00000001
00000000
00001000
00000100
00000000
,
00001100
00000000
00000000
00000101
00000000
00000000
00001000
00000010
00001000
00000000
00000000
00000001
00000000
00000010
00000100
00000000
00001100
00000000
00000000
00010100
00000000
00000000
00000100
00010000
00001000
00000000
00000000
00100000
00000000
00000000
00001000
00000000
,
00010000
00100000
10000000
01000000
00200000
00000000
00000000
00000000
00301000
00000000
00000000
00000000
00000000
00000000
00000000
00000000
;

//---------------dance-single - ----------------
#NOTES:
     dance-single:
     :
     Medium:
     5:
     0.291361,0.364715,0.063985,0.559870,0.031993,177.000000,8.000000,70.000000,0.000000,0.000000,0.000000,0.291361,0.364715,0.063985,0.559870,0.031993,177.000000,8.000000,70.000000,0.000000,0.000000,0.000000:
0000
0000
0000
0000
,
0000
0000
0000
0000
,
0100
0100
0001
0001
2000
0200
3300
0000
,
1000
1000
0100
0100
0020
0002
0033
0000
,
0001
1000
0010
0010
0100
0200
0300
0000
,
0001
1000
0100
0100
0010
0020
0030
0000
,
0001
1000
0010
0100
0001
0002
0103
0000
,
0001
0010
0100
1000
0010
0020
1030
0000
,
0000
0000
0102
2003
,
3100
0000
0010
0000
0001
1000
0001
0000
0200
0000
0000
0000
0320
0000
0000
0000
,
1030
0000
0100
0000
1000
0001
1000
0000
0020
0000
0230
0000
0320
0000
0230
0000
,
0302
2003
3002
2003
3200
0320
0230
0320
,
0031
1000
1001
0000
2010
0000
3002
0000
,
0013
0000
0100
0000
1000
0001
1000
0000
0020
0000
0000
0000
0230
0000
0000
0000
,
0301
0000
0010
0000
0001
1000
0001
0000
0200
0000
0320
0000
0230
0000
0320
0000
,
2030
3002
2003
3002
0023
0230
0320
0230
,
1300
0001
1001
0000
0200
0000
0301
0000
,
2000
3100
2000
3002
,
0203
0000
0320
0000
1030
0100
0010
0001
,
1000
0100
0010
0001
0100
0100
0010
0010
,
0000
0000
0000
0000
2001
0100
3002
0100
,
2003
0000
3100
0010
1002
0010
2003
0010
,
3002
0000
0013
0001
2000
0000
3100
0010
,
0002
0000
0103
0010
1000
1000
0001
0001
,
0100
0000
0010
0000
0110
0000
0000
0000
0001
0100
0001
0000
1000
0100
1000
0000
,
0020
0000
0000
0000
0130
0000
0001
0000
1000
0100
1000
0000
0001
0100
0001
0000
,
0020
0000
0031
1000
0020
0230
0302
2003
,
3200
0320
0032
2003
3020
0230
0302
2003
,
3200
0310
2001
0000
3100
0000
0000
0000
;

//---------------dance-single - ----------------
#NOTES:
     dance-single:
     :
     Easy:
     3:
     0.179387,0.203353,0.047989,0.319926,0.000000,111.000000,6.000000,40.000000,0.000000,0.000000,0.000000,0.179387,0.203353,0.047989,0.319926,0.000000,111.000000,6.000000,40.000000,0.000000,0.000000,0.000000:
0000
0000
0000
0000
,
0000
0000
0000
0000
,
1000
0001
0100
0000
,
0001
1000
0100
0000
,
1000
0000
0010
0000
0100
0100
0000
0000
,
0010
0000
0100
0000
0001
0001
0000
0000
,
1000
0000
0001
0000
0100
0100
0100
0000
,
0010
0000
1000
0000
0100
0100
0100
0000
,
0000
0000
1001
0010
,
0100
0100
0001
0000
1000
0000
0100
0000
,
0010
0010
0001
0000
2000
3000
0002
0003
,
0200
0300
0020
0030
2000
3000
0200
0300
,
0020
0030
0001
0000
1001
0000
0100
0000
,
0010
0010
1000
0000
0001
0000
0010
0000
,
0100
0100
1000
0000
0002
0003
2000
3000
,
0020
0030
0200
0300
0002
0003
0020
0030
,
0200
0300
1000
0000
0020
0000
0030
0000
,
0200
0000
0300
0000
0002
0003
2000
3000
,
0002
0003
2000
3000
0020
0030
0200
0300
,
0020
0030
0200
0300
0001
0010
0100
1000
,
0000
0000
0000
0000
2001
3000
0020
0030
,
0100
0100
0010
0000
1002
0003
0020
0030
,
0100
0100
0010
0000
0002
0003
0001
0000
,
2000
3000
1000
0000
0020
0030
0010
0000
,
0100
0100
0000
0000
2001
3000
0200
0300
,
0010
0010
0100
0000
1002
0003
0100
0000
,
0010
0010
0100
0000
0002
0003
2000
3000
,
0020
0030
0200
0300
0002
0003
2000
3000
,
0100
0100
0010
0000
0000
0000
0000
0000
;

//---------------dance-single - ----------------
#NOTES:
     dance-single:
     :
     Beginner:
     1:
     0.083409,0.101676,0.055987,0.000000,0.000000,66.000000,7.000000,0.000000,0.000000,0.000000,0.000000,0.083409,0.101676,0.055987,0.000000,0.000000,66.000000,7.000000,0.000000,0.000000,0.000000,0.000000:
0000
0000
0000
0000
,
0000
0000
0000
0000
,
0010
0000
0100
0000
,
0001
0000
1000
0000
,
0100
0100
0000
0010
,
0001
0001
0000
1000
,
0010
0010
0000
0100
,
0001
0001
0000
1000
,
0000
0000
1001
0001
,
0001
0000
1000
1000
,
1000
0000
0010
0000
,
0100
0000
0001
0000
,
1000
0000
1001
1000
,
1000
0000
0001
0001
,
0001
0000
0100
0000
,
0010
0000
1000
0000
,
0001
0000
0100
0000
,
0010
0000
1000
1000
,
0000
0000
0001
0001
,
0000
0000
0100
0100
,
0100
0000
1001
1000
,
0010
0000
1001
0001
,
0010
0000
0001
0000
,
1000
0000
0010
0000
,
0100
0000
1001
1000
,
0100
0000
1001
0001
,
0100
0000
0010
0010
,
0000
0000
1000
1000
,
0000
1001
0000
0000
;
