#TITLE:Alone Again (Steve Smart & Westfunk Mix);
#ARTIST:Alyssa Reid;
#FILE:Alone Again (Steve Smart & Westfunk Mix).mp3;
#BPM:124.980;
#GAP:40;
#SAMPLESTART:78.768;
#SAMPLELENGTH:16.180;
#SINGLE:BEGINNER:1:
00000000
00000000
00000000
00000000
00000000
80000000
40000000
60000000
40000000
A0000000
20000000
40000000
60000000
20002000
00000000
60006000
00000000
40004000
00000000
80008000
00000000
A0000000
40400000
40000000
60600000
B0000000
20000000
40000000
60000000
80008000
80000000
20002000
20000000
B0000000
40000000
60000000
20202000
20000000
60000000
40000000
00000000
B0000000
40400000
60600000
80000000
20200000
40400000
80800000
20000000
B0000000
;
#SINGLE:ANOTHER:6:
00000000
00000000
00000000
00000000
00000000
80804060
40422000
40406086
20000000
70204000
60806040
80206000
80604000
80402!20A0
60408!80A0
60406!60B0
20806!60B0
80204!4010
80402!20A0
64204!4070
46802!20A0
60604040
80208000
40406060
42606240
70002000
40206000
80006000
80602000
80424000
80804060
20626000
40604000
80220000
60402042
80006460
40204400
80004080
20888000
40604024
20000000
B0206420
8060408!80
A0804!4020
106!603040
80208420
46208040
6!6080904!40
70604084
60000000
;
#SINGLE:MANIAC:9:
00000000
00000000
00000000
00000000
00000000
70208062
40804!4040
20406086
2!20200000
(600600604!40004020)
(4004004080080080)
(200200206!60006080)
(200200204!4000B000)
20804240
64208620
80206420
42648260
8!80A06020
4!40108230
80406420
48284600
1!40801420
3!60403820
40826000
802826B0
(600600602!20002080)
(2002002060060060)
(400400402!20002040)
(8008008020020020)
(8002802080004000)
60402280
(6002602060004000)
28286460
70206040
20604084
60284828
42468280
60408028
46482080
42864628
2080B000
(400200406!60006000)
(2008004060080060)
(400200408!80008000)
(2008004020080060)
(400600802!20002000)
(8006002080040060)
(400200408!80008000)
(2002002060004080)
60000000
;
#SINGLE:BASIC:3:
00000000
00000000
00000000
00000000
00000000
8!8000A!2000
3!6000B!4000
7!80007!4000
1!2000A!8000
90208000
40208000
60402000
40208000
20406020
80206000
80604080
20804000
20204000
80804000
60608000
20208000
6!60002000
20008090
20006000
4!40201000
4!40007!8000
7!4000B!6000
9!8000A!2000
1!4000B!6000
30206060
40402020
40802060
40208060
30008000
40008000
40002000
40006000
10008000
40006000
20008000
B!B000B000
2!2080A000
2!2000A000
4!40201000
4!40001000
6!60809000
6!60009000
60408020
600000A0
A0000000
;
