#VERSION:0.83;
#TITLE:Black Skinhead;
#SUBTITLE:;
#ARTIST:Kanye West;
#TITLETRANSLIT:;
#SUBTITLETRANSLIT:;
#ARTISTTRANSLIT:;
#GENRE:;
#ORIGIN:;
#CREDIT:;
#BANNER:Black Skinhead.png;
#BACKGROUND:Black Skinhead-bg.png;
#PREVIEWVID:;
#JACKET:jacket.png;
#CDIMAGE:;
#DISCIMAGE:;
#LYRICSPATH:;
#CDTITLE:;
#MUSIC:Black Skinhead.ogg;
#OFFSET:0.003000;
#SAMPLESTART:70.096199;
#SAMPLELENGTH:15.514003;
#SELECTABLE:YES;
#BPMS:0.000=130.020;
#STOPS:42.667=0.462,
45.667=0.462,
278.000=0.231,
278.500=0.231,
279.000=0.231,
279.500=0.231,
280.000=0.231,
280.500=0.231,
281.000=0.231,
281.500=0.231,
282.000=0.231,
282.500=0.231,
283.000=0.231,
283.500=0.231,
284.000=0.231,
284.500=0.231,
285.000=0.231,
285.500=0.231,
286.000=0.231,
286.500=0.231,
287.000=0.231,
287.500=0.231,
288.000=0.231,
288.500=0.231,
289.000=0.231,
289.500=0.231,
290.000=0.231,
290.500=0.231,
291.000=0.231,
291.500=0.231;
#DELAYS:;
#WARPS:;
#TIMESIGNATURES:0.000=4=4;
#TICKCOUNTS:0.000=4;
#COMBOS:0.000=1;
#SPEEDS:0.000=1.000=0.000=0;
#SCROLLS:0.000=1.000;
#FAKES:;
#LABELS:0.000=Song Start;
#BGCHANGES:4.000=Black Skinhead.avi=1.000=0=0=1=====,
99999=-nosongbg-=1.000=0=0=0 // don't automatically add -songbackground-
;
#KEYSOUNDS:;
#ATTACKS:
;

//---------------dance-single - ----------------
#NOTEDATA:;
#CHARTNAME:;
#STEPSTYPE:dance-single;
#DESCRIPTION:;
#CHARTSTYLE:;
#DIFFICULTY:Hard;
#METER:10;
#RADARVALUES:0.592619,0.868187,0.501984,0.285852,0.885443,595.000000,523.000000,72.000000,41.000000,0.000000,0.000000,0.000000,0.000000,0.000000,0.592619,0.868187,0.501984,0.285852,0.885443,595.000000,523.000000,72.000000,41.000000,0.000000,0.000000,0.000000,0.000000,0.000000;
#CREDIT:Ben Speirs;
#NOTES:
// measure 0
0000
0000
0000
0000
,  // measure 1
0000
0000
0000
0000
,  // measure 2
1000
0100
1000
0001
0100
0001
1000
0100
0010
1001
0000
0000
,  // measure 3
1000
0010
1000
0001
0010
0001
1000
0100
0010
1001
0000
0000
,  // measure 4
1000
0100
1000
0101
0000
0000
0001
0100
0001
1100
0000
0000
,  // measure 5
1000
0100
1000
0001
0100
0001
1000
0100
0010
1001
0000
0000
,  // measure 6
1100
0000
1000
0100
0000
0100
0010
0000
0010
0001
0000
0001
,  // measure 7
0100
0000
0100
0010
0000
0010
1000
0000
0001
0100
0000
0000
,  // measure 8
0001
0000
0001
0010
0000
0010
0100
0000
0100
1000
0000
1000
,  // measure 9
0010
0000
0010
0100
0000
0100
0001
0010
0001
1000
0010
1000
,  // measure 10
0100
0000
0100
0010
0000
0010
0001
0000
1000
0010
0000
0010
,  // measure 11
1000
0000
1000
0001
0000
0100
0002
0100
0000
2003
0100
0000
,  // measure 12
3002
0000
0000
2003
0000
0000
3010
0000
0100
0010
0000
1000
,  // measure 13
0001
0010
0001
1000
0010
1000
0100
0000
0000
1000
0100
0010
,  // measure 14
0001
0000
0000
1100
0000
0000
1002
0003
1000
0100
1000
0001
,  // measure 15
0100
0000
0000
1010
0000
0000
0102
0003
0000
1000
0010
1000
,  // measure 16
0001
0000
0000
1100
0000
0000
0001
0100
0001
1000
0100
1000
,  // measure 17
0010
0100
0010
1000
0001
0100
0002
0000
0000
0103
0010
0100
,  // measure 18
0001
0000
0001
0010
0000
0010
0200
0000
0000
1300
0100
1000
,  // measure 19
0010
0000
0010
0100
0000
0100
0001
0100
0010
1000
0100
0010
,  // measure 20
0100
0010
0001
0100
0010
0100
0010
1000
0100
0010
0001
1000
,  // measure 21
0020
0000
0200
0000
0030
0000
0301
0100
0010
0100
0001
0010
,  // measure 22
0100
0000
0100
1000
0000
0000
1000
0100
0010
0100
1000
0010
,  // measure 23
0100
0000
0100
0001
0000
0000
1000
0100
1000
0001
0100
0001
,  // measure 24
1000
0000
1000
0010
0000
0000
1000
0001
1000
0100
0010
0100
,  // measure 25
0010
0010
0001
0100
0100
0010
1000
0100
1000
0001
0100
0001
,  // measure 26
1000
0000
1000
0001
0000
0000
0001
0010
0001
1000
0100
1000
,  // measure 27
0001
0000
0001
0100
0000
0000
0001
0010
0010
0100
1000
1000
,  // measure 28
0010
0000
0010
0100
0000
0100
0001
1000
0001
0100
0000
0001
,  // measure 29
1000
0001
1000
0100
0010
0001
2001
0000
0000
0100
0000
0000
,  // measure 30
0000
0000
0000
3100
0000
0010
1002
0000
0000
0100
0000
0000
,  // measure 31
0000
0103
2001
0010
,  // measure 32
0000
0000
0000
3010
0000
0100
1002
0000
0000
0010
0000
0000
,  // measure 33
0000
0000
0000
0013
0000
0000
1000
1000
1000
0100
0100
0100
,  // measure 34
0010
0010
0010
1001
0000
0000
0001
0001
0001
0100
0100
0100
,  // measure 35
0010
0010
0010
1001
0000
0000
0100
0100
0100
1001
0000
0000
,  // measure 36
0010
0010
0010
1001
0000
0000
1000
1000
1000
0100
0100
0100
,  // measure 37
0010
0010
0010
1001
0000
0000
2200
3300
0000
0101
0000
0000
,  // measure 38
1100
0000
0000
1001
0000
0000
1000
0100
0010
0001
0010
0100
,  // measure 39
1000
0001
0100
0010
1000
0001
0202
0303
0000
0110
0000
0000
,  // measure 40
1010
0000
0000
0101
0000
0000
0100
0001
0100
0010
1000
0100
,  // measure 41
0010
0001
0010
0100
0000
1000
1002
0000
0000
0103
0000
0000
,  // measure 42
0010
0100
0001
1000
0000
0100
2100
0000
0000
3001
0000
0000
,  // measure 43
0100
0010
0100
0001
0000
1000
1002
0000
0000
0103
0000
0100
,  // measure 44
0010
0100
0001
1000
0000
0000
0001
0010
0100
1000
0000
1000
,  // measure 45
0100
0010
0001
1000
0000
0000
2002
0000
0000
0000
0000
0000
,  // measure 46
0000
0000
0000
0000
,  // measure 47
0000
3003
0200
0000
,  // measure 48
0010
0310
0200
0000
,  // measure 49
0310
0100
0010
1000
0001
1000
0200
0000
0000
0010
0000
0000
,  // measure 50
0010
0000
0000
1300
0000
0010
0020
0000
0000
0001
0000
0000
,  // measure 51
0001
0130
0002
0100
,  // measure 52
0100
0000
0000
1003
0000
1000
2000
0000
0000
0010
0000
0000
,  // measure 53
0100
0000
0000
3100
0000
0000
0001
0010
0001
1000
0010
1000
,  // measure 54
0100
0100
0100
1001
0000
0000
1000
0010
1000
0001
0010
0001
,  // measure 55
0100
0100
0100
1001
0000
0000
0010
0010
0010
1001
0000
0000
,  // measure 56
0100
0100
0100
1001
0000
0000
1010
0010
0010
0101
0100
0100
,  // measure 57
0110
0010
0010
1001
0000
0000
2020
3030
0000
0101
0000
0000
,  // measure 58
1100
0000
0000
1001
0000
0000
1000
0100
0001
0100
1000
0010
,  // measure 59
0100
0001
1000
0010
0000
1000
2002
3003
0000
0101
0000
0000
,  // measure 60
1100
0000
0000
1001
0000
0000
0001
0100
1000
0100
0001
0010
,  // measure 61
0100
1000
0001
0100
0000
0000
0010
1000
0010
0100
0010
0100
,  // measure 62
0001
0100
0001
1000
0000
1000
0001
0010
0001
0010
0100
0010
,  // measure 63
0100
1000
0100
1000
0000
1000
0001
0010
0100
1000
0001
0100
,  // measure 64
0010
1000
0001
0100
0000
0000
0010
0010
0010
0200
0000
0301
,  // measure 65
0010
0010
0010
0200
0000
0000
0300
0000
0000
0000
0000
0000
,  // measure 66
0000
0000
0000
0000
,  // measure 67
0000
0000
0000
0000
,  // measure 68
0000
0000
0000
0000
,  // measure 69
0000
0000
0000
0000
1010
1100
0101
0011
,  // measure 70
0110
1100
0101
1010
1001
1100
0110
0011
,  // measure 71
1001
0000
0000
0000
0000
0000
0000
0000
0000
0000
0000
0000
0000
0000
0000
0000
0000
0000
0000
0000
0000
0000
0000
0000
1010
0000
0000
0000
0000
0000
0000
0000
0000
0000
0000
0000
0000
0000
0000
0000
0000
0000
0000
0000
0000
0000
0000
0000
0110
0000
0000
0000
0000
0000
0000
0000
0000
0000
0000
0000
0000
0000
0000
0000
0000
0000
0000
0000
0000
0000
0000
0000
0101
0000
0000
0000
0000
0000
0000
0000
0000
0000
0000
0000
0000
0000
0000
0000
0000
0000
0000
0000
0000
0000
0000
0000
1020
0000
0000
0000
0000
0000
0000
0000
0000
0000
0000
0000
0000
0000
0000
0000
0000
0000
0000
0000
0000
0000
0000
0000
0001
0030
0000
0000
0000
0000
0000
0000
0000
0000
0000
0000
0000
0000
0000
0000
0000
0000
0000
0000
0000
0000
0000
0000
1010
0000
0000
0000
0000
0000
0000
0000
0000
0000
0000
0000
0000
0000
0000
0000
0000
0000
0000
0000
0000
0000
0000
0000
1100
0000
0000
0000
0000
0000
0000
0000
0000
0000
0000
0000
0000
0000
0000
0000
0000
0000
0000
0000
0000
0000
0000
0000
,  // measure 72
0201
1300
0101
1100
1020
0031
0020
0130
,  // measure 73
2002
3003
0000
0000
;

//---------------dance-double - ----------------
#NOTEDATA:;
#CHARTNAME:;
#STEPSTYPE:dance-double;
#DESCRIPTION:;
#CHARTSTYLE:;
#DIFFICULTY:Challenge;
#METER:10;
#RADARVALUES:0.583655,0.868187,0.411348,0.209160,0.920303,586.000000,527.000000,59.000000,30.000000,0.000000,0.000000,0.000000,0.000000,0.000000,0.583655,0.868187,0.411348,0.209160,0.920303,586.000000,527.000000,59.000000,30.000000,0.000000,0.000000,0.000000,0.000000,0.000000;
#CREDIT:Ben Speirs;
#NOTES:
00000000
00000000
00000000
00000000
,
00000000
00000000
00000000
00000000
,
10000000
01000000
00010000
01000000
00010000
00001000
00010000
00001000
00000100
00000101
00000000
00000000
,
00000001
00000100
00001000
00000100
00001000
00010000
00001000
00010000
01000000
11000000
00000000
00000000
,
10000000
01000000
00010000
00011000
00000000
00000000
00010000
00001000
00000100
00000101
00000000
00000000
,
00000001
00000100
00001000
00000100
00001000
00010000
00001000
00010000
01000000
11000000
00000000
00000000
,
00010000
00000000
00010000
10000000
00000000
10000000
00100000
00000000
00100000
01000000
00000000
01000000
,
00010000
00000000
00010000
00100000
00000000
00100000
01000000
00000000
10000000
00010000
00000000
00000000
,
10000000
00000000
10000000
00100000
00000000
00100000
01000000
00000000
01000000
00010000
00000000
00010000
,
00100000
00000000
00100000
00001000
00000000
00001000
00010000
00100000
00010000
00001000
00000010
00001000
,
00010000
00000000
00010000
00100000
00000000
00100000
00010000
00000000
00010000
00001000
00000000
00001000
,
00000010
00000000
00000010
00001000
00000000
00001000
00011000
00000000
00000000
00010100
00000000
00000000
,
00011000
00101000
00002000
00023000
,
00030100
00001000
00000100
00010000
00001000
00010000
00000200
00000000
00000000
00001300
00000010
00001000
,
00000001
00000000
00000001
00000100
00000000
00000000
00001001
00000000
00000001
00000010
00000100
00001000
,
00000001
00000000
00000001
00000100
00000000
00000000
00001010
00000000
00000000
00001000
00000100
00010000
,
00000100
00000000
00000000
00010100
00000000
00000000
00010000
00001000
00010000
00001000
00100000
00010000
,
01000000
01000000
01000000
00100000
00100000
00100000
10000000
00000000
10000000
00010000
10000000
00010000
,
01000000
00000000
00010000
10000000
00000000
00100000
01000000
00000000
00010000
10000000
00010000
10000000
,
00100000
00000000
00100000
01000000
00000000
00000000
00010000
01000000
00010000
00100000
01000000
00100000
,
00010000
01000000
00010000
00100000
01000000
00100000
00010000
01000000
00001000
00010000
00000100
00001000
,
00000020
00000000
00000200
00000000
00000030
00000000
00000301
00000100
00000010
00000100
00000001
00001000
,
00000100
00000000
00000000
00001100
00000000
00000000
00000001
00000010
00000100
00001000
00000010
00000100
,
00000001
00000000
00000000
00000101
00000000
00000000
00000100
00000010
00001000
00000100
00010000
00001000
,
00100000
00000000
00010000
01000000
00000000
00000000
00100000
10000000
00100000
01000000
00010000
01000000
,
00100000
00100000
00100000
10000000
10000000
10000000
01000000
10000000
00100000
01000000
00010000
00100000
,
01000000
00100000
01000000
10000000
00000000
00000000
00100000
01000000
00010000
00100000
00010000
01000000
,
00001000
00010000
00001000
00010000
00000000
00000000
00000100
00001000
00000010
00001000
00000001
00001000
,
00000100
00000010
00000100
00001000
00000010
00000100
00000001
00001000
00000001
00000100
00000010
00001000
,
00000100
00000100
00000010
00000001
00000001
00000100
00000020
00000000
00000000
00010000
00000000
00000000
,
00000000
00000000
00000000
00010030
00000000
00001000
00200000
00000000
00000000
00010000
00000000
00000000
,
00000000
00000000
00000000
00010000
00300000
00000000
00102000
00000000
00000000
01000000
00000000
00000000
,
00000000
00000000
00000000
01003000
00000000
10000000
00200000
00000000
00000000
01000000
00000000
00000000
,
00000000
00000000
00000000
01300000
00000000
00000000
10000000
10000000
10000000
01000000
01000000
01000000
,
00010000
00010000
00010000
00011000
00000000
00000000
00000001
00000001
00000001
00000100
00000100
00000100
,
00001000
00001000
00001000
00011000
00000000
00000000
00100000
00100000
00100000
00011000
00000000
00000000
,
00000010
00000010
00000010
00011000
00000000
00000000
00100000
00010000
00010000
00001000
00010000
00010000
,
00100000
00010000
00010000
00011000
00000000
00000000
00001100
00000000
00001000
00000010
00000000
00000010
,
00000100
00000000
00000100
00000001
00000000
00000001
00000010
00000100
00000010
00000001
00000100
00000010
,
00001000
00000100
00000010
00000001
00000000
00001000
00001010
00000000
00000000
00001001
00000000
00000000
,
00000101
00000000
00000000
00001001
00000000
00000000
00000001
00000010
00000100
00000010
00000100
00001000
,
00000010
00000100
00000010
00000100
00000000
00000010
00020000
00000000
00000000
00031000
00010000
00001000
,
00010000
00001000
00010000
00001000
00000000
00100000
00020000
00000000
00000000
10030000
00100000
10000000
,
00100000
10000000
00100000
10000000
00000000
00000000
00010000
00100000
01000000
00100000
01000000
00100000
,
01000000
10000000
00010000
02000000
00000000
00000000
03100000
10000000
00100000
02000000
00000000
03010000
,
00100000
01000000
10000000
00020000
00000000
00000000
02030000
00000000
00000000
00000000
00000000
00000000
,
00100000
03100000
00020000
00000000
,
00100000
00130000
20000000
00000000
,
01000000
31000000
00020000
00030000
,
10000000
01000000
00010000
00001000
00000100
00000001
00002000
00000000
00000000
00000000
00000000
00000000
,
00000000
00000000
00003020
00000000
,
00000000
00000000
00000230
00000000
,
00000000
00000000
00000302
00000000
,
00000000
00000000
00000000
00000000
00000000
00000000
00000013
00000100
00000010
00000100
00001000
00000100
,
00001000
00000001
00000100
00001001
00000000
00000000
00000010
00001000
00000010
00000100
00000010
00000100
,
00000001
00000010
00000100
00001100
00000000
00000000
00001000
00001000
00001000
00011000
00000000
00000000
,
00100000
00100000
00100000
11000000
00000000
00000000
00100000
00100000
00100000
01000000
01000000
01000000
,
00001000
00001000
00001000
00110000
00000000
00000000
10010000
00000000
10000000
01000000
00000000
01000000
,
00100000
00000000
00100000
00010000
00000000
00010000
01000000
00100000
01000000
00010000
00100000
00010000
,
00100000
00001000
00010000
00000100
00000000
00001000
00000020
00000000
00000000
00000130
00000000
00000010
,
00001000
00000000
00001000
00000100
00000000
00000010
00000001
00000010
00000100
00001000
00000001
00000100
,
00000010
00001000
00000001
00001000
00000000
00000000
00000101
00000000
00000000
00000010
00000100
00000001
,
00000100
00000010
00001000
00000100
00000000
00000000
00010100
00000000
00000000
00010000
00001000
00100000
,
00010000
01000000
00100000
10000000
00000000
00000000
00100000
01000000
00100000
01000000
00010000
00100000
,
01000000
00100000
01000000
20000000
00000000
00000000
31000000
00100000
00010000
20000000
00000000
30010000
,
01000000
00001000
00010000
00000200
00000000
00000000
00002300
00000000
00000000
00000000
00000000
00000000
,
00000000
00000000
00003000
00000000
,
00000000
00000000
00000000
00000000
,
00000000
00000000
00000000
00000000
,
00000000
00000000
00000000
00000000
00001010
00000101
00001100
00000110
,
00011000
00110000
01100000
10100000
01010000
01001000
00010100
00001010
,
00000101
00001100
00000110
00001100
00110000
01100000
11000000
01010000
,
00001100
00000110
00000101
00000110
00021000
00130000
10000000
01000000
,
00022000
00033000
00000000
00000000
;

//---------------dance-single - ----------------
#NOTEDATA:;
#CHARTNAME:;
#STEPSTYPE:dance-single;
#DESCRIPTION:;
#CHARTSTYLE:;
#DIFFICULTY:Medium;
#METER:8;
#RADARVALUES:0.513936,0.791583,0.320712,0.083664,0.752975,516.000000,470.000000,46.000000,12.000000,0.000000,0.000000,0.000000,0.000000,0.000000,0.513936,0.791583,0.320712,0.083664,0.752975,516.000000,470.000000,46.000000,12.000000,0.000000,0.000000,0.000000,0.000000,0.000000;
#CREDIT:Ben Speirs;
#NOTES:
0000
0000
0000
0000
,
0000
0000
0000
0000
,
1000
0100
1000
0001
0100
0001
1000
0100
1000
0010
0000
0000
,
1000
0100
1000
0001
0100
0001
1000
0100
1000
0010
0000
0000
,
0001
0100
0001
0010
0000
0000
1000
0100
1000
0010
0000
0000
,
0001
0100
0001
1000
0100
1000
0001
0100
0001
0010
0000
0000
,
1100
0000
1000
0100
0000
0100
0010
0000
0010
0001
0000
0001
,
1000
0000
1000
0010
0000
0010
0100
0000
0100
0001
0000
0001
,
0010
0000
0010
0100
0000
0100
1000
0000
1000
0010
0000
0010
,
0100
0000
0100
0001
0000
0001
0020
0000
0000
0230
0000
0000
,
1300
0000
1000
0100
0000
0100
0010
0000
0010
0001
0000
0001
,
0100
0000
0100
0010
0000
0010
1010
0000
0000
1100
0000
0000
,
0101
0011
1001
1001
,
0001
0100
0001
1000
0100
1000
0001
0000
0000
1000
0000
0000
,
0010
0100
0010
0100
0000
0000
0001
0000
0000
0010
0100
0010
,
0100
0000
0000
1000
0000
0000
1100
0000
0000
0001
0010
0001
,
0010
0000
0000
0100
0000
0000
1000
0010
1000
0010
0100
0010
,
0100
0000
0000
0001
0000
0000
1001
0000
0000
0001
0010
0100
,
1000
0000
0000
0001
0000
0000
1001
0000
0000
1000
0100
0010
,
0001
0000
0000
1000
0000
0000
0010
0100
0010
0100
0010
0100
,
0001
1000
0001
1000
0001
1000
0100
0010
0100
0010
0100
0010
,
0001
0000
1000
0000
0000
0000
1100
0000
0000
0101
0000
0000
,
1000
0000
0001
0100
0000
0000
0101
0000
0000
1100
0000
0000
,
0001
0000
1000
0100
0000
0000
1000
0010
1000
0010
0000
0000
,
0001
0010
0001
0010
0000
0000
1000
0001
1000
0001
1000
0001
,
0100
0010
0100
0010
0100
0010
1000
0000
0100
1000
0000
0001
,
0100
0000
0000
1001
0000
0000
0001
0000
0100
0001
0000
1000
,
0100
0000
0000
1001
0000
0000
1000
0100
1000
0100
0000
0100
,
0010
0000
0010
0001
1000
0001
0100
0000
0100
0010
1000
0001
,
1000
0000
1000
0010
0000
0000
0202
0000
0000
0000
0000
0000
,
0000
0000
0000
0303
0000
1000
2000
0000
0000
0000
0000
0000
,
0000
3000
2200
0000
,
0000
0000
0000
3300
0000
0001
0002
0000
0000
0000
0000
0000
,
0000
0000
0000
0000
0000
0000
0103
0001
0100
0001
0100
0001
,
0100
0001
0100
0010
0000
0000
1000
0100
1000
0100
1000
0100
,
1000
0100
1000
0010
0000
0000
0001
1000
0001
0010
0000
0000
,
1000
0001
1000
0010
0000
0000
1000
0100
0010
0001
0010
0100
,
1000
0001
0100
0010
0000
0000
1001
0000
1000
0010
0000
0010
,
0100
0000
0100
0001
0000
0001
0010
0000
0010
0100
0000
0100
,
1000
0000
1000
0010
0000
1000
0100
0000
0100
0010
0000
0010
,
0001
0000
0001
0100
0000
0100
0010
0000
0010
1000
0000
1000
,
0001
0000
0001
0010
0000
0001
0100
0000
0100
0010
0000
0010
,
1000
0000
1000
0001
0000
1000
0010
0000
0010
0100
0000
0100
,
0001
0000
0001
1000
0000
0001
0010
0000
0010
0100
0000
0100
,
1000
0000
1000
0010
0000
0000
1000
0100
1000
0100
0000
0010
,
0001
0100
0001
0100
0000
0000
0010
0000
0000
0000
0000
0000
,
0000
0000
0000
0000
,
0000
0000
0000
0000
,
0000
0000
0000
0000
,
0001
1000
0001
1000
0001
1000
0010
0000
0000
0110
0000
0000
,
0000
0110
0001
0101
,
0000
0101
1000
1100
,
0000
1100
0010
0110
,
0000
0000
0000
1001
0000
0000
0001
0100
0001
1000
0001
0100
,
0001
1000
0001
0100
0000
0000
1000
0100
1000
0001
1000
0100
,
1000
0001
1000
0001
0000
0000
0010
0001
0010
0100
0000
0000
,
0010
0100
0010
0001
0000
0000
1000
0010
1000
0001
0010
0001
,
1000
0010
1000
0001
0000
0000
1001
0000
1000
0010
0000
0010
,
0100
0000
0100
0001
0000
0001
1000
0000
1000
0100
0000
0100
,
0010
0001
0010
0001
0000
0000
0010
0000
0010
0001
0000
0001
,
0100
0000
0100
0010
0000
0010
1000
0000
1000
0001
0000
0001
,
1000
0100
1000
0100
0000
0000
1000
0000
1000
0010
0000
0010
,
0100
0001
0100
0001
0000
0000
1000
0000
1000
0001
0000
0001
,
0010
0100
0010
0100
0000
0000
1000
0000
1000
0100
0000
0100
,
0010
0001
0010
0001
0000
0000
1000
0010
1000
0010
0000
0001
,
0010
0001
0010
0001
0000
0000
1001
0000
0000
0000
0000
0000
,
0000
0000
0000
0000
,
0000
0000
0000
0000
,
0000
0000
0000
0000
,
0000
0000
0000
0000
1100
0010
1000
0001
,
0101
1000
0001
0010
0210
1000
0010
0301
,
0120
0001
0100
1030
0011
1010
1100
0101
,
1001
0110
1001
1100
1010
0110
0101
0011
,
2002
3003
0000
0000
;

//---------------dance-single - ----------------
#NOTEDATA:;
#CHARTNAME:;
#STEPSTYPE:dance-single;
#DESCRIPTION:;
#CHARTSTYLE:;
#DIFFICULTY:Easy;
#METER:5;
#RADARVALUES:0.301788,0.663908,0.216132,0.230076,0.212646,303.000000,272.000000,31.000000,33.000000,0.000000,0.000000,0.000000,0.000000,0.000000,0.301788,0.663908,0.216132,0.230076,0.212646,303.000000,272.000000,31.000000,33.000000,0.000000,0.000000,0.000000,0.000000,0.000000;
#CREDIT:Ben Speirs;
#NOTES:
0000
0000
0000
0000
,
0000
0000
0000
0000
,
1000
0000
1000
0100
0000
0100
0010
0000
0010
0001
0000
0000
,
1000
0000
1000
0010
0000
0010
0100
0000
0100
0001
0000
0000
,
0100
0000
0100
0010
0000
0000
1000
0000
1000
0100
0000
0000
,
1000
0000
1000
0100
0000
0100
0010
0000
0010
0001
0000
0000
,
2002
3003
0001
1000
,
0010
0010
0100
0000
,
2002
3003
1000
0001
,
0100
0000
0000
0100
0000
0000
0001
0000
0001
0010
0000
0010
,
0100
0100
0100
0010
,
0010
0010
1001
0110
,
1001
1001
0110
1001
,
1000
0000
1000
0100
0000
0100
0010
0000
0000
0001
0000
0100
,
0001
0000
0000
0000
0000
0000
0010
0000
0001
0100
0000
0001
,
0100
0000
0000
0000
0000
0000
0010
0000
0000
0010
0000
1000
,
0100
0000
0000
0000
0000
0000
0010
0000
1000
0100
0000
1000
,
0100
0000
0000
0000
0000
0000
1000
0000
0000
0010
0000
0100
,
0010
0000
0000
0000
0000
0000
1000
0000
0000
0001
0000
0100
,
0001
0000
1000
1000
,
0001
0000
0000
0001
0000
0000
0100
0000
0010
0100
0000
0010
,
0100
0000
0000
0000
0000
0000
0001
0000
0001
0010
0000
0010
,
0100
0000
0000
0100
0000
0000
1000
0000
1000
0010
0000
0010
,
0100
0000
0000
0100
0000
0000
0001
0000
0001
1000
0000
1000
,
0100
0100
2002
3003
,
0200
0300
0001
0010
,
0100
0000
0100
0000
0000
0000
1000
0000
0000
0010
0000
0000
,
0100
0000
0100
0000
0000
0000
0001
0000
0000
1000
0000
0000
,
0010
0000
0010
0000
0000
0000
0100
0000
0100
0000
0000
0000
,
0001
0000
0001
0000
0000
0000
2200
0000
0000
0000
0000
0000
,
3300
0000
0002
0000
,
0000
0003
0202
0000
,
0303
0000
2000
0000
,
0000
0000
0000
3000
0000
0000
0010
0000
0010
1000
0000
1000
,
0100
0000
0000
0000
0000
0000
1000
0000
1000
0100
0000
0100
,
0010
0000
0000
0000
0000
0000
0001
0000
0001
1000
0000
0000
,
0001
0000
0001
1000
0000
0000
0001
0000
0001
0010
0000
0010
,
0100
0000
0100
1000
0000
0000
2002
0000
0000
0000
0000
0000
,
3003
0000
1000
0010
,
0100
0001
2002
0000
,
3003
0000
0001
0010
,
0100
0100
2200
3300
,
0100
0010
0022
0033
,
0001
1000
0010
0010
,
0100
0000
0000
0100
0000
0000
0001
0000
1000
0001
0000
0000
,
1000
0000
0001
1000
0000
0000
0200
0000
0000
0000
0000
0000
,
0000
0000
0300
0000
,
0000
0000
0020
0000
,
0000
0000
0030
0000
,
0001
0000
0001
1000
0000
1000
0020
0000
0000
0030
0000
0000
,
0000
0000
0200
0300
,
0000
0000
0002
0003
,
0000
0000
2000
3000
,
0000
0000
0000
0000
0000
0000
0001
0000
0001
0010
0000
0010
,
0100
0000
0000
0000
0000
0000
1000
0000
1000
0010
0000
0010
,
0100
0000
0000
0000
0000
0000
0001
0000
0001
0100
0000
0000
,
0001
0000
0001
1000
0000
0000
1000
0000
1000
0100
0000
0000
,
1000
0000
1000
0001
0000
0000
2200
0000
3300
0000
0000
0000
,
0000
0000
0100
1000
,
0010
0000
0000
0010
0000
0000
0202
0000
0303
0000
0000
0000
,
0000
0000
0001
0100
,
0010
0010
1000
0001
,
0010
0000
0001
0010
0000
0000
0001
0000
0000
0100
0000
0000
,
0010
0000
1000
0010
0000
0000
1000
0000
0000
0001
0000
0000
,
0100
0000
0000
0100
0000
0000
0001
0000
0001
0010
0000
0000
,
0100
0000
0100
1000
0000
0000
0000
0000
0000
0000
0000
0000
,
0000
0000
0000
0000
,
0000
0000
0000
0000
,
0000
0000
0000
0000
,
0000
0000
0000
0000
1000
1000
1100
1100
,
0001
0001
0101
0101
1000
1000
1010
1010
,
0001
0001
0011
0011
1000
0001
0101
1010
,
0001
1000
1100
0011
0110
0000
0001
1000
,
2002
3003
0000
0000
;

//---------------dance-single - ----------------
#NOTEDATA:;
#CHARTNAME:;
#STEPSTYPE:dance-single;
#DESCRIPTION:;
#CHARTSTYLE:;
#DIFFICULTY:Beginner;
#METER:3;
#RADARVALUES:0.174300,0.254478,0.097608,0.000000,0.000000,175.000000,161.000000,14.000000,0.000000,0.000000,0.000000,0.000000,0.000000,0.000000,0.174300,0.254478,0.097608,0.000000,0.000000,175.000000,161.000000,14.000000,0.000000,0.000000,0.000000,0.000000,0.000000,0.000000;
#CREDIT:Ben Speirs;
#NOTES:
0000
0000
0000
0000
,
0000
0000
0000
0000
,
0010
0010
0010
0000
,
0100
0100
0100
0000
,
0001
0000
1000
0000
,
0010
0010
0010
0000
,
1001
0000
1000
0000
,
0010
0010
0010
0000
,
1000
0000
0001
0000
,
0100
0100
0100
0000
,
0001
0001
0001
1000
,
1000
1000
0010
0010
,
0010
0000
0100
0100
,
0100
0000
1001
0000
,
0001
0001
0000
1000
,
1000
0000
0000
0010
,
0010
0000
0100
0100
,
0100
0000
0000
0001
,
0001
0000
0000
1000
,
1000
0000
0010
0010
,
0010
0010
0010
0010
,
0010
0000
1000
1000
,
1000
0000
0001
0001
,
0001
0000
0100
0100
,
0100
0000
1001
0000
,
0000
0000
0001
0001
,
0001
0000
0010
0010
,
0010
0000
0100
0100
,
0100
0000
1000
0000
,
0001
0000
0100
0000
,
0000
0000
0010
0000
,
0000
0000
1000
0000
,
0000
0000
0001
0000
,
0000
0000
0100
0100
,
0100
0000
0010
0010
,
0010
0000
1000
0000
,
0001
0000
0100
0100
,
0100
0000
1001
0000
,
0000
0000
0001
0001
,
0001
0000
1001
0000
,
0000
0000
1000
1000
,
1000
0000
1001
0000
,
0010
0000
1001
0000
,
0010
0000
1001
0000
,
0010
0000
0100
0100
,
0100
0100
0000
0000
,
0000
0000
0000
0000
,
0000
0000
0000
0000
,
0000
0000
0000
0000
,
0001
0001
0001
0000
,
0000
0000
1000
0000
,
0000
0000
0010
0000
,
0000
0000
0100
0000
,
0000
0000
0001
0001
,
0001
0001
1000
1000
,
1000
1000
0001
0001
,
1000
1000
0001
0001
,
0001
0001
1001
0000
,
0000
0000
0100
0100
,
0100
0000
1001
0000
,
0000
0000
0010
0010
,
0010
0000
1001
0000
,
1000
1000
1001
0000
,
0001
0001
1001
0000
,
1000
0000
0010
0010
,
0010
0010
0000
0000
,
0000
0000
0000
0000
,
0000
0000
0000
0000
,
0000
0000
0000
0000
,
0000
0000
1000
0000
,
0001
0000
0100
0000
,
0010
0000
1000
1000
,
0001
0001
0100
0100
,
1001
0000
0000
0000
;
