#TITLE:Happier;
#SUBTITLE:;
#ARTIST:Marshmello ft. Bastille;
#TITLETRANSLIT:;
#SUBTITLETRANSLIT:;
#ARTISTTRANSLIT:;
#GENRE:EDM;
#CREDIT:;
#BANNER:Happier.png;
#BACKGROUND:Happier-bg.png;
#LYRICSPATH:;
#CDTITLE:;
#MUSIC:Happier.ogg;
#OFFSET:0.000000;
#SAMPLESTART:47.960133;
#SAMPLELENGTH:13.714000;
#SELECTABLE:YES;
#DISPLAYBPM:100;
#BPMS:0.000000=100.000000
,232.000000=99.000076
,233.000000=98.000122
,234.000000=96.000183
;
#STOPS:
;
#BGCHANGES:4.000=Happier.avi=1.000=0=0=1=====,
99999=-nosongbg-=1.000=0=0=0 // don't automatically add -songbackground-
;
#KEYSOUNDS:;
#ATTACKS:;

//---------------dance-single - ----------------
#NOTES:
     dance-single:
     :
     Hard:
     6:
     0.303979,0.364480,0.192193,0.267697,0.061776,310.000000,282.000000,28.000000,39.000000,0.000000,0.000000,0.303979,0.364480,0.192193,0.267697,0.061776,310.000000,282.000000,28.000000,39.000000,0.000000,0.000000:
0000
0000
0000
0000
,
0000
0000
0000
0000
,
0000
0000
0000
0000
,
0000
0000
0000
0000
,
2000
0000
3100
0000
0000
0000
1000
0001
,
0200
0000
0310
0000
0000
0000
0100
0001
,
0020
0130
0000
0110
,
2001
0000
3100
0000
0000
0000
0001
1000
,
0020
0000
0130
0000
0010
1000
0001
0000
,
2000
0000
3100
0000
1000
0100
0010
0010
,
0001
0000
1000
0001
1000
0000
0010
1000
,
0002
0000
0103
0000
0001
1000
0001
0000
,
2100
0010
3002
0103
,
0001
0000
1000
0001
0010
0100
1000
0010
,
0020
0000
0130
0000
0010
1000
0001
0100
,
0200
0320
2030
3000
,
1002
0000
0010
0000
0203
0000
0310
1000
,
0001
0000
1000
0100
0100
0010
0001
0100
,
0101
0110
1010
1001
,
1000
0100
0001
0010
1000
0000
0000
0000
,
0001
0000
0100
0000
0000
0100
0000
0000
0010
0000
0000
1000
0000
0000
1001
0000
,
0000
0000
0001
0000
0000
0100
0000
0000
0100
0000
0000
0010
0000
0000
1010
0000
,
0000
0000
1000
0000
0000
0001
0000
0000
0001
0000
0010
0000
0100
0000
1000
0000
,
0020
0000
0000
0000
0230
0000
0000
0000
0302
0000
0000
0003
1000
0000
0000
0000
,
0001
0100
0000
0001
1000
0000
1000
0100
,
0010
0010
0000
0100
1000
0010
0100
0100
,
0001
1000
0001
0000
0000
0000
0100
0000
0100
0000
0010
0000
1000
0000
0001
0000
,
1000
0100
1000
0000
0000
0000
0001
0000
0000
0000
0100
0000
0100
0000
0000
0000
,
2001
0000
3000
0010
,
0200
0000
0000
0000
0300
0000
0001
0010
,
0200
0000
2300
0000
,
3001
0000
0000
0000
,
0001
0100
0000
0001
1000
0000
0001
0100
,
0010
1000
0000
0001
1000
1000
0001
1000
,
0100
1000
0100
0000
0000
0000
1000
0000
0001
0000
1000
0000
1000
0000
0001
0000
,
0100
0001
0100
0000
0000
0000
0000
0000
0000
0000
0000
0000
0000
0000
0000
0000
,
1000
0010
0000
1000
0001
0000
1000
0010
,
0100
0001
0000
1000
0001
0001
1000
0001
,
0010
0001
0010
0000
0000
0000
0001
0000
1000
0000
0001
0000
0001
0000
1000
0000
,
0010
1000
0020
0000
0000
0000
0130
0000
0000
0000
0000
0000
0000
0000
0001
0000
,
0201
0320
2030
3100
,
1000
0000
0001
0010
0010
0001
1000
0010
,
1010
0000
1001
0000
1000
0100
0100
0010
,
0011
0110
1002
0103
,
2001
0000
3020
0000
0230
0000
0301
1000
,
0001
0000
0100
0010
0010
1000
0100
0010
,
0110
1100
0011
1001
,
1000
0010
0001
0100
1000
0000
0000
0000
,
1010
0000
0010
0000
0000
0100
0000
0000
0100
0000
0000
0001
0000
0000
1001
0000
,
0000
0000
1000
0000
0000
0010
0000
0000
0010
0000
0000
0100
0000
0000
0110
0000
,
0000
0000
1001
0000
0000
0001
0000
0000
1000
0000
0100
0000
0010
0000
0001
0000
,
0200
0320
2030
3100
,
1000
0010
0000
1000
0100
0000
1000
0001
,
0010
0010
0000
0001
1000
0001
0100
0100
,
0010
1000
0010
0000
0000
0000
1000
0000
0001
0000
1000
0000
0100
0000
0100
0000
,
0010
0001
0010
0000
0000
0000
0001
0000
0000
0000
1000
0000
0001
0000
0000
0000
,
2200
0000
3300
0010
,
0202
0000
0000
0000
0303
0000
1000
0001
,
0020
0000
0230
0000
,
1300
0000
0000
0000
;

//---------------dance-single - ----------------
#NOTES:
     dance-single:
     :
     Challenge:
     9:
     0.502055,0.587218,0.151009,0.185329,0.494210,512.000000,490.000000,22.000000,27.000000,0.000000,0.000000,0.502055,0.587218,0.151009,0.185329,0.494210,512.000000,490.000000,22.000000,27.000000,0.000000,0.000000:
// measure 0
0000
0000
0000
0000
,  // measure 1
0000
0000
0000
0000
,  // measure 2
0000
0000
0000
0000
,  // measure 3
0000
0000
0000
0000
0000
0000
0000
0000
0000
0000
0001
0010
0100
0000
1000
0000
,  // measure 4
1020
0000
0000
0000
0130
0000
0010
1000
0010
0000
1000
0000
0100
0000
0010
0000
,  // measure 5
0012
0000
0000
0103
0010
1000
0100
1000
0001
0010
0001
1000
,  // measure 6
0010
0000
1000
0000
0001
0000
0010
0000
0001
0000
1000
0000
0100
0000
0010
0000
0001
0000
0100
0000
0000
0010
0000
0000
,  // measure 7
2000
0000
0000
0000
3001
0000
0000
0000
0000
0000
1000
0100
0010
0000
0001
0000
,  // measure 8
0201
0000
0000
0000
0310
0000
0100
0001
0100
0000
0001
0000
0010
0000
0100
0000
,  // measure 9
2100
0000
0000
3010
0100
0001
0010
0001
1000
0100
1000
0001
,  // measure 10
0100
0000
0001
0000
1000
0000
0100
0000
1000
0000
0001
0000
0010
0000
0100
0000
1000
0000
0010
0000
0000
0100
0000
0000
,  // measure 11
0002
0000
0103
0010
0100
0001
1000
0000
,  // measure 12
0001
0000
0100
0000
0010
0000
0100
0000
0001
0100
0001
0000
0100
0000
0010
0000
,  // measure 13
1000
0000
0100
0000
0010
0000
0001
0000
1000
0000
0001
0000
1000
0000
0001
0010
,  // measure 14
0100
0000
1000
0000
0001
0000
1000
0000
0010
0000
0100
0000
0001
0000
1000
0100
,  // measure 15
0010
0000
0100
0010
0001
0000
0010
0001
1000
0000
0001
0000
0100
0000
0001
0000
,  // measure 16
1000
0000
0010
0000
0100
0000
0010
0000
1000
0010
1000
0000
0010
0000
0100
0000
,  // measure 17
0001
0000
0010
0000
0100
0000
1000
0000
0001
0000
1000
0000
0001
0000
1000
0100
,  // measure 18
0010
0000
0001
0010
0001
0000
0010
0100
0010
0000
0100
1000
0100
0000
1000
0000
,  // measure 19
0001
0000
0010
0000
0100
0000
1000
0000
0010
0000
0100
0000
0001
0000
1000
0000
0001
0000
0000
0000
0000
0000
1000
0100
1000
0000
0001
0000
0100
0000
0000
0000
,  // measure 20
1001
0000
0001
0100
0010
0100
0001
0000
1000
0100
0010
0100
1000
0000
1100
0000
,  // measure 21
0001
0000
1000
0010
0100
0010
1000
0000
0001
0010
0100
0010
0001
0000
0011
0000
,  // measure 22
1000
0000
0001
1000
0010
1000
0001
0000
1000
0001
0010
0001
1000
0000
0001
0000
,  // measure 23
1100
0000
0000
0000
0100
0000
0010
0000
0001
0000
0000
0000
0010
0000
0001
0000
1000
0000
0000
0000
0001
0000
0100
0010
0100
0000
0010
0000
1000
0000
0001
0000
,  // measure 24
1000
0100
0010
0000
0000
0000
0100
1000
0010
0000
0000
0000
0100
0010
0100
0000
,  // measure 25
0001
0010
0100
0000
0000
0000
0010
0001
1000
0000
0001
1000
0010
0000
0100
0000
,  // measure 26
0101
1000
0001
0000
0000
0000
1000
0001
0100
0000
0001
1000
0010
0000
1000
0000
,  // measure 27
1010
0001
2000
0000
0100
0000
3200
0000
0010
0000
0310
0001
1000
0000
0000
0000
,  // measure 28
2002
0000
0000
0000
0000
3000
0100
0000
,  // measure 29
0200
0000
0000
0000
0000
0003
0310
1000
,  // measure 30
0200
0000
0000
0000
0020
0000
0000
0300
,  // measure 31
0031
0000
0000
0000
,  // measure 32
1000
0100
0010
0000
0000
0000
0001
1000
0001
0000
0000
0000
1000
0010
0100
0000
,  // measure 33
0001
0100
0001
0000
0000
0000
0100
0010
1000
0000
0001
0000
0010
0000
0001
0000
,  // measure 34
1000
0100
0010
0000
0000
0000
0001
1000
0010
0000
0100
0010
0100
0000
0001
0000
,  // measure 35
0010
0001
0100
0000
0000
0000
0000
0000
0000
0000
0000
0000
0000
0000
0000
0000
,  // measure 36
0001
1000
0010
0000
0000
0000
0100
0010
0100
0000
0000
0000
0010
1000
0001
0000
,  // measure 37
1000
0100
0010
0000
0000
0000
0100
1000
0001
0000
1000
0000
0010
0000
0100
0000
,  // measure 38
0001
0100
0001
0000
0000
0000
0100
0010
0100
0000
0001
0010
0100
0000
1000
0000
,  // measure 39
0001
1000
0002
0000
0100
0000
0203
0000
0010
0300
0010
0000
1000
0000
0001
0000
,  // measure 40
1000
0000
1000
0100
1000
0000
1000
0001
1000
0000
1000
0010
1000
0000
0100
1000
,  // measure 41
0001
0000
0001
0100
0001
0000
0001
1000
0001
0000
0001
0010
0001
0000
0100
0001
,  // measure 42
2000
0000
3010
0000
0001
1000
0100
0010
,  // measure 43
0012
2003
3002
0103
,  // measure 44
0001
0000
0001
0010
0001
0000
0001
1000
0001
0000
0001
0100
0001
0000
0010
0001
,  // measure 45
1000
0000
1000
0010
1000
0000
1000
0001
1000
0000
1000
0100
1000
0000
0010
1000
,  // measure 46
0001
1000
0110
1001
,  // measure 47
1000
0000
0100
0000
0010
0000
0001
0000
0100
0000
0010
0000
1000
0000
0001
0000
1000
0000
0000
0000
0000
0000
0001
0010
0001
0000
1000
0000
0010
0000
0000
0000
,  // measure 48
1001
0000
1000
0010
0100
0010
1000
0000
0001
0010
0100
0010
0001
0000
0011
0000
,  // measure 49
1000
0000
0001
0100
0010
0100
0001
0000
1000
0100
0010
0100
1000
0000
1100
0000
,  // measure 50
0001
0000
1000
0001
0100
0001
1000
0000
0001
1000
0100
1000
0001
0000
1000
0000
,  // measure 51
0011
0000
0000
0000
0010
0000
0100
0000
1000
0000
0000
0000
0100
0000
1000
0000
0001
0000
0000
0000
1000
0000
0010
0100
0010
0000
0100
0000
0001
0000
1000
0000
,  // measure 52
0001
0010
0100
0000
0000
0000
0010
0001
0100
0000
0000
0000
0010
0100
0010
0000
,  // measure 53
1000
0100
0010
0000
0000
0000
0100
1000
0001
0000
1000
0001
0100
0000
0010
0000
,  // measure 54
1010
0001
1000
0000
0000
0000
0001
1000
0010
0000
1000
0001
0100
0000
0001
0000
,  // measure 55
0101
1000
0002
0000
0010
0000
0023
0000
0100
0000
0130
1000
0001
0000
0000
0000
,  // measure 56
2200
0000
3300
0010
,  // measure 57
0202
0000
0000
0000
0303
0000
0001
1000
,  // measure 58
0020
0000
0230
0000
,  // measure 59
0301
0000
0000
0000
;

//---------------dance-single - ----------------
#NOTES:
     dance-single:
     :
     Medium:
     4:
     0.194154,0.222738,0.061776,0.212785,0.000000,198.000000,189.000000,9.000000,31.000000,0.000000,0.000000,0.194154,0.222738,0.061776,0.212785,0.000000,198.000000,189.000000,9.000000,31.000000,0.000000,0.000000:
0000
0000
0000
0000
,
0000
0000
0000
0000
,
0000
0000
0000
0000
,
0000
0000
0000
0000
,
0002
0003
0100
0010
,
2000
0000
3000
0000
0100
0000
1000
0001
,
0200
0300
0000
1001
,
2002
0000
3003
0000
0000
0000
0001
1000
,
0020
0030
0100
0001
,
2000
3000
0100
1000
,
0020
0030
0000
0110
,
2002
3003
0001
1000
,
0020
0130
0002
0103
,
0020
0130
0002
0103
,
2002
3003
1000
0100
,
0010
0010
0010
0000
,
0010
0001
2000
3000
,
0010
1000
0002
0003
,
0100
0100
0010
0010
,
1000
0001
1000
0001
0000
0000
0000
0000
,
1001
1000
0010
0100
,
0010
0010
1000
0001
,
0010
0010
0001
1000
,
0200
0320
0032
0003
,
1000
1000
0000
0000
0001
0000
1000
0000
,
0010
0010
0000
0000
0100
0000
0001
0000
,
1000
1000
0000
0000
0100
0000
1000
0000
,
0001
0001
0000
0000
0100
0000
0010
0000
,
2002
0000
3003
0001
,
0200
0000
0300
0010
,
2000
0000
3200
0000
,
0310
0000
0000
0000
,
0001
0001
0000
0000
1000
0000
0001
0000
,
0100
0100
0000
0000
0001
0000
1000
0000
,
0010
0010
0000
0000
1000
0000
0001
0000
,
0010
0010
0000
0000
0000
0000
0000
0000
,
0001
0001
0000
0000
0100
0000
0001
0000
,
1000
1000
0000
0000
0100
0000
1000
0000
,
0010
0010
0000
0000
0100
0000
0100
0000
,
0001
0001
0000
0000
1000
0000
0001
0000
,
0010
0100
1000
0010
,
0100
0000
0001
0000
0010
0000
0001
0100
,
0001
0000
0100
0100
,
0010
1000
0001
0000
,
1000
0100
0010
0001
,
0100
0000
0001
0000
1000
0000
0010
0100
,
0010
0000
1000
0001
,
1000
0100
1000
0100
0000
0000
0000
0000
,
1001
0000
0001
0000
0010
0000
0001
0100
,
0100
0001
1000
0000
,
1000
0000
0001
0000
0100
0000
0100
0010
,
0010
1000
0001
0000
,
1000
1000
0000
0000
0001
0000
0100
0000
,
0010
0010
0000
0000
0100
0000
0001
0000
,
1000
1000
0000
0000
0100
0000
1000
0000
,
0001
0001
0000
0000
1000
0000
0001
0000
,
2002
0000
3003
1000
,
0020
0000
0030
0100
,
0002
0003
2000
3000
,
0010
0000
0000
0000
;

//---------------dance-single - ----------------
#NOTES:
     dance-single:
     :
     Easy:
     2:
     0.129436,0.161991,0.020592,0.000000,0.000000,132.000000,129.000000,3.000000,0.000000,0.000000,0.000000,0.129436,0.161991,0.020592,0.000000,0.000000,132.000000,129.000000,3.000000,0.000000,0.000000,0.000000:
0000
0000
0000
0000
,
0000
0000
0000
0000
,
0000
0000
0000
0000
,
0000
0000
0000
0000
,
1000
0000
0000
0010
,
0010
0000
0000
0100
,
0100
0000
0000
0001
,
0001
0000
0000
0000
,
1000
0000
0000
0001
,
0010
0000
0000
0001
,
1000
0000
0000
1000
,
0010
0000
0100
0000
,
0001
0001
0010
0000
,
0001
0000
1000
1000
,
1000
0000
0010
0000
,
0100
0100
0100
0000
,
0001
0001
0001
0000
,
1000
0000
1000
1000
,
1000
0000
0010
0000
,
0100
0100
0100
0000
,
1001
0000
0001
0010
,
0010
0000
0001
0100
,
0100
0000
0001
0000
,
1000
1000
1000
0000
,
0010
0000
0010
0010
,
1000
0000
1000
1000
,
0100
0000
0100
0100
,
0010
0000
0001
0000
,
1001
0000
0000
0000
,
0010
0000
0000
0000
,
0100
0000
0001
0000
,
1000
0000
0000
0000
,
0100
0000
0100
0100
,
1000
0000
1000
1000
,
0010
0000
0010
0010
,
0100
0000
0000
0000
,
0001
0000
0001
0001
,
0010
0000
0010
0010
,
0100
0000
0100
0100
,
1000
0000
0000
0000
,
0001
0100
0001
0000
,
0000
0000
1000
0100
,
0100
0000
1000
0001
,
1000
0000
0000
0000
,
1000
0010
1000
0000
,
0000
0000
0001
0010
,
0010
0000
0001
1000
,
0001
0000
0100
0000
,
1001
0000
1000
0010
,
1000
0000
0001
0000
,
0100
0000
0001
0010
,
0001
0000
1000
0000
,
0010
0000
0010
0010
,
0100
0000
0100
0100
,
0001
0000
0001
0001
,
1000
0000
1000
0000
,
0010
0000
0000
0000
,
0100
0000
0000
0000
,
0001
0000
1000
0000
,
0010
0000
0000
0000
;

//---------------dance-double - ----------------
#NOTES:
     dance-double:
     :
     Challenge:
     9:
     0.488327,0.587218,0.123553,0.130417,0.466754,498.000000,480.000000,18.000000,19.000000,0.000000,0.000000,0.488327,0.587218,0.123553,0.130417,0.466754,498.000000,480.000000,18.000000,19.000000,0.000000,0.000000:
00000000
00000000
00000000
00000000
,
00000000
00000000
00000000
00000000
,
00000000
00000000
00000000
00000000
,
00000000
00000000
00000000
00000000
00000000
00000000
00000000
00000000
00000000
00000000
00000001
00000010
00000100
00000000
00001000
00000000
,
00001020
00000000
00000000
00000000
00000130
00000000
00000010
00001000
00000010
00000000
00001000
00000000
00000100
00000000
00010000
00000000
,
00012000
00000000
00000000
00103000
00010000
01000000
00010000
10000000
00100000
10000000
00010000
00100000
,
00010000
00000000
10000000
00000000
01000000
00000000
00100000
00000000
00010000
00000000
01000000
00000000
00100000
00000000
01000000
00000000
00010000
00000000
10000000
00000000
00000000
01000000
00000000
00000000
,
02000000
00000000
00000000
00000000
03100000
00000000
00010000
00000000
10000000
00000000
10000000
01000000
00100000
00000000
00010000
00000000
,
02010000
00000000
00000000
00000000
03100000
00000000
01000000
00010000
01000000
00000000
00010000
00000000
00100000
00000000
00001000
00000000
,
00021000
00000000
00000000
00030100
00001000
00000010
00001000
00000001
00000100
00000001
00001000
00000100
,
00001000
00000000
00000001
00000000
00000010
00000000
00000100
00000000
00001000
00000000
00000010
00000000
00000100
00000000
00000010
00000000
00001000
00000000
00000001
00000000
00000000
00000010
00000000
00000000
,
00000020
00000000
00000130
00001000
00000010
00000100
00000001
00000000
,
00001000
00000000
00000100
00000000
00010000
00000000
00000100
00000000
00001000
00000100
00001000
00000000
00000010
00000000
00000100
00000000
,
00000001
00000000
00000010
00000000
00000100
00000000
00000010
00000000
00000100
00000000
00001000
00000000
00000001
00000000
00001000
00000100
,
00001000
00000000
00000000
00000000
00010100
00000000
00000000
00000000
00000100
00000000
00010000
00000000
00001000
00000000
00100000
00010000
,
00100000
00000000
00010000
10000000
00010000
00000000
10000000
01000000
10000000
00000000
00000000
00000000
00010000
00000000
00000000
00000000
,
10000000
00000000
00100000
00000000
01000000
00000000
00100000
00000000
10000000
01000000
10000000
00000000
00100000
00000000
01000000
00000000
,
00010000
00000000
10000000
00000000
00010000
00000000
10000000
00000000
00100000
00000000
01000000
00000000
00010000
00000000
00100000
00010000
,
01000000
01000000
00100000
00100000
,
10000000
00000000
01000000
00000000
00100000
00000000
01000000
00000000
00100000
00000000
00010000
00000000
01000000
00000000
00010000
00000000
00100000
00000000
00000000
00000000
00000000
00000000
00001000
00010000
00001000
00000000
00000100
00000000
00000001
00000000
00000000
00000000
,
00001000
00000000
00000100
00001000
00000001
00001000
00000100
00000000
00001000
00000001
00000100
00000001
00001000
00000000
00001001
00000000
,
00000001
00000000
00001000
00000010
00001000
00000001
00000010
00000000
00000001
00000010
00000001
00001000
00000010
00000000
00001100
00000000
,
00000001
00000000
00001000
00000100
00010000
00000100
00001000
00000000
00000100
00010000
00001000
00100000
00001000
00000000
00010000
00000000
,
00011000
00000000
00000000
00000000
00010000
00000000
00001000
00000000
00100000
00000000
00000000
00000000
00100000
00000000
00010000
00000000
01000000
00000000
00000000
00000000
00100000
00000000
10000000
00010000
10000000
00000000
00100000
00000000
01000000
00000000
00000000
00000000
,
00010000
01000000
00100000
00000000
00000000
00000000
10000000
01000000
00100000
00000000
00000000
00000000
00010000
10000000
00010000
00000000
,
00100000
00001000
00010000
00000000
00000000
00000000
00001000
00000100
00000001
00000000
00000001
00001000
00000001
00000000
00001000
00000000
,
00000100
00000010
00000001
00000000
00000000
00000000
00001000
00000100
00001000
00000000
00000001
00000100
00001000
00000000
00010000
00000000
,
00001000
00010000
00001000
00000000
00100000
00000000
00010000
00100000
00010000
00000000
01000000
00100000
10000000
00000000
00000000
00000000
,
12000000
00000000
03000000
00100000
,
00022000
00000000
00000000
00000000
00033000
00000000
00000100
00001000
,
00000020
00000000
00000230
00000000
,
00000301
00000000
00000000
00000000
,
00000001
00001000
00000010
00000000
00000000
00000000
00001000
00000100
00001000
00000000
00000000
00000000
00000010
00001000
00000001
00000000
,
00001000
00000100
00010000
00000000
00000000
00000000
00001000
00010000
00001000
00000000
00100000
00000000
00001000
00000000
00010000
00000000
,
00010000
00100000
10000000
00000000
00000000
00000000
01000000
10000000
01000000
00000000
10000000
00100000
10000000
00000000
00010000
00000000
,
00010000
10000000
01000000
00000000
00000000
00000000
00000000
00000000
00000000
00000000
00000000
00000000
00000000
00000000
00000000
00000000
,
10000000
01000000
00100000
00000000
00000000
00000000
00100000
00010000
01000000
00000000
00000000
00000000
00010000
01000000
00010000
00000000
,
10000000
00010000
00100000
00000000
00000000
00000000
00010000
00100000
00001000
00000000
00100000
00001000
00010000
00000000
00001000
00000000
,
00001000
00000100
00000001
00000000
00000000
00000000
00000100
00000010
00000100
00000000
00000001
00000010
00000100
00000000
00000010
00000000
,
00000001
00001000
00000001
00000000
00000000
00000000
00001000
00000000
00000000
00000000
00000010
00000000
00000010
00000000
00000100
00000000
,
00000101
00000100
00001010
00001000
00000100
00000100
00000011
00000010
,
00000100
00000000
00000100
00000000
00001010
00000000
00001000
00000000
00000001
00000000
00000001
00000000
00001000
00000000
00000010
00000100
,
00000010
00000000
00001000
00000100
00001000
00000000
00000010
00000000
00010000
00000000
00010000
00000000
00001000
00000000
00001000
00000000
,
00100000
00000000
00010000
00100000
00010000
00000000
10000000
00100000
10000000
00000000
00010000
00000000
00100000
00000000
00000000
00000000
,
00010000
00000000
10000000
01000000
10000000
00000000
01000000
00100000
01000000
00000000
00100000
00010000
00100000
00000000
00001000
00000000
,
01000000
00000000
00100000
01000000
00100000
00000000
10000000
01000000
10000000
00000000
00100000
00000000
01000000
00000000
00010000
00000000
,
00200000
00302000
00023000
00030200
,
00001300
00000000
00000010
00000000
00000100
00000000
00000001
00000000
00000010
00000000
00000100
00000000
00001000
00000000
00000010
00000000
00010000
00000000
00000000
00000000
00000000
00000000
00001000
00010000
00001000
00000000
00100000
00000000
00010000
00000000
00000000
00000000
,
10010000
00000000
10000000
01000000
00010000
01000000
10000000
00000000
00100000
10000000
01000000
00100000
00010000
00000000
00110000
00000000
,
01000000
00000000
00100000
00010000
00001000
00010000
00100000
00000000
01000000
00010000
00100000
00001000
00010000
00000000
00011000
00000000
,
00000100
00000000
00010000
00000010
00000100
00000010
00001000
00000000
00000001
00000010
00001000
00000010
00000001
00000000
00000100
00000010
,
00001000
00000000
00000000
00000000
00000100
00000000
00010000
00000000
00001000
00000000
00000000
00000000
00010000
00000000
00000100
00000000
00001000
00000000
00000000
00000000
00000010
00000000
00000100
00000001
00000100
00000000
00000001
00000000
00001000
00000000
00000000
00000000
,
00000100
00010000
00000010
00000000
00000000
00000000
00010000
00001000
00010000
00000000
00000000
00000000
00001000
00100000
00010000
00000000
,
00100000
01000000
00100000
00000000
00000000
00000000
01000000
10000000
00010000
00000000
10000000
00100000
01000000
00000000
00010000
00000000
,
01000000
00001000
00010000
00000000
00000000
00000000
00001000
00010000
00000100
00000000
00001000
00000100
00000001
00000000
00000100
00000000
,
00001000
00000010
00000100
00000000
00000001
00000000
00001000
00000010
00001000
00000000
00000001
00000010
00000100
00000000
00000000
00000000
,
00002001
00000000
00000000
00000000
00003000
00000000
00000100
00010000
,
00002000
00000000
00000000
00000000
00003000
00000000
00010000
00001000
,
00200000
00000000
02300000
00000000
,
13000000
00000000
00000000
00000000
;

//---------------dance-single - ----------------
#NOTES:
     dance-single:
     :
     Beginner:
     1:
     0.100999,0.161991,0.041184,0.000000,0.000000,103.000000,97.000000,6.000000,0.000000,0.000000,0.000000,0.100999,0.161991,0.041184,0.000000,0.000000,103.000000,97.000000,6.000000,0.000000,0.000000,0.000000:
0000
0000
0000
0000
,
0000
0000
0000
0000
,
0000
0000
0000
0000
,
0000
0000
0000
0000
,
0001
0000
0000
0000
,
1000
0000
0000
0000
,
0010
0000
0000
0010
,
0010
0000
0000
0000
,
1000
0000
0000
0100
,
0100
0000
0000
1000
,
1000
0000
0000
0001
,
0001
0000
0000
0000
,
0100
0100
0100
0000
,
0000
0000
0001
0001
,
0001
0000
0000
0000
,
1000
0000
1000
0000
,
1000
1000
1000
0000
,
0000
0000
0010
0010
,
0010
0000
0000
0000
,
0100
0100
0100
0000
,
1001
0000
0000
0001
,
0001
0000
0000
1000
,
1000
0000
0000
0000
,
0010
0010
0010
0000
,
0010
0000
0000
0100
,
0100
0000
0000
0001
,
0001
0000
0000
1000
,
1000
0000
0000
0000
,
1001
0000
0000
0000
,
1000
0000
0000
0000
,
0010
0000
0010
0000
,
0010
0000
0000
0000
,
0001
0000
0000
0100
,
0100
0000
0000
0000
,
0001
0000
0000
1000
,
1000
0000
0000
0000
,
1000
0000
0000
0010
,
0010
0000
0000
0000
,
1000
0000
0000
0001
,
0001
0000
0000
0000
,
1001
0000
0000
0000
,
0000
0000
0100
0100
,
0100
0000
0100
0100
,
0100
0000
0000
0000
,
1001
0000
0000
0000
,
0000
0000
0010
0010
,
0010
0000
0010
0010
,
0010
0010
0010
0000
,
1001
0000
0000
1000
,
1000
0000
0000
0001
,
0001
0000
0000
0000
,
0100
0100
0100
0000
,
0100
0000
0000
0001
,
0001
0000
0000
1000
,
1000
0000
0000
0010
,
0010
0000
0000
0000
,
1001
0000
0000
0000
,
1000
0000
0000
0000
,
0100
0000
0100
0000
,
0100
0000
0000
0000
;
