#TITLE:Hawaiian Roller Coaster Ride;
#SUBTITLE:;
#ARTIST:Disney Grooves;
#TITLETRANSLIT:;
#SUBTITLETRANSLIT:;
#ARTISTTRANSLIT:;
#CREDIT:;
#BANNER:;
#BACKGROUND:;
#LYRICSPATH:;
#CDTITLE:./CDTITLES/DanceDanceRevolution Disney Grooves.png;
#MUSIC:Hawaiian Roller Coaster Ride.mp3;
#OFFSET:0.270;
#SAMPLESTART:37.800;
#SAMPLELENGTH:15.000;
#SELECTABLE:YES;
#BPMS:0.000=88.000,56.000=176.000;
#STOPS:;
#BGCHANGES:;

//---------------dance-single - ----------------
#NOTES:
     dance-single:
     :
     Beginner:
     2:
     0.112,0.142,0.104,0.000,0.000:
0000
0000
0000
0000
,
0000
0000
0000
0000
,
0000
0000
0000
0000
,
1000
0000
0010
0000
,
1000
0000
0100
0000
,
0001
0000
0010
0000
,
0001
0000
0100
0000
,
0000
0000
1001
0000
,
0000
0000
1001
0000
,
0010
0000
0100
0000
,
0010
0000
0100
0000
,
0000
1001
0000
0001
,
0000
1001
0000
1000
,
0000
0000
0000
0000
,
0001
0000
0000
0000
,
0100
0000
0000
0000
,
1000
0000
0000
0000
,
0100
0000
0000
0000
,
0001
0000
0000
0000
,
1000
0000
1000
0000
,
1000
0000
0000
0000
,
0001
0000
0001
0000
,
0001
0000
0000
0000
,
0010
0010
0010
0000
,
1000
0000
0000
0000
,
0100
0100
0100
0000
,
0001
0000
0000
0000
,
0001
0000
0001
0000
,
1000
0000
0000
0000
,
1000
1000
1000
0000
,
1000
0000
0000
0000
,
0010
0000
0000
0000
,
1000
0000
0000
0000
,
0100
0000
0000
0000
,
0001
0000
0000
0000
,
0010
0000
0000
0000
,
0001
0000
0000
0000
,
0100
0000
0000
0000
,
0000
0000
0000
0000
,
1001
0000
0000
0000
,
0000
0000
0000
0000
,
1001
0000
0000
0000
,
0010
0000
0000
0000
,
0100
0000
0000
0000
,
0010
0000
0000
0000
,
0100
0000
0000
0000
,
0000
0000
1001
0000
,
0000
0000
0001
0000
,
0000
0000
1001
0000
,
0000
0000
1000
0000
,
0000
0000
0000
0000
,
1000
0000
1000
0000
,
0001
0000
0001
0000
,
0000
0000
0000
0000
,
0000
0000
1001
0000
,
0000
0000
0100
0000
,
0000
0000
1001
0000
,
0000
0000
0100
0000
,
0000
0000
0000
0000
,
0001
0000
1000
0000
,
1001
0000
0000
0000
;

//---------------dance-single - ----------------
#NOTES:
     dance-single:
     :
     Easy:
     4:
     0.164,0.227,0.104,0.094,0.000:
0000
0000
0000
0000
,
0000
0000
0000
0000
,
0000
0000
0000
0000
,
0001
1000
0010
0000
,
0002
0003
1000
0000
,
1000
0001
0100
0000
,
2000
3000
0001
0000
,
1000
1000
1001
0000
,
0001
0001
1001
0000
,
0001
0010
0100
0000
,
0001
0100
0010
0000
,
0000
0110
0000
0001
,
0000
0110
0000
1000
,
0000
0000
0001
0001
,
1000
0000
0100
0000
,
0100
0100
0000
0000
,
0001
0000
0100
0000
,
0100
0000
0000
0000
,
0002
0000
0003
0000
,
1000
0100
1000
0000
,
2000
0000
3000
0000
,
0001
0100
0001
0000
,
1000
0000
0001
0000
,
0001
1000
0001
0000
,
0001
0000
1000
0000
,
1000
0001
1000
0000
,
0002
0000
0003
0000
,
0010
0000
0010
0000
,
2000
0000
3000
0000
,
0100
0100
0100
0000
,
0001
0000
1000
0000
,
0010
0000
0000
0000
,
0002
0000
0003
0000
,
1000
0000
0000
0000
,
1000
0000
0001
0000
,
0100
0000
0000
0000
,
2000
0000
3000
0000
,
0001
0000
0000
0000
,
1000
0000
1000
0000
,
1001
0000
0000
0000
,
0001
0000
0001
0000
,
1001
0000
0000
0000
,
0001
0000
0100
0000
,
0010
0000
0000
0000
,
0001
0000
0010
0000
,
0100
0000
0000
0000
,
0000
0000
0110
0000
,
0000
0000
0001
0000
,
0000
0000
0110
0000
,
0000
0000
1000
0000
,
0000
0000
0000
0000
,
2000
0000
3001
0000
,
0002
0000
1003
0000
,
0000
0000
0000
0000
,
0000
0000
0110
0000
,
1000
0000
0001
0000
,
0000
0000
0110
0000
,
0001
0000
1000
0000
,
0000
0000
0000
0000
,
0001
0001
1000
1000
,
1001
0000
0000
0000
;

//---------------dance-single - ----------------
#NOTES:
     dance-single:
     :
     Medium:
     6:
     0.209,0.283,0.104,0.113,0.000:
0000
0000
0000
0000
,
0000
0000
0000
0000
,
0000
0000
0000
0000
,
0001
0100
0010
0010
,
2000
3010
0100
0100
,
1000
0010
0100
0100
,
0002
0103
0010
0010
,
1000
1001
0100
0000
,
0001
1001
0100
0000
,
1000
0010
0100
0001
,
1000
0100
0010
0001
,
0000
0110
0000
1000
,
0001
1001
0000
0001
,
0100
0000
0000
0000
0100
0100
0100
0000
,
1000
0000
0001
0000
,
0010
0000
0001
0000
,
0001
0000
1000
0000
,
0010
0000
1000
0000
,
0200
0000
0310
0000
,
1000
0010
0100
0000
,
0020
0000
0130
0000
,
0001
0100
0010
0000
,
2000
3000
0200
0300
,
1000
0001
1000
0000
,
0002
0003
0020
0030
,
0001
1000
0001
0000
,
2000
0000
3000
0000
,
1000
1000
0001
0000
,
0002
0000
0003
0000
,
0001
1000
1000
0000
,
0001
0000
0100
0000
,
0010
0000
0010
0000
,
2000
0000
3010
0000
,
0100
0000
0100
0000
,
1000
0000
0010
0000
,
0100
0000
0100
0000
,
0002
0000
0103
0000
,
0010
0000
0010
0000
,
1000
0000
1001
0000
,
0100
0000
0000
0000
,
0001
0000
1001
0000
,
0100
0000
0000
0000
,
1000
0000
0010
0000
,
0100
0000
0001
0000
,
1000
0000
0100
0000
,
0010
0000
0001
0000
,
0000
0000
0110
0000
,
0000
0000
1000
0000
,
0001
0000
1001
0000
,
0000
0000
0001
0000
,
0100
0000
0000
0000
,
1000
1000
1000
0000
,
0001
0001
0001
0000
,
1000
0000
0000
0000
,
0001
0000
0110
0000
,
1000
0000
0001
0000
,
1000
0000
1001
0000
,
1000
0000
0001
0000
,
0100
0000
0000
0000
,
0001
1000
0001
1000
,
1001
0000
0000
0000
;

//---------------dance-single - ----------------
#NOTES:
     dance-single:
     :
     Hard:
     8:
     0.289,0.425,0.123,0.094,0.000:
0000
0000
0000
0000
,
0000
0000
0000
0000
,
0000
0000
0000
0000
,
1000
0100
0010
0000
0100
0100
0010
0000
,
2000
0000
3100
0000
0010
1000
0001
0000
,
0001
0010
0100
0000
0010
0010
0100
0000
,
0002
0000
0013
0000
0100
0001
1000
0000
,
0100
0000
1100
0000
0010
0100
0010
0000
,
0010
0000
0011
0000
0100
0010
0100
0000
,
1000
0100
0010
0001
,
1000
0100
0010
0001
1000
0100
0010
0001
,
1000
0000
0100
0000
1100
0000
0100
1000
,
0001
0000
0010
0000
0011
0000
0010
0001
,
1000
0000
0000
0000
0010
0010
0010
0000
,
1001
0000
0001
0100
,
1000
0100
0001
0000
,
1001
0000
1000
0100
,
0001
0100
1000
0000
,
2000
0000
3001
0010
,
1000
0010
0001
0000
,
0002
0000
1003
0010
,
1000
0010
0001
0000
,
1000
1000
0001
0001
,
1000
0010
0010
0000
,
0001
0001
1000
1000
,
0001
0100
0100
0000
,
2000
0000
0010
3010
,
0001
0010
0010
0010
,
0002
0000
0100
0103
,
1000
0100
0100
0000
,
1000
0100
0010
0000
,
0100
0100
0010
0000
,
2000
0000
3100
0000
,
0010
1000
0001
0000
,
0001
0010
0100
0000
,
0010
0010
0100
0000
,
0002
0000
0013
0000
,
0100
0001
1000
0000
,
0100
0000
1100
0000
,
0010
0100
0010
0000
,
0010
0000
0011
0000
,
0100
0010
0100
0000
,
1000
0000
0100
0000
,
0010
0000
0001
0000
,
1000
0100
0010
0001
,
1000
0100
0010
0001
,
1000
0000
0100
0000
,
1100
0000
0100
1000
,
0001
0000
0010
0000
,
0011
0000
0010
0001
,
1000
0000
0000
0000
,
0200
1000
1000
1300
,
0020
0001
0001
0031
,
0100
0000
0000
0000
,
0001
0000
0100
0000
,
1100
0000
0100
0001
,
1000
0000
0010
0000
,
0011
0000
0010
1000
,
0001
0000
0000
0000
,
1000
0001
1000
0000
0001
1000
0001
0000
,
1001
0000
0000
0000
;
