#TITLE:Thinking Out Loud;
#SUBTITLE:;
#ARTIST:Ed Sheeran;
#TITLETRANSLIT:;
#SUBTITLETRANSLIT:;
#ARTISTTRANSLIT:;
#GENRE:We Found Love In A Hopeless Place;
#CREDIT:;
#BANNER:Thinking Out Loud.png;
#BACKGROUND:Thinking Out Loud-bg.png;
#LYRICSPATH:;
#CDTITLE:;
#MUSIC:Thinking Out Loud.ogg;
#OFFSET:0.060000;
#SAMPLESTART:59.914486;
#SAMPLELENGTH:15.753999;
#SELECTABLE:YES;
#DISPLAYBPM:79.000000;
#BPMS:0.000000=79.000000
,180.000000=74.779999
;
#STOPS:
;
#BGCHANGES:8.000=Thinking Out Loud.avi=1.000=0=0=1=====,
99999=-nosongbg-=1.000=0=0=0 // don't automatically add -songbackground-
;
#KEYSOUNDS:;
#ATTACKS:;

//---------------dance-single - ----------------
#NOTES:
     dance-single:
     :
     Hard:
     6:
     0.336322,0.402782,0.111775,0.181634,0.073352,295.000000,16.000000,26.000000,0.000000,0.000000,0.000000,0.336322,0.402782,0.111775,0.181634,0.073352,295.000000,16.000000,26.000000,0.000000,0.000000,0.000000:
// measure 0
0000
0000
0000
0000
,  // measure 1
0000
0000
0000
0000
,  // measure 2
0000
0000
0000
0000
,  // measure 3
0000
0000
0000
0000
,  // measure 4
1000
0000
0001
0100
0100
0000
0010
0000
,  // measure 5
1000
0000
0100
0010
0010
0001
1000
0001
,  // measure 6
0100
0000
0010
1000
1000
0000
0001
0000
,  // measure 7
1000
0010
0100
0002
0000
0000
1003
0000
,  // measure 8
0010
0000
0100
0100
0001
0000
1000
0000
,  // measure 9
0100
0000
0010
0010
0001
1000
0010
0100
,  // measure 10
0001
0000
1000
0100
0100
0000
0010
0000
,  // measure 11
0001
0010
0100
1000
0010
0100
0001
0000
,  // measure 12
1000
0100
1000
0100
0010
0001
0010
0001
,  // measure 13
1000
0010
0100
0001
1000
0000
0001
0000
,  // measure 14
0010
0001
0010
0001
1000
0100
1000
0100
,  // measure 15
0010
0000
0001
1000
0000
0010
0100
0000
,  // measure 16
0001
1000
0010
0100
0001
1000
0010
0100
,  // measure 17
0001
0010
0100
1000
0010
0100
0001
0000
,  // measure 18
1000
1000
0100
1000
0010
0010
0100
0001
,  // measure 19
1000
1000
0100
0001
0001
0000
0000
0000
,  // measure 20
1100
0100
1000
0002
0010
0100
1003
0000
,  // measure 21
1000
0000
0001
0000
0100
0000
0010
0000
1000
0000
0001
0000
0010
0100
0010
0000
,  // measure 22
0001
0010
0001
2000
0100
0010
3001
0000
,  // measure 23
0001
0000
1000
0000
0010
0000
0100
0000
0001
0000
1000
0000
0100
0010
0100
0000
,  // measure 24
2000
0010
3002
0200
0000
0303
1001
0000
,  // measure 25
1000
0000
0001
0000
0010
0000
0100
0000
1000
0000
0010
0000
0100
0001
0100
0000
,  // measure 26
0020
0000
1030
0001
1000
0100
0100
0010
,  // measure 27
0001
0000
1000
0000
0010
0000
0100
0000
0100
0000
0001
0000
1000
0010
0000
0000
,  // measure 28
1001
1100
1010
0011
,  // measure 29
1001
0000
0100
0000
1001
0000
0202
0000
0300
0000
1003
0100
0010
0001
0100
0010
,  // measure 30
1000
0000
0001
0000
0010
0100
0010
0000
0001
0000
1000
0000
0010
0000
0000
0000
,  // measure 31
1000
0001
1000
0000
0001
0100
0001
0000
1000
0000
0001
0000
1000
0100
1000
0000
,  // measure 32
0010
0100
0001
0000
1000
0000
0100
0000
0100
0000
0010
0000
0001
0000
1000
0000
,  // measure 33
0010
0000
0010
0000
0100
0000
0001
0000
0001
0000
1000
0000
0100
0010
0001
0000
,  // measure 34
2000
0100
0010
3002
0100
0010
1003
0001
,  // measure 35
1000
0000
0010
0000
0100
0000
0001
1000
0001
0000
0010
0000
0100
1000
0100
0000
,  // measure 36
0020
0001
0100
0032
0100
1000
0013
0001
,  // measure 37
1000
0000
0010
0000
0100
0000
0001
1000
0001
0000
1000
0000
0010
0100
0001
0000
,  // measure 38
2000
0100
0010
3020
0001
0100
1030
0001
,  // measure 39
1000
0000
0100
0000
0010
0000
0001
1000
0001
0000
0100
0000
0010
1000
0010
0000
,  // measure 40
0200
0000
0000
0000
0301
0000
1000
0000
0100
0000
0010
0000
0001
1000
0001
0000
,  // measure 41
2000
0000
0000
0000
0100
0000
3002
0000
0000
0000
0100
0000
1003
0100
0000
0000
,  // measure 42
1001
1100
1010
0011
,  // measure 43
1001
0010
1001
2200
0000
0000
3300
0000
,  // measure 44
0002
2003
3020
0230
,  // measure 45
0302
0000
0000
2000
0000
0000
0000
0000
,  // measure 46
0000
3003
0000
0000
0000
0000
0000
0000
;

//---------------dance-single - ----------------
#NOTES:
     dance-single:
     :
     Medium:
     3:
     0.212572,0.257082,0.006986,0.293409,0.000000,170.000000,1.000000,42.000000,0.000000,0.000000,0.000000,0.212572,0.257082,0.006986,0.293409,0.000000,170.000000,1.000000,42.000000,0.000000,0.000000,0.000000:
0000
0000
0000
0000
,
0000
0000
0000
0000
,
0000
0000
0000
0000
,
0000
0000
0000
0000
,
0100
0000
0000
0010
0000
0000
1000
0000
,
0100
0000
0000
0010
0000
0000
0001
1000
,
0001
0000
0000
0100
0000
0000
0010
0000
,
1000
0100
0010
0001
0000
0000
1000
0000
,
0010
0000
0000
0100
0000
0000
0001
0000
,
1000
0000
0000
0100
0000
0000
0010
0001
,
1000
0000
0000
0010
0000
0000
0100
0000
,
0001
0010
0100
1000
0001
0000
1000
0000
,
0020
0130
0001
1000
,
0200
0000
0310
0001
1000
0000
0000
0000
,
0010
0000
0100
0000
0001
1000
0001
1000
,
0100
0010
0001
0000
,
1000
0010
0100
0001
,
2000
3100
0020
0031
,
1000
0001
1000
0000
0001
1000
0001
0000
,
0100
0100
0010
0000
,
1001
0100
1000
0010
,
0200
0000
0300
0000
0001
1000
0001
0000
,
0010
0001
1000
0010
,
0200
0000
0300
0000
0001
1000
0001
0000
,
2000
3100
0020
0031
,
2000
0000
3010
0000
0100
0010
1000
0100
,
0020
0031
2000
3010
,
0200
0301
0002
1003
,
2000
3200
0320
0032
,
2003
0000
0010
0020
0000
0000
3030
0000
,
1000
0000
0001
0002
0000
0000
0103
0000
,
0001
0000
1000
2000
0000
0000
3100
0000
,
1000
0001
0100
0100
,
0010
1000
0010
1000
0010
1000
0001
0000
,
0200
0000
0310
0000
1000
0001
1000
0000
,
0200
0000
0300
0000
1000
0001
1000
0000
,
0002
1003
0010
0100
,
0002
0000
1003
0000
0001
0010
0100
1000
,
0020
0130
0200
0300
,
0002
0000
1003
0000
2000
0000
3100
1000
,
0001
0100
0100
0010
,
2000
3000
0002
0003
,
0200
0320
0230
0320
,
2030
0000
0001
0002
0000
0000
3003
0000
,
2000
3200
0320
0032
,
2000
0000
0000
0000
,
3003
0000
0000
0000
;

//---------------dance-single - ----------------
#NOTES:
     dance-single:
     :
     Easy:
     2:
     0.115767,0.144609,0.006986,0.027944,0.000000,111.000000,1.000000,4.000000,0.000000,0.000000,0.000000,0.115767,0.144609,0.006986,0.027944,0.000000,111.000000,1.000000,4.000000,0.000000,0.000000,0.000000:
0000
0000
0000
0000
,
0000
0000
0000
0000
,
0000
0000
0000
0000
,
0000
0000
0000
0000
,
0100
0000
0001
0000
,
1000
0000
0100
0000
,
0010
0001
0010
0000
,
0001
1000
0001
0000
,
1000
0000
0010
0000
,
0100
0000
0001
0100
,
0001
0000
1000
0100
,
1000
0000
0010
0000
,
1000
1000
1000
0000
,
0001
0001
0001
0000
,
0100
0001
0100
0001
,
1000
0000
0001
0000
,
0001
0001
0001
0000
,
1000
1000
1000
0000
,
1000
0010
1000
0010
,
0200
0000
0300
0000
,
0001
0000
1000
0000
,
0001
0000
1000
0100
,
0010
0000
0001
0000
,
0010
0000
0001
1000
,
0010
0000
1000
0000
,
0010
0000
1000
0100
,
0010
0000
0001
0000
,
1000
0000
0010
0000
,
0100
0100
0100
0100
,
0100
0100
0100
0000
,
0010
1000
0000
0001
,
0000
0010
0001
1000
,
0100
0000
1000
0000
,
0010
0010
0010
0010
,
1001
0000
0100
0000
,
1000
0000
0010
0100
,
0001
0000
1000
0000
,
0100
0000
0010
0001
,
1000
0000
0010
0000
,
1000
0000
0001
0100
,
0010
0000
1000
0000
,
0100
0010
0100
0000
,
1000
1000
0001
0001
,
0100
0100
0100
0000
,
0002
0003
2000
3000
,
0020
0000
0000
0000
,
0030
0000
0000
0000
;

//---------------dance-single - ----------------
#NOTES:
     dance-single:
     :
     Beginner:
     1:
     0.077843,0.110028,0.013972,0.000000,0.000000,76.000000,2.000000,0.000000,0.000000,0.000000,0.000000,0.077843,0.110028,0.013972,0.000000,0.000000,76.000000,2.000000,0.000000,0.000000,0.000000,0.000000:
0000
0000
0000
0000
,
0000
0000
0000
0000
,
0000
0000
0000
0000
,
0000
0000
0000
0000
,
0100
0000
0000
0000
,
0010
0000
0000
0000
,
1000
0000
0000
0000
,
0001
0000
0001
0000
,
0001
0000
0000
0000
,
1000
0000
0000
0000
,
0010
0000
0000
0000
,
0100
0000
0100
0000
,
0001
0001
0001
0000
,
0001
0000
0000
0000
,
1000
1000
1000
0000
,
1000
0000
0000
0000
,
0100
0100
0100
0000
,
0100
0000
0000
0000
,
0010
0000
0001
0000
,
1000
0000
0000
0000
,
0110
0000
0000
0000
,
0010
0000
1000
1000
,
1000
0000
0000
0000
,
0100
0000
0010
0010
,
0010
0000
0000
0000
,
0001
0000
0100
0100
,
0100
0000
0000
0000
,
0010
0000
1000
0000
,
0100
0100
0100
0100
,
0100
0000
0000
0000
,
1000
1000
0000
0000
,
0001
0001
0000
0000
,
0100
0100
0000
0000
,
0010
0000
0000
0000
,
1001
0000
0000
0000
,
1000
0000
0100
0100
,
0100
0000
0000
0000
,
0010
0000
0001
0001
,
0001
0000
0000
0000
,
1000
0000
0010
0010
,
0010
0000
0000
0000
,
0100
0000
0000
0000
,
0001
0001
0001
0001
,
0001
0000
0000
0000
,
1000
1000
1000
1000
,
1000
0000
0000
0000
;

//---------------dance-double - ----------------
#NOTES:
     dance-double:
     :
     Challenge:
     5:
     0.302391,0.289217,0.041916,0.202592,0.006986,268.000000,6.000000,29.000000,0.000000,0.000000,0.000000,0.302391,0.289217,0.041916,0.202592,0.006986,268.000000,6.000000,29.000000,0.000000,0.000000,0.000000:
00000000
00000000
00000000
00000000
,
00000000
00000000
00000000
00000000
,
00000000
00000000
00000000
00000000
,
00000000
00000000
00000000
00000000
,
10000000
01000000
01000000
00100000
00010000
00010000
10000000
00000000
,
00100000
01000000
01000000
00010000
10000000
10000000
00010000
01000000
,
00001000
00001000
00010000
00000100
00000100
00001000
00000010
00000000
,
00000100
00000100
00000001
00001000
00001000
00000100
00000010
00000000
,
00000001
00001000
00000001
00000100
00000010
00001000
00000100
00000000
,
00001000
00000010
00001000
00000001
00000010
00000100
00001000
00000000
,
00000001
00000100
00000001
00001000
00000100
00010000
00010000
00000000
,
00001000
00010000
01000000
10000000
00100000
01000000
00010000
00000000
,
10000000
01000000
10000000
01000000
10000000
01000000
00010000
00100000
,
00010000
10000000
00010000
10000000
00100000
00010000
00001000
00000000
,
00010000
00001000
00010000
00001000
00010000
00010000
00001000
00001000
,
00000100
00000000
00000001
00000000
00001000
00000100
00000010
00000000
,
00000001
00000010
00000001
00000010
00000001
00000010
00001000
00000100
,
00000001
00001000
00000001
00001000
00000010
00000100
00000001
00000000
,
00001000
00001000
00000100
00010000
00001000
00001000
00100000
00010000
,
01000000
01000000
01000000
01000000
01000000
00000000
00000000
00000000
,
01020000
00000000
10030000
01000000
00010000
01000000
10000000
00000000
,
00100000
00100000
01000000
00010000
10000000
01000000
00100000
00000000
,
21000000
00000000
30010000
01000000
10000000
01000000
00010000
00000000
,
01000000
00100000
00010000
00001000
00100000
00010000
00000010
00000001
,
00000200
00000000
00000310
00001000
00000200
00000000
00000310
00000000
,
00000001
00001000
00001000
00000010
00000100
00000100
00000001
00001000
,
00000200
00010000
00001300
00010100
,
00010000
00000000
00001000
00000000
00010000
00000000
00000100
00000000
00001000
00000000
00000100
00000000
00010000
00001000
00000000
00000000
,
00200000
00320000
02030000
03002000
,
00023000
00000000
00031000
00000200
00000000
00000301
00000010
00000100
,
00001000
00001000
00000010
00000010
00000100
00000000
00000001
00000000
,
00001000
00001000
00000100
00000100
00010000
00000000
00001000
00010000
,
00020000
00000100
00001000
00030100
,
00001000
00000100
00000001
00000010
00001000
00000001
00001000
00000010
,
00002010
00000000
00003001
00000010
00001000
00000010
00000001
00000000
,
00000100
00000100
00000010
00001000
00000001
00000010
00000100
00000000
,
00000012
00000000
00001003
00000010
00000001
00000010
00001000
00000000
,
00000010
00000100
00001000
00010000
00000100
00001000
01000000
10000000
,
00200000
00000000
01300000
00010000
00200000
00000000
01300000
00000000
,
10000000
00010000
00010000
01000000
00100000
00100000
10000000
00010000
,
00200000
00001000
00310000
00101000
,
00001000
00000000
00010000
00000000
00001000
00000000
00100000
00000000
00010000
00000000
00100000
00000000
00001000
00010000
00000000
00000000
,
00000200
00002300
00003020
00020030
,
00032000
00000000
00013000
00200000
00000000
10300000
01000000
00100000
,
00002000
00023000
00030200
00002300
,
00003002
00000000
00000000
00000200
00000000
00000000
00000000
00000000
,
00000303
00000000
00000000
00000000
;
